  0
SECTION
  2
HEADER
  9
$ACADVER
  1
AC1021
  9
$ACADMAINTVER
 70
     1
  9
$DWGCODEPAGE
  3
ANSI_1252
  9
$LASTSAVEDBY
  1
fottrem
  9
$INSBASE
 10
0.0
 20
0.0
 30
0.0
  9
$EXTMIN
 10
-7.694851235698252
 20
-5.713731357212509
 30
0.0
  9
$EXTMAX
 10
203.6948512356983
 20
289.2137313572124
 30
0.0
  9
$LIMMIN
 10
0.0
 20
0.0
  9
$LIMMAX
 10
210.0
 20
297.0
  9
$ORTHOMODE
 70
     1
  9
$REGENMODE
 70
     1
  9
$FILLMODE
 70
     1
  9
$QTEXTMODE
 70
     0
  9
$MIRRTEXT
 70
     1
  9
$LTSCALE
 40
10.0
  9
$ATTMODE
 70
     1
  9
$TEXTSIZE
 40
2.0
  9
$TRACEWID
 40
0.05
  9
$TEXTSTYLE
  7
ROMANS
  9
$CLAYER
  8
VIEWPORT
  9
$CELTYPE
  6
ByLayer
  9
$CECOLOR
 62
   256
  9
$CELTSCALE
 40
1.0
  9
$DISPSILH
 70
     0
  9
$DIMSCALE
 40
1.0
  9
$DIMASZ
 40
3.5
  9
$DIMEXO
 40
1.0
  9
$DIMDLI
 40
10.0
  9
$DIMRND
 40
0.0
  9
$DIMDLE
 40
0.0
  9
$DIMEXE
 40
2.0
  9
$DIMTP
 40
0.0
  9
$DIMTM
 40
0.0
  9
$DIMTXT
 40
3.5
  9
$DIMCEN
 40
-3.0
  9
$DIMTSZ
 40
0.0
  9
$DIMTOL
 70
     0
  9
$DIMLIM
 70
     0
  9
$DIMTIH
 70
     0
  9
$DIMTOH
 70
     0
  9
$DIMSE1
 70
     0
  9
$DIMSE2
 70
     0
  9
$DIMTAD
 70
     1
  9
$DIMZIN
 70
     8
  9
$DIMBLK
  1

  9
$DIMASO
 70
     1
  9
$DIMSHO
 70
     1
  9
$DIMPOST
  1

  9
$DIMAPOST
  1

  9
$DIMALT
 70
     0
  9
$DIMALTD
 70
     2
  9
$DIMALTF
 40
25.4
  9
$DIMLFAC
 40
1.0
  9
$DIMTOFL
 70
     1
  9
$DIMTVP
 40
0.0
  9
$DIMTIX
 70
     0
  9
$DIMSOXD
 70
     0
  9
$DIMSAH
 70
     0
  9
$DIMBLK1
  1

  9
$DIMBLK2
  1

  9
$DIMSTYLE
  2
ROMANS
  9
$DIMCLRD
 70
     0
  9
$DIMCLRE
 70
     0
  9
$DIMCLRT
 70
     4
  9
$DIMTFAC
 40
1.0
  9
$DIMGAP
 40
2.0
  9
$DIMJUST
 70
     0
  9
$DIMSD1
 70
     0
  9
$DIMSD2
 70
     0
  9
$DIMTOLJ
 70
     1
  9
$DIMTZIN
 70
     0
  9
$DIMALTZ
 70
     0
  9
$DIMALTTZ
 70
     0
  9
$DIMUPT
 70
     0
  9
$DIMDEC
 70
     2
  9
$DIMTDEC
 70
     2
  9
$DIMALTU
 70
     2
  9
$DIMALTTD
 70
     2
  9
$DIMTXSTY
  7
ROMANS
  9
$DIMAUNIT
 70
     0
  9
$DIMADEC
 70
     0
  9
$DIMALTRND
 40
0.0
  9
$DIMAZIN
 70
     0
  9
$DIMDSEP
 70
    46
  9
$DIMATFIT
 70
     3
  9
$DIMFRAC
 70
     0
  9
$DIMLDRBLK
  1

  9
$DIMLUNIT
 70
     2
  9
$DIMLWD
 70
    -2
  9
$DIMLWE
 70
    -2
  9
$DIMTMOVE
 70
     0
  9
$DIMFXL
 40
1.0
  9
$DIMFXLON
 70
     0
  9
$DIMJOGANG
 40
0.7853981633974483
  9
$DIMTFILL
 70
     0
  9
$DIMTFILLCLR
 70
     0
  9
$DIMARCSYM
 70
     0
  9
$DIMLTYPE
  6

  9
$DIMLTEX1
  6

  9
$DIMLTEX2
  6

  9
$LUNITS
 70
     2
  9
$LUPREC
 70
     4
  9
$SKETCHINC
 40
0.1
  9
$FILLETRAD
 40
0.0
  9
$AUNITS
 70
     0
  9
$AUPREC
 70
     0
  9
$MENU
  1
.
  9
$ELEVATION
 40
0.0
  9
$PELEVATION
 40
0.0
  9
$THICKNESS
 40
0.0
  9
$LIMCHECK
 70
     0
  9
$CHAMFERA
 40
0.0
  9
$CHAMFERB
 40
0.0
  9
$CHAMFERC
 40
0.0
  9
$CHAMFERD
 40
0.0
  9
$SKPOLY
 70
     0
  9
$TDCREATE
 40
2453353.758792488
  9
$TDUCREATE
 40
2453353.717125822
  9
$TDUPDATE
 40
2451428.66767743
  9
$TDUUPDATE
 40
2451428.626010764
  9
$TDINDWG
 40
0.0574059838
  9
$TDUSRTIMER
 40
0.0574059838
  9
$USRTIMER
 70
     1
  9
$ANGBASE
 50
0.0
  9
$ANGDIR
 70
     0
  9
$PDMODE
 70
     0
  9
$PDSIZE
 40
0.0
  9
$PLINEWID
 40
0.0
  9
$SPLFRAME
 70
     0
  9
$SPLINETYPE
 70
     6
  9
$SPLINESEGS
 70
     8
  9
$HANDSEED
  5
7162
  9
$SURFTAB1
 70
     6
  9
$SURFTAB2
 70
     6
  9
$SURFTYPE
 70
     6
  9
$SURFU
 70
     6
  9
$SURFV
 70
     6
  9
$UCSBASE
  2

  9
$UCSNAME
  2

  9
$UCSORG
 10
0.0
 20
0.0
 30
0.0
  9
$UCSXDIR
 10
1.0
 20
0.0
 30
0.0
  9
$UCSYDIR
 10
0.0
 20
1.0
 30
0.0
  9
$UCSORTHOREF
  2

  9
$UCSORTHOVIEW
 70
     0
  9
$UCSORGTOP
 10
0.0
 20
0.0
 30
0.0
  9
$UCSORGBOTTOM
 10
0.0
 20
0.0
 30
0.0
  9
$UCSORGLEFT
 10
0.0
 20
0.0
 30
0.0
  9
$UCSORGRIGHT
 10
0.0
 20
0.0
 30
0.0
  9
$UCSORGFRONT
 10
0.0
 20
0.0
 30
0.0
  9
$UCSORGBACK
 10
0.0
 20
0.0
 30
0.0
  9
$PUCSBASE
  2

  9
$PUCSNAME
  2

  9
$PUCSORG
 10
0.0
 20
0.0
 30
0.0
  9
$PUCSXDIR
 10
1.0
 20
0.0
 30
0.0
  9
$PUCSYDIR
 10
0.0
 20
1.0
 30
0.0
  9
$PUCSORTHOREF
  2

  9
$PUCSORTHOVIEW
 70
     0
  9
$PUCSORGTOP
 10
0.0
 20
0.0
 30
0.0
  9
$PUCSORGBOTTOM
 10
0.0
 20
0.0
 30
0.0
  9
$PUCSORGLEFT
 10
0.0
 20
0.0
 30
0.0
  9
$PUCSORGRIGHT
 10
0.0
 20
0.0
 30
0.0
  9
$PUCSORGFRONT
 10
0.0
 20
0.0
 30
0.0
  9
$PUCSORGBACK
 10
0.0
 20
0.0
 30
0.0
  9
$USERI1
 70
     0
  9
$USERI2
 70
     0
  9
$USERI3
 70
     0
  9
$USERI4
 70
     0
  9
$USERI5
 70
     0
  9
$USERR1
 40
0.0
  9
$USERR2
 40
0.0
  9
$USERR3
 40
0.0
  9
$USERR4
 40
0.0
  9
$USERR5
 40
0.0
  9
$WORLDVIEW
 70
     1
  9
$SHADEDGE
 70
     3
  9
$SHADEDIF
 70
    70
  9
$TILEMODE
 70
     0
  9
$MAXACTVP
 70
    16
  9
$PINSBASE
 10
0.0
 20
0.0
 30
0.0
  9
$PLIMCHECK
 70
     0
  9
$PEXTMIN
 10
0.0
 20
0.0
 30
0.0
  9
$PEXTMAX
 10
0.0
 20
0.0
 30
0.0
  9
$PLIMMIN
 10
0.0
 20
0.0
  9
$PLIMMAX
 10
0.0
 20
0.0
  9
$UNITMODE
 70
     0
  9
$VISRETAIN
 70
     0
  9
$PLINEGEN
 70
     0
  9
$PSLTSCALE
 70
     1
  9
$TREEDEPTH
 70
  3020
  9
$CMLSTYLE
  2
Standard
  9
$CMLJUST
 70
     0
  9
$CMLSCALE
 40
1.0
  9
$PROXYGRAPHICS
 70
     1
  9
$MEASUREMENT
 70
     1
  9
$CELWEIGHT
370
    -1
  9
$ENDCAPS
280
     0
  9
$JOINSTYLE
280
     0
  9
$LWDISPLAY
290
     0
  9
$INSUNITS
 70
     0
  9
$HYPERLINKBASE
  1

  9
$STYLESHEET
  1

  9
$XEDIT
290
     0
  9
$CEPSNTYPE
380
     0
  9
$PSTYLEMODE
290
     1
  9
$FINGERPRINTGUID
  2
{04426581-DC29-4A88-87FA-DE54D5115D18}
  9
$VERSIONGUID
  2
{FAEB1C32-E019-11D5-929B-00C0DF256EC4}
  9
$EXTNAMES
290
     1
  9
$PSVPSCALE
 40
0.0
  9
$OLESTARTUP
290
     0
  9
$SORTENTS
280
   127
  9
$INDEXCTL
280
     0
  9
$HIDETEXT
280
     1
  9
$XCLIPFRAME
290
     0
  9
$HALOGAP
280
     0
  9
$OBSCOLOR
 70
   257
  9
$OBSLTYPE
280
     0
  9
$INTERSECTIONDISPLAY
280
     0
  9
$INTERSECTIONCOLOR
 70
   257
  9
$DIMASSOC
280
     2
  9
$PROJECTNAME
  1

  9
$CAMERADISPLAY
290
     0
  9
$LENSLENGTH
 40
50.0
  9
$CAMERAHEIGHT
 40
0.0
  9
$STEPSPERSEC
 40
2.0
  9
$STEPSIZE
 40
6.0
  9
$3DDWFPREC
 40
2.0
  9
$PSOLWIDTH
 40
0.25
  9
$PSOLHEIGHT
 40
4.0
  9
$LOFTANG1
 40
1.570796326794897
  9
$LOFTANG2
 40
1.570796326794897
  9
$LOFTMAG1
 40
0.0
  9
$LOFTMAG2
 40
0.0
  9
$LOFTPARAM
 70
     7
  9
$LOFTNORMALS
280
     1
  9
$LATITUDE
 40
37.795
  9
$LONGITUDE
 40
-122.394
  9
$NORTHDIRECTION
 40
0.0
  9
$TIMEZONE
 70
 -8000
  9
$LIGHTGLYPHDISPLAY
280
     1
  9
$TILEMODELIGHTSYNCH
280
     1
  9
$SOLIDHIST
280
     1
  9
$SHOWHIST
280
     1
  9
$DWFFRAME
280
     2
  9
$DGNFRAME
280
     2
  9
$REALWORLDSCALE
290
     1
  9
$INTERFERECOLOR
 62
   256
  9
$CSHADOW
280
     0
  9
$SHADOWPLANELOCATION
 40
0.0
  0
ENDSEC
  0
SECTION
  2
CLASSES
  0
CLASS
  1
ACDBDICTIONARYWDFLT
  2
AcDbDictionaryWithDefault
  3
ObjectDBX Classes
 90
        0
 91
        3
280
     0
281
     0
  0
CLASS
  1
ACDBPLACEHOLDER
  2
AcDbPlaceHolder
  3
ObjectDBX Classes
 90
        0
 91
        1
280
     0
281
     0
  0
CLASS
  1
LAYOUT
  2
AcDbLayout
  3
ObjectDBX Classes
 90
        0
 91
        1
280
     0
281
     0
  0
CLASS
  1
DICTIONARYVAR
  2
AcDbDictionaryVar
  3
ObjectDBX Classes
 90
        0
 91
        3
280
     0
281
     0
  0
CLASS
  1
TABLESTYLE
  2
AcDbTableStyle
  3
ObjectDBX Classes
 90
     4095
 91
        3
280
     0
281
     0
  0
ENDSEC
  0
SECTION
  2
TABLES
  0
TABLE
  2
VPORT
  5
8
330
0
100
AcDbSymbolTable
 70
     1
  0
VPORT
  5
97
330
8
100
AcDbSymbolTableRecord
100
AcDbViewportTableRecord
  2
*ACTIVE
 70
     0
 10
0.0
 20
0.0
 11
1.0
 21
1.0
 12
164.2359532314916
 22
172.04296364353
 13
0.0
 23
0.0
 14
10.0
 24
10.0
 15
10.0
 25
10.0
 16
0.0
 26
0.0
 36
1.0
 17
0.0
 27
0.0
 37
0.0
 40
315.0
 41
1.685816876122083
 42
50.0
 43
0.0
 44
0.0
 50
0.0
 51
0.0
 71
    16
 72
 20000
 73
     1
 74
     1
 75
     0
 76
     0
 77
     0
 78
     0
281
     0
 65
     0
110
0.0
120
0.0
130
0.0
111
1.0
121
0.0
131
0.0
112
0.0
122
1.0
132
0.0
 79
     0
146
0.0
 60
     3
 61
     5
292
     1
282
     1
141
0.0
142
0.0
 63
   256
  0
ENDTAB
  0
TABLE
  2
LTYPE
  5
5
330
0
100
AcDbSymbolTable
 70
     3
  0
LTYPE
  5
14
330
5
100
AcDbSymbolTableRecord
100
AcDbLinetypeTableRecord
  2
ByBlock
 70
     0
  3

 72
    65
 73
     0
 40
0.0
  0
LTYPE
  5
15
330
5
100
AcDbSymbolTableRecord
100
AcDbLinetypeTableRecord
  2
ByLayer
 70
     0
  3

 72
    65
 73
     0
 40
0.0
  0
LTYPE
  5
16
330
5
100
AcDbSymbolTableRecord
100
AcDbLinetypeTableRecord
  2
Continuous
 70
     0
  3
Solid line
 72
    65
 73
     0
 40
0.0
  0
LTYPE
  5
7148
330
5
100
AcDbSymbolTableRecord
100
AcDbLinetypeTableRecord
  2
CENTER
 70
     0
  3
____ _ ____ _ ____ _ ____ _ ____ _ ____ _ ____ 
 72
    65
 73
     4
 40
2.0
 49
1.25
 74
     4
 75
     0
340
0
 46
1.0
 50
0.0
 44
0.0
 45
0.0
 49
-0.25
 74
     4
 75
     0
340
0
 46
1.0
 50
0.0
 44
0.0
 45
0.0
 49
0.25
 74
     4
 75
     0
340
0
 46
1.0
 50
0.0
 44
0.0
 45
0.0
 49
-0.25
 74
     4
 75
     0
340
0
 46
1.0
 50
0.0
 44
0.0
 45
0.0
  0
LTYPE
  5
7149
330
5
100
AcDbSymbolTableRecord
100
AcDbLinetypeTableRecord
  2
CENTER2
 70
     0
  3
___ _ ___ _ ___ _ ___ _ ___ _ ___ _ ___ _ ___ _
 72
    65
 73
     4
 40
1.125
 49
0.75
 74
     4
 75
     0
340
0
 46
1.0
 50
0.0
 44
0.0
 45
0.0
 49
-0.125
 74
     4
 75
     0
340
0
 46
1.0
 50
0.0
 44
0.0
 45
0.0
 49
0.125
 74
     4
 75
     0
340
0
 46
1.0
 50
0.0
 44
0.0
 45
0.0
 49
-0.125
 74
     4
 75
     0
340
0
 46
1.0
 50
0.0
 44
0.0
 45
0.0
  0
ENDTAB
  0
TABLE
  2
LAYER
  5
2
330
0
100
AcDbSymbolTable
 70
    10
  0
LAYER
  5
10
330
2
100
AcDbSymbolTableRecord
100
AcDbLayerTableRecord
  2
0
 70
     0
 62
     7
  6
Continuous
370
    -3
390
F
347
0
  0
LAYER
  5
F94
330
2
100
AcDbSymbolTableRecord
100
AcDbLayerTableRecord
  2
TEXT
 70
     0
 62
     4
  6
Continuous
370
    -3
390
F
347
0
  0
LAYER
  5
F97
330
2
100
AcDbSymbolTableRecord
100
AcDbLayerTableRecord
  2
MÅL
 70
     0
 62
     1
  6
Continuous
370
    -3
390
F
347
0
  0
LAYER
  5
1766
330
2
100
AcDbSymbolTableRecord
100
AcDbLayerTableRecord
  2
SKRAVERING
 70
     0
 62
     7
  6
Continuous
370
    -3
390
F
347
0
  0
LAYER
  5
1770
330
2
100
AcDbSymbolTableRecord
100
AcDbLayerTableRecord
  2
RAMME
 70
     0
 62
     7
  6
Continuous
370
    -3
390
F
347
0
  0
LAYER
  5
1771
330
2
100
AcDbSymbolTableRecord
100
AcDbLayerTableRecord
  2
KONTUR
 70
     0
 62
     2
  6
Continuous
370
    -3
390
F
347
0
  0
LAYER
  5
6D9B
330
2
100
AcDbSymbolTableRecord
100
AcDbLayerTableRecord
  2
CENTER
 70
     0
 62
     1
  6
CENTER
370
    -3
390
F
347
0
  0
LAYER
  5
6DA6
330
2
100
AcDbSymbolTableRecord
100
AcDbLayerTableRecord
  2
DEFPOINTS
 70
     0
 62
     7
  6
Continuous
290
     0
370
    -3
390
F
347
0
  0
LAYER
  5
6EF1
330
2
100
AcDbSymbolTableRecord
100
AcDbLayerTableRecord
  2
VIEWPORT
 70
     0
 62
     5
  6
Continuous
370
    -3
390
F
347
0
  0
LAYER
  5
6F73
330
2
100
AcDbSymbolTableRecord
100
AcDbLayerTableRecord
  2
SYN
 70
     0
 62
     2
  6
Continuous
370
    -3
390
F
347
0
  0
ENDTAB
  0
TABLE
  2
STYLE
  5
3
330
0
100
AcDbSymbolTable
 70
     2
  0
STYLE
  5
11
330
3
100
AcDbSymbolTableRecord
100
AcDbTextStyleTableRecord
  2
Standard
 70
     0
 40
0.0
 41
1.0
 50
0.0
 71
     0
 42
2.25
  3
txt
  4

  0
STYLE
  5
3E31
330
3
100
AcDbSymbolTableRecord
100
AcDbTextStyleTableRecord
  2
ROMANS
 70
     0
 40
0.0
 41
1.0
 50
0.0
 71
     0
 42
3.0
  3
ROMANS.SHX
  4

  0
ENDTAB
  0
TABLE
  2
VIEW
  5
6
330
0
100
AcDbSymbolTable
 70
     0
  0
ENDTAB
  0
TABLE
  2
UCS
  5
7
330
0
100
AcDbSymbolTable
 70
     0
  0
ENDTAB
  0
TABLE
  2
APPID
  5
9
330
0
100
AcDbSymbolTable
 70
     3
  0
APPID
  5
12
330
9
100
AcDbSymbolTableRecord
100
AcDbRegAppTableRecord
  2
ACAD
 70
     0
  0
APPID
  5
7146
330
9
100
AcDbSymbolTableRecord
100
AcDbRegAppTableRecord
  2
AVE_RENDER
 70
     0
  0
APPID
  5
7147
330
9
100
AcDbSymbolTableRecord
100
AcDbRegAppTableRecord
  2
AVE_MATERIAL
 70
     0
  0
ENDTAB
  0
TABLE
  2
DIMSTYLE
  5
A
330
0
100
AcDbSymbolTable
 70
     2
100
AcDbDimStyleTable
  0
DIMSTYLE
105
27
330
A
100
AcDbSymbolTableRecord
100
AcDbDimStyleTableRecord
  2
Standard
 70
     0
340
11
  0
DIMSTYLE
105
3E32
102
{ACAD_REACTORS
330
700E
330
700F
330
7010
330
7011
330
7012
102
}
330
A
100
AcDbSymbolTableRecord
100
AcDbDimStyleTableRecord
  2
ROMANS
 70
     0
 41
3.5
 42
1.0
 43
10.0
 44
2.0
 73
     0
 74
     0
 77
     1
 78
    13
140
3.5
141
2.5
147
2.0
172
     1
271
     2
272
     2
284
    13
340
3E31
  0
ENDTAB
  0
TABLE
  2
BLOCK_RECORD
  5
1
330
0
100
AcDbSymbolTable
 70
    11
  0
BLOCK_RECORD
  5
1F
330
1
100
AcDbSymbolTableRecord
100
AcDbBlockTableRecord
  2
*Model_Space
340
22
 70
     0
280
     1
281
     0
  0
BLOCK_RECORD
  5
73
330
1
100
AcDbSymbolTableRecord
100
AcDbBlockTableRecord
  2
*Paper_Space
340
74
 70
     0
280
     1
281
     0
  0
BLOCK_RECORD
  5
ECC
330
1
100
AcDbSymbolTableRecord
100
AcDbBlockTableRecord
  2
ACADN
340
0
102
{BLKREFS
331
3DFF
331
3E0E
331
6FE5
102
}
 70
     0
280
     1
281
     0
  0
BLOCK_RECORD
  5
F8D
330
1
100
AcDbSymbolTableRecord
100
AcDbBlockTableRecord
  2
AVE_RENDER
340
0
102
{BLKREFS
331
3E10
331
3E11
331
3E12
331
3E13
331
3E14
331
3E15
331
3E16
331
3E17
102
}
 70
     0
280
     1
281
     0
  0
BLOCK_RECORD
  5
F90
330
1
100
AcDbSymbolTableRecord
100
AcDbBlockTableRecord
  2
AVE_GLOBAL
340
0
102
{BLKREFS
331
3E18
102
}
 70
     0
280
     1
281
     0
  0
BLOCK_RECORD
  5
7047
330
1
100
AcDbSymbolTableRecord
100
AcDbBlockTableRecord
  2
*D3
340
0
 70
     0
280
     1
281
     0
  0
BLOCK_RECORD
  5
7053
330
1
100
AcDbSymbolTableRecord
100
AcDbBlockTableRecord
  2
*D4
340
0
 70
     0
280
     1
281
     0
  0
BLOCK_RECORD
  5
705F
330
1
100
AcDbSymbolTableRecord
100
AcDbBlockTableRecord
  2
*D5
340
0
 70
     0
280
     1
281
     0
  0
BLOCK_RECORD
  5
706B
330
1
100
AcDbSymbolTableRecord
100
AcDbBlockTableRecord
  2
*D6
340
0
 70
     0
280
     1
281
     0
  0
BLOCK_RECORD
  5
7077
330
1
100
AcDbSymbolTableRecord
100
AcDbBlockTableRecord
  2
*D7
340
0
 70
     0
280
     1
281
     0
  0
BLOCK_RECORD
  5
7101
330
1
100
AcDbSymbolTableRecord
100
AcDbBlockTableRecord
  2
E10
340
0
102
{BLKREFS
331
7108
102
}
 70
     0
280
     1
281
     0
  0
BLOCK_RECORD
  5
715C
330
1
100
AcDbSymbolTableRecord
100
AcDbBlockTableRecord
  2
K3
340
0
102
{BLKREFS
331
710F
102
}
 70
     0
280
     1
281
     0
  0
BLOCK_RECORD
  5
7113
330
1
100
AcDbSymbolTableRecord
100
AcDbBlockTableRecord
  2
K4
340
0
102
{BLKREFS
331
711F
102
}
 70
     0
280
     1
281
     0
  0
ENDTAB
  0
ENDSEC
  0
SECTION
  2
BLOCKS
  0
BLOCK
  5
20
330
1F
100
AcDbEntity
  8
0
100
AcDbBlockBegin
  2
*Model_Space
 70
     0
 71
     0
 10
0.0
 20
0.0
 30
0.0
  3
*Model_Space
  1

  0
ENDBLK
  5
21
330
1F
100
AcDbEntity
  8
0
100
AcDbBlockEnd
  0
BLOCK
  5
75
330
73
100
AcDbEntity
 67
     1
  8
0
100
AcDbBlockBegin
  2
*Paper_Space
 70
     0
 71
     0
 10
0.0
 20
0.0
 30
0.0
  3
*Paper_Space
  1

  0
ENDBLK
  5
76
330
73
100
AcDbEntity
 67
     1
  8
0
100
AcDbBlockEnd
  0
BLOCK
  5
714A
330
ECC
100
AcDbEntity
  8
0
100
AcDbBlockBegin
  2
ACADN
 70
     0
 71
     0
 10
0.0
 20
0.0
 30
0.0
  3
ACADN
  1

  0
ENDBLK
  5
714B
330
ECC
100
AcDbEntity
  8
0
100
AcDbBlockEnd
  0
BLOCK
  5
714C
330
F8D
100
AcDbEntity
  8
0
100
AcDbBlockBegin
  2
AVE_RENDER
 70
     0
 71
     0
 10
0.0
 20
0.0
 30
0.0
  3
AVE_RENDER
  1
AVE_RENDER
  0
ENDBLK
  5
714D
330
F8D
100
AcDbEntity
  8
0
100
AcDbBlockEnd
  0
BLOCK
  5
714E
330
F90
100
AcDbEntity
  8
0
100
AcDbBlockBegin
  2
AVE_GLOBAL
 70
     0
 71
     0
 10
0.0
 20
0.0
 30
0.0
  3
AVE_GLOBAL
  1
AVE_GLOBAL
  0
ENDBLK
  5
714F
330
F90
100
AcDbEntity
  8
0
100
AcDbBlockEnd
  0
BLOCK
  5
7150
330
7047
100
AcDbEntity
  8
0
100
AcDbBlockBegin
  2
*D3
 70
     1
 71
     0
 10
0.0
 20
0.0
 30
0.0
  3
*D3
  1

  0
LINE
  5
70F2
330
7047
100
AcDbEntity
  8
0
  6
ByBlock
 62
     0
100
AcDbLine
 10
86.4778742368776
 20
107.29296364353
 30
0.0
 11
86.4778742368776
 21
93.29296364353002
 31
0.0
  0
LINE
  5
70F3
330
7047
100
AcDbEntity
  8
0
  6
ByBlock
 62
     0
100
AcDbLine
 10
56.4778742368776
 20
107.29296364353
 30
0.0
 11
56.4778742368776
 21
93.29296364353002
 31
0.0
  0
LINE
  5
70F4
330
7047
100
AcDbEntity
  8
0
  6
ByBlock
 62
     0
100
AcDbLine
 10
82.9778742368776
 20
95.29296364353002
 30
0.0
 11
59.9778742368776
 21
95.29296364353002
 31
0.0
  0
SOLID
  5
70F5
330
7047
100
AcDbEntity
  8
0
  6
ByBlock
 62
     0
100
AcDbTrace
 10
82.9778742368776
 20
95.87629697686334
 30
0.0
 11
82.9778742368776
 21
94.70963031019669
 31
0.0
 12
86.4778742368776
 22
95.29296364353002
 32
0.0
 13
86.4778742368776
 23
95.29296364353002
 33
0.0
  0
SOLID
  5
70F6
330
7047
100
AcDbEntity
  8
0
  6
ByBlock
 62
     0
100
AcDbTrace
 10
59.9778742368776
 20
95.87629697686334
 30
0.0
 11
59.9778742368776
 21
94.70963031019669
 31
0.0
 12
56.4778742368776
 22
95.29296364353002
 32
0.0
 13
56.4778742368776
 23
95.29296364353002
 33
0.0
  0
MTEXT
  5
70F7
330
7047
100
AcDbEntity
  8
0
  6
ByBlock
 62
     4
100
AcDbMText
 10
71.4778742368776
 20
99.04296364353002
 30
0.0
 40
3.5
 41
0.0
 46
0.0
 71
     5
 72
     1
  1
\A1;{ø30}
  7
ROMANS
 73
     1
 44
1.0
  0
POINT
  5
70F8
330
7047
100
AcDbEntity
  8
DEFPOINTS
  6
ByBlock
 62
     0
100
AcDbPoint
 10
86.4778742368776
 20
108.29296364353
 30
0.0
  0
POINT
  5
70F9
330
7047
100
AcDbEntity
  8
DEFPOINTS
  6
ByBlock
 62
     0
100
AcDbPoint
 10
56.4778742368776
 20
108.29296364353
 30
0.0
  0
POINT
  5
70FA
330
7047
100
AcDbEntity
  8
DEFPOINTS
  6
ByBlock
 62
     0
100
AcDbPoint
 10
56.4778742368776
 20
95.29296364353002
 30
0.0
  0
ENDBLK
  5
7151
330
7047
100
AcDbEntity
  8
0
100
AcDbBlockEnd
  0
BLOCK
  5
7152
330
7053
100
AcDbEntity
  8
0
100
AcDbBlockBegin
  2
*D4
 70
     1
 71
     0
 10
0.0
 20
0.0
 30
0.0
  3
*D4
  1

  0
LINE
  5
70C6
330
7053
100
AcDbEntity
  8
0
  6
ByBlock
 62
     0
100
AcDbLine
 10
37.4778742368776
 20
187.29296364353
 30
0.0
 11
37.4778742368776
 21
237.29296364353
 31
0.0
  0
LINE
  5
70C7
330
7053
100
AcDbEntity
  8
0
  6
ByBlock
 62
     0
100
AcDbLine
 10
105.4778742368776
 20
187.29296364353
 30
0.0
 11
105.4778742368776
 21
237.29296364353
 31
0.0
  0
LINE
  5
70C8
330
7053
100
AcDbEntity
  8
0
  6
ByBlock
 62
     0
100
AcDbLine
 10
40.9778742368776
 20
235.29296364353
 30
0.0
 11
101.9778742368776
 21
235.29296364353
 31
0.0
  0
SOLID
  5
70C9
330
7053
100
AcDbEntity
  8
0
  6
ByBlock
 62
     0
100
AcDbTrace
 10
40.9778742368776
 20
235.8762969768634
 30
0.0
 11
40.9778742368776
 21
234.7096303101967
 31
0.0
 12
37.4778742368776
 22
235.29296364353
 32
0.0
 13
37.4778742368776
 23
235.29296364353
 33
0.0
  0
SOLID
  5
70CA
330
7053
100
AcDbEntity
  8
0
  6
ByBlock
 62
     0
100
AcDbTrace
 10
101.9778742368776
 20
235.8762969768634
 30
0.0
 11
101.9778742368776
 21
234.7096303101967
 31
0.0
 12
105.4778742368776
 22
235.29296364353
 32
0.0
 13
105.4778742368776
 23
235.29296364353
 33
0.0
  0
MTEXT
  5
70CB
330
7053
100
AcDbEntity
  8
0
  6
ByBlock
 62
     4
100
AcDbMText
 10
71.4778742368776
 20
239.04296364353
 30
0.0
 40
3.5
 41
0.0
 46
0.0
 71
     5
 72
     1
  1
\A1;{ø68}
  7
ROMANS
 73
     1
 44
1.0
  0
POINT
  5
70CC
330
7053
100
AcDbEntity
  8
DEFPOINTS
  6
ByBlock
 62
     0
100
AcDbPoint
 10
37.4778742368776
 20
186.29296364353
 30
0.0
  0
POINT
  5
70CD
330
7053
100
AcDbEntity
  8
DEFPOINTS
  6
ByBlock
 62
     0
100
AcDbPoint
 10
105.4778742368776
 20
186.29296364353
 30
0.0
  0
POINT
  5
70CE
330
7053
100
AcDbEntity
  8
DEFPOINTS
  6
ByBlock
 62
     0
100
AcDbPoint
 10
105.4778742368776
 20
235.29296364353
 30
0.0
  0
ENDBLK
  5
7153
330
7053
100
AcDbEntity
  8
0
100
AcDbBlockEnd
  0
BLOCK
  5
7154
330
705F
100
AcDbEntity
  8
0
100
AcDbBlockBegin
  2
*D5
 70
     1
 71
     0
 10
0.0
 20
0.0
 30
0.0
  3
*D5
  1

  0
LINE
  5
70D1
330
705F
100
AcDbEntity
  8
0
  6
ByBlock
 62
     0
100
AcDbLine
 10
109.4778742368776
 20
187.29296364353
 30
0.0
 11
109.4778742368776
 21
247.29296364353
 31
0.0
  0
LINE
  5
70D2
330
705F
100
AcDbEntity
  8
0
  6
ByBlock
 62
     0
100
AcDbLine
 10
33.4778742368776
 20
187.29296364353
 30
0.0
 11
33.4778742368776
 21
247.29296364353
 31
0.0
  0
LINE
  5
70D3
330
705F
100
AcDbEntity
  8
0
  6
ByBlock
 62
     0
100
AcDbLine
 10
105.9778742368776
 20
245.29296364353
 30
0.0
 11
36.9778742368776
 21
245.29296364353
 31
0.0
  0
SOLID
  5
70D4
330
705F
100
AcDbEntity
  8
0
  6
ByBlock
 62
     0
100
AcDbTrace
 10
105.9778742368776
 20
245.8762969768634
 30
0.0
 11
105.9778742368776
 21
244.7096303101967
 31
0.0
 12
109.4778742368776
 22
245.29296364353
 32
0.0
 13
109.4778742368776
 23
245.29296364353
 33
0.0
  0
SOLID
  5
70D5
330
705F
100
AcDbEntity
  8
0
  6
ByBlock
 62
     0
100
AcDbTrace
 10
36.9778742368776
 20
245.8762969768634
 30
0.0
 11
36.9778742368776
 21
244.7096303101967
 31
0.0
 12
33.4778742368776
 22
245.29296364353
 32
0.0
 13
33.4778742368776
 23
245.29296364353
 33
0.0
  0
MTEXT
  5
70D6
330
705F
100
AcDbEntity
  8
0
  6
ByBlock
 62
     4
100
AcDbMText
 10
71.4778742368776
 20
249.04296364353
 30
0.0
 40
3.5
 41
0.0
 46
0.0
 71
     5
 72
     1
  1
\A1;{ø76}
  7
ROMANS
 73
     1
 44
1.0
  0
POINT
  5
70D7
330
705F
100
AcDbEntity
  8
DEFPOINTS
  6
ByBlock
 62
     0
100
AcDbPoint
 10
109.4778742368776
 20
186.29296364353
 30
0.0
  0
POINT
  5
70D8
330
705F
100
AcDbEntity
  8
DEFPOINTS
  6
ByBlock
 62
     0
100
AcDbPoint
 10
33.4778742368776
 20
186.29296364353
 30
0.0
  0
POINT
  5
70D9
330
705F
100
AcDbEntity
  8
DEFPOINTS
  6
ByBlock
 62
     0
100
AcDbPoint
 10
33.4778742368776
 20
245.29296364353
 30
0.0
  0
ENDBLK
  5
7155
330
705F
100
AcDbEntity
  8
0
100
AcDbBlockEnd
  0
BLOCK
  5
7156
330
706B
100
AcDbEntity
  8
0
100
AcDbBlockBegin
  2
*D6
 70
     1
 71
     0
 10
0.0
 20
0.0
 30
0.0
  3
*D6
  1

  0
LINE
  5
70DC
330
706B
100
AcDbEntity
  8
0
  6
ByBlock
 62
     0
100
AcDbLine
 10
144.4778742368776
 20
225.29296364353
 30
0.0
 11
144.4778742368776
 21
237.1030616983642
 31
0.0
  0
LINE
  5
70DD
330
706B
100
AcDbEntity
  8
0
  6
ByBlock
 62
     0
100
AcDbLine
 10
158.4778742368776
 20
225.29296364353
 30
0.0
 11
158.4778742368776
 21
237.1030616983642
 31
0.0
  0
LINE
  5
70DE
330
706B
100
AcDbEntity
  8
0
  6
ByBlock
 62
     0
100
AcDbLine
 10
147.9778742368776
 20
235.1030616983642
 30
0.0
 11
154.9778742368776
 21
235.1030616983642
 31
0.0
  0
SOLID
  5
70DF
330
706B
100
AcDbEntity
  8
0
  6
ByBlock
 62
     0
100
AcDbTrace
 10
147.9778742368776
 20
235.6863950316975
 30
0.0
 11
147.9778742368776
 21
234.5197283650308
 31
0.0
 12
144.4778742368776
 22
235.1030616983642
 32
0.0
 13
144.4778742368776
 23
235.1030616983642
 33
0.0
  0
SOLID
  5
70E0
330
706B
100
AcDbEntity
  8
0
  6
ByBlock
 62
     0
100
AcDbTrace
 10
154.9778742368776
 20
235.6863950316975
 30
0.0
 11
154.9778742368776
 21
234.5197283650308
 31
0.0
 12
158.4778742368776
 22
235.1030616983642
 32
0.0
 13
158.4778742368776
 23
235.1030616983642
 33
0.0
  0
MTEXT
  5
70E1
330
706B
100
AcDbEntity
  8
0
  6
ByBlock
 62
     4
100
AcDbMText
 10
151.354907502915
 20
238.8530616983642
 30
0.0
 40
3.5
 41
0.0
 46
0.0
 71
     5
 72
     1
  1
\A1;14
  7
ROMANS
 73
     1
 44
1.0
  0
POINT
  5
70E2
330
706B
100
AcDbEntity
  8
DEFPOINTS
  6
ByBlock
 62
     0
100
AcDbPoint
 10
144.4778742368776
 20
224.29296364353
 30
0.0
  0
POINT
  5
70E3
330
706B
100
AcDbEntity
  8
DEFPOINTS
  6
ByBlock
 62
     0
100
AcDbPoint
 10
158.4778742368776
 20
224.29296364353
 30
0.0
  0
POINT
  5
70E4
330
706B
100
AcDbEntity
  8
DEFPOINTS
  6
ByBlock
 62
     0
100
AcDbPoint
 10
158.4778742368776
 20
235.1030616983642
 30
0.0
  0
ENDBLK
  5
7157
330
706B
100
AcDbEntity
  8
0
100
AcDbBlockEnd
  0
BLOCK
  5
7158
330
7077
100
AcDbEntity
  8
0
100
AcDbBlockBegin
  2
*D7
 70
     1
 71
     0
 10
0.0
 20
0.0
 30
0.0
  3
*D7
  1

  0
LINE
  5
70E7
330
7077
100
AcDbEntity
  8
0
  6
ByBlock
 62
     0
100
AcDbLine
 10
159.4778742368776
 20
224.29296364353
 30
0.0
 11
178.4778742368776
 21
224.29296364353
 31
0.0
  0
LINE
  5
70E8
330
7077
100
AcDbEntity
  8
0
  6
ByBlock
 62
     0
100
AcDbLine
 10
167.4778742368776
 20
108.29296364353
 30
0.0
 11
178.4778742368776
 21
108.29296364353
 31
0.0
  0
LINE
  5
70E9
330
7077
100
AcDbEntity
  8
0
  6
ByBlock
 62
     0
100
AcDbLine
 10
176.4778742368776
 20
220.79296364353
 30
0.0
 11
176.4778742368776
 21
111.79296364353
 31
0.0
  0
SOLID
  5
70EA
330
7077
100
AcDbEntity
  8
0
  6
ByBlock
 62
     0
100
AcDbTrace
 10
175.8945409035443
 20
220.79296364353
 30
0.0
 11
177.0612075702109
 21
220.79296364353
 31
0.0
 12
176.4778742368776
 22
224.29296364353
 32
0.0
 13
176.4778742368776
 23
224.29296364353
 33
0.0
  0
SOLID
  5
70EB
330
7077
100
AcDbEntity
  8
0
  6
ByBlock
 62
     0
100
AcDbTrace
 10
175.8945409035443
 20
111.79296364353
 30
0.0
 11
177.0612075702109
 21
111.79296364353
 31
0.0
 12
176.4778742368776
 22
108.29296364353
 32
0.0
 13
176.4778742368776
 23
108.29296364353
 33
0.0
  0
MTEXT
  5
70EC
330
7077
100
AcDbEntity
  8
0
  6
ByBlock
 62
     4
100
AcDbMText
 10
172.7278742368776
 20
166.29296364353
 30
0.0
 40
3.5
 41
0.0
 46
0.0
 71
     5
 72
     1
  1
\A1;116
  7
ROMANS
 11
6.123031769111886E-17
 21
1.0
 31
0.0
 73
     1
 44
1.0
  0
POINT
  5
70ED
330
7077
100
AcDbEntity
  8
DEFPOINTS
  6
ByBlock
 62
     0
100
AcDbPoint
 10
158.4778742368776
 20
224.29296364353
 30
0.0
  0
POINT
  5
70EE
330
7077
100
AcDbEntity
  8
DEFPOINTS
  6
ByBlock
 62
     0
100
AcDbPoint
 10
166.4778742368776
 20
108.29296364353
 30
0.0
  0
POINT
  5
70EF
330
7077
100
AcDbEntity
  8
DEFPOINTS
  6
ByBlock
 62
     0
100
AcDbPoint
 10
176.4778742368776
 20
108.29296364353
 30
0.0
  0
ENDBLK
  5
7159
330
7077
100
AcDbEntity
  8
0
100
AcDbBlockEnd
  0
BLOCK
  5
715A
330
7101
100
AcDbEntity
  8
0
100
AcDbBlockBegin
  2
E10
 70
     0
 71
     0
 10
0.0
 20
0.0
 30
0.0
  3
E10
  1

  0
LINE
  5
7102
330
7101
100
AcDbEntity
  8
RAMME
100
AcDbLine
 10
0.0
 20
0.0
 30
0.0
 11
5.0
 21
0.0
 31
0.0
  0
LINE
  5
7103
330
7101
100
AcDbEntity
  8
RAMME
100
AcDbLine
 10
0.0
 20
0.0
 30
0.0
 11
0.0
 21
5.0
 31
0.0
  0
LINE
  5
7104
330
7101
100
AcDbEntity
  8
RAMME
100
AcDbLine
 10
196.0
 20
283.5
 30
0.0
 11
191.0
 21
283.5
 31
0.0
  0
LINE
  5
7105
330
7101
100
AcDbEntity
  8
RAMME
100
AcDbLine
 10
196.0
 20
283.5
 30
0.0
 11
196.0
 21
278.5
 31
0.0
  0
ENDBLK
  5
715B
330
7101
100
AcDbEntity
  8
0
100
AcDbBlockEnd
  0
BLOCK
  5
715D
330
715C
100
AcDbEntity
  8
0
100
AcDbBlockBegin
  2
K3
 70
    68
 71
     1
 10
0.0
 20
0.0
 30
0.0
  3
K3
  1
T:\ALLE\TEGN\SYMB\BLOKKE\TABLET3\K3.DWG
  0
ENDBLK
  5
715E
330
715C
100
AcDbEntity
  8
0
100
AcDbBlockEnd
  0
BLOCK
  5
715F
330
7113
100
AcDbEntity
  8
0
100
AcDbBlockBegin
  2
K4
 70
     2
 71
     0
 10
0.0
 20
0.0
 30
0.0
  3
K4
  1

  0
ATTDEF
  5
7114
330
7113
100
AcDbEntity
  8
0
 62
     4
100
AcDbText
 10
-178.5
 20
-19.5
 30
0.0
 40
2.5
  1
engelsk eller dansk ved DK eller UK
  7
ROMANS
100
AcDbAttributeDefinition
  3

  2
EMNE
 70
     0
280
     0
  0
ATTDEF
  5
7115
330
7113
100
AcDbEntity
  8
0
 62
     4
100
AcDbText
 10
-178.5
 20
-24.5
 30
0.0
 40
2.5
  1

  7
ROMANS
100
AcDbAttributeDefinition
  3

  2
SUBJECT
 70
     0
280
     0
  0
ATTDEF
  5
7116
330
7113
100
AcDbEntity
  8
0
 62
     4
100
AcDbText
 10
-2.5
 20
-14.5
 30
0.0
 40
2.5
  1

  7
ROMANS
 72
     2
 11
-2.5
 21
-14.5
 31
0.0
100
AcDbAttributeDefinition
  3

  2
KAT.NR
 70
     0
280
     0
  0
ATTDEF
  5
7117
330
7113
100
AcDbEntity
  8
0
 62
     4
100
AcDbText
 10
-2.5
 20
-19.5
 30
0.0
 40
2.5
  1

  7
ROMANS
 72
     2
 11
-2.5
 21
-19.5
 31
0.0
100
AcDbAttributeDefinition
  3

  2
TEGN.NR
 70
     0
280
     0
  0
ATTDEF
  5
7118
330
7113
100
AcDbEntity
  8
0
 62
     4
100
AcDbText
 10
-2.5
 20
-24.5
 30
0.0
 40
2.5
  1

  7
ROMANS
 72
     2
 11
-2.5
 21
-24.5
 31
0.0
100
AcDbAttributeDefinition
  3

  2
DATO
 70
     0
280
     0
  0
ATTDEF
  5
7119
330
7113
100
AcDbEntity
  8
0
 62
     4
100
AcDbText
 10
-2.5
 20
-29.5
 30
0.0
 40
2.5
  1

  7
ROMANS
 72
     2
 11
-2.5
 21
-29.5
 31
0.0
100
AcDbAttributeDefinition
  3

  2
RETTET
 70
     0
280
     0
  0
ATTDEF
  5
711A
330
7113
100
AcDbEntity
  8
0
 62
     4
100
AcDbText
 10
-36.5
 20
-19.5
 30
0.0
 40
2.5
  1

  7
ROMANS
 72
     2
 11
-36.5
 21
-19.5
 31
0.0
100
AcDbAttributeDefinition
  3

  2
MÅL
 70
     0
280
     0
  0
ATTDEF
  5
711B
330
7113
100
AcDbEntity
  8
0
 62
     4
100
AcDbText
 10
-36.5
 20
-29.5
 30
0.0
 40
2.5
  1

  7
ROMANS
 72
     2
 11
-36.5
 21
-29.5
 31
0.0
100
AcDbAttributeDefinition
  3

  2
FORMAT
 70
     0
280
     0
  0
ATTDEF
  5
711C
330
7113
100
AcDbEntity
  8
0
 62
     4
100
AcDbText
 10
-36.5
 20
-24.5
 30
0.0
 40
2.5
  1

  7
ROMANS
 72
     2
 11
-36.5
 21
-24.5
 31
0.0
100
AcDbAttributeDefinition
  3

  2
SIGN
 70
     0
280
     0
  0
ENDBLK
  5
7160
330
7113
100
AcDbEntity
  8
0
100
AcDbBlockEnd
  0
ENDSEC
  0
SECTION
  2
ENTITIES
  0
INSERT
  5
3DFF
330
1F
100
AcDbEntity
  8
TEXT
100
AcDbBlockReference
  2
ACADN
 10
0.0
 20
0.0
 30
0.0
  0
INSERT
  5
3E0E
330
1F
100
AcDbEntity
  8
TEXT
100
AcDbBlockReference
  2
ACADN
 10
0.0
 20
-36.0
 30
0.0
  0
INSERT
  5
3E10
330
1F
100
AcDbEntity
  8
MÅL
 62
     1
100
AcDbBlockReference
  2
AVE_RENDER
 10
0.0
 20
0.0
 30
0.0
1001
AVE_RENDER
1002
{
1070
     6
1000
Pref
1070
    30
1070
    20
1070
     1
1070
     0
1000

1070
    10
1070
     1
1070
    30
1040
25.4
1070
     1
1040
0.3
1040
0.7
1040
0.0
1040
10.0
1010
-1.0
1020
-1.0
1030
-1.0
1040
0.3
1070
    49
1070
     0
1070
     0
1010
1.0
1020
1.0
1030
1.0
1040
45.0
1070
     1
1070
     0
1000
WCS
1040
0.0
1002
}
  0
INSERT
  5
3E11
330
1F
100
AcDbEntity
  8
MÅL
 62
     3
100
AcDbBlockReference
  2
AVE_RENDER
 10
0.0
 20
0.0
 30
0.0
1001
AVE_RENDER
1002
{
1070
     0
1000
Full Opt
1070
     0
1070
     1
1070
     1
1070
     1
1070
     0
1070
     0
1070
     0
1070
     1
1070
     1
1040
0.0001
1040
0.0001
1002
}
  0
INSERT
  5
3E12
330
1F
100
AcDbEntity
  8
MÅL
 62
     4
100
AcDbBlockReference
  2
AVE_RENDER
 10
0.0
 20
0.0
 30
0.0
1001
AVE_RENDER
1002
{
1070
     0
1000
Quick Opt
1070
     0
1070
     1
1070
     1
1070
     1
1070
     0
1070
     0
1070
     1
1002
}
  0
INSERT
  5
3E13
330
1F
100
AcDbEntity
  8
MÅL
 62
     5
100
AcDbBlockReference
  2
AVE_RENDER
 10
0.0
 20
0.0
 30
0.0
1001
AVE_RENDER
1002
{
1070
     1
1000
Scanl Opt
1070
     2
1070
     0
1070
     2
1040
2.0
1040
4.0
1070
     0
1070
     1
1070
     0
1040
0.03
1002
}
  0
INSERT
  5
3E14
330
1F
100
AcDbEntity
  8
MÅL
 62
     6
100
AcDbBlockReference
  2
AVE_RENDER
 10
0.0
 20
0.0
 30
0.0
1001
AVE_RENDER
1002
{
1070
     2
1000
Raytr Opt
1070
     2
1070
     0
1070
     2
1040
2.0
1040
4.0
1070
     0
1070
     1
1070
     1
1040
0.03
1070
     3
1040
0.03
1002
}
  0
INSERT
  5
3E15
330
1F
100
AcDbEntity
  8
MÅL
 62
     7
100
AcDbBlockReference
  2
AVE_RENDER
 10
0.0
 20
0.0
 30
0.0
1001
AVE_RENDER
1002
{
1070
     0
1000
RFile Opt
1070
     5
1070
   640
1070
   480
1070
 10000
1070
     3
1070
    32
1070
    24
1070
     0
1070
     0
1070
     0
1070
     1
1070
     0
1070
     0
1070
     0
1002
}
  0
INSERT
  5
3E16
330
1F
100
AcDbEntity
  8
MÅL
 62
     8
100
AcDbBlockReference
  2
AVE_RENDER
 10
0.0
 20
0.0
 30
0.0
1001
AVE_RENDER
1002
{
1070
     0
1000
Fog Opt
1070
     0
1070
     0
1040
0.0
1040
1.0
1040
0.0
1040
1.0
1010
0.5
1020
0.5
1030
0.5
1002
}
  0
INSERT
  5
3E17
330
1F
100
AcDbEntity
  8
MÅL
 62
     9
100
AcDbBlockReference
  2
AVE_RENDER
 10
0.0
 20
0.0
 30
0.0
1001
AVE_RENDER
1002
{
1070
     0
1000
BG Opt
1070
     0
1070
     1
1010
0.0
1020
0.0
1030
0.0
1010
1.0
1020
0.0
1030
0.0
1010
0.0
1020
1.0
1030
0.0
1010
0.0
1020
0.0
1030
1.0
1040
0.5
1040
0.33
1040
0.0
1000

1070
     1
1000

1070
     1
1070
     1
1040
1.0
1040
1.0
1040
0.0
1040
0.0
1070
     0
1002
}
  0
INSERT
  5
3E18
330
1F
100
AcDbEntity
  8
MÅL
 62
     1
100
AcDbBlockReference
  2
AVE_GLOBAL
 10
0.0
 20
0.0
 30
0.0
1001
AVE_MATERIAL
1002
{
1000
*GLOBAL*
1000
1
1000
Global finish.
1002
{
1002
}
1002
{
1070
    63
1002
{
1002
{
1010
-1.0
1020
-1.0
1030
-1.0
1002
}
1040
0.1000000014901161
1000

1040
0.0
1002
{
1002
}
1040
0.0
1002
{
1002
}
1040
0.0
1002
}
1002
{
1002
{
1010
-1.0
1020
-1.0
1030
-1.0
1002
}
1040
0.699999988079071
1000

1040
0.0
1002
{
1002
}
1040
0.0
1002
{
1002
}
1040
0.0
1002
}
1002
{
1002
{
1010
-1.0
1020
-1.0
1030
-1.0
1002
}
1040
0.2000000029802322
1000

1040
0.0
1002
{
1002
}
1040
0.0
1002
{
1002
}
1040
0.0
1002
}
1002
{
1070
     0
1002
{
1070
     1
1002
{
1040
1.0
1040
1.0
1000

1040
0.0
1002
{
1002
}
1040
0.0
1002
{
1002
}
1040
0.0
1002
}
1002
}
1040
1.0
1040
0.0
1040
0.0
1002
}
1002
{
1040
1.0
1040
1.0
1000

1040
0.0
1002
{
1002
}
1040
0.0
1002
{
1002
}
1040
0.0
1002
}
1002
{
1040
0.5
1040
1.0
1000

1040
0.0
1002
{
1002
}
1040
0.0
1002
{
1002
}
1040
0.0
1002
}
1002
{
1070
     0
1040
0.0
1002
{
1002
}
1040
1.0
1002
{
1002
}
1040
0.0
1002
}
1002
{
1040
0.0
1002
{
1002
{
1010
0.0
1020
0.0
1030
0.0
1002
}
1040
1.0
1000

1040
0.0
1002
{
1002
}
1040
0.0
1002
{
1002
}
1040
0.0
1002
}
1002
}
1002
{
1002
{
1070
     1
1002
{
1040
0.0
1040
1.0
1000

1040
0.0
1002
{
1002
}
1040
0.0
1002
{
1002
}
1040
0.0
1002
}
1002
}
1040
0.0
1002
{
1002
}
1010
1.0
1020
0.0
1030
0.0
1010
0.0
1020
1.0
1030
0.0
1010
0.0
1020
0.0
1030
1.0
1070
     0
1002
}
1002
{
1002
{
1040
1.0
1040
1.0
1002
{
1070
     1
1002
{
1040
1.0
1040
1.0
1000

1040
0.0
1002
{
1002
}
1040
0.0
1002
{
1002
}
1040
0.0
1002
}
1002
}
1002
}
1070
     0
1040
0.0
1002
{
1002
}
1002
}
1002
{
1002
}
1002
}
1002
{
1071
        3
1070
     3
1070
     0
1002
{
1070
     2
1070
     0
1070
     0
1040
0.0
1002
}
1070
     0
1070
     2
1002
{
1002
}
1002
}
1002
{
1040
8030.0
1040
190.3000030517578
1040
0.3050000071525574
1040
228.0
1040
545.0
1040
14.0
1040
17.39999961853027
1040
0.4560000002384186
1002
}
1002
}
  0
MTEXT
  5
3E35
330
1F
100
AcDbEntity
  8
SKRAVERING
100
AcDbMText
 10
42.12371597535912
 20
113.9322613271572
 30
0.0
 40
2.25
 41
107.8582
 46
0.0
 71
     1
 72
     1
  1

  7
ROMANS
 73
     1
 44
1.0
  0
MTEXT
  5
3E36
330
1F
100
AcDbEntity
  8
SKRAVERING
100
AcDbMText
 10
26.56208822423173
 20
117.1491720104302
 30
0.0
 40
2.25
 41
101.4188845685994
 46
0.0
 71
     1
 72
     1
  1

  7
ROMANS
 73
     1
 44
1.0
  0
MTEXT
  5
6EE9
330
1F
100
AcDbEntity
  8
KONTUR
100
AcDbMText
 10
152.4285729218993
 20
143.3421055475177
 30
0.0
 40
3.5
 41
214.4276
 46
0.0
 71
     1
 72
     1
  1

  7
ROMANS
 73
     1
 44
1.0
  0
INSERT
  5
6FE5
330
1F
100
AcDbEntity
  8
SYN
100
AcDbBlockReference
  2
ACADN
 10
11.4778742368776
 20
10.29296364353002
 30
0.0
  0
LINE
  5
6FED
330
1F
100
AcDbEntity
  8
KONTUR
100
AcDbLine
 10
76.9778742368776
 20
148.6816708710827
 30
0.0
 11
76.9778742368776
 21
145.29296364353
 31
0.0
  0
LINE
  5
6FEE
330
1F
100
AcDbEntity
  8
KONTUR
100
AcDbLine
 10
65.9778742368776
 20
148.6816708710827
 30
0.0
 11
65.9778742368776
 21
145.29296364353
 31
0.0
  0
LINE
  5
6FEF
330
1F
100
AcDbEntity
  8
KONTUR
100
AcDbLine
 10
64.4778742368776
 20
145.29296364353
 30
0.0
 11
78.4778742368776
 21
145.29296364353
 31
0.0
  0
LINE
  5
6FF0
330
1F
100
AcDbEntity
  8
KONTUR
100
AcDbLine
 10
78.4778742368776
 20
145.29296364353
 30
0.0
 11
78.4778742368776
 21
110.29296364353
 31
0.0
  0
LINE
  5
6FF1
330
1F
100
AcDbEntity
  8
KONTUR
100
AcDbLine
 10
86.4778742368776
 20
110.29296364353
 30
0.0
 11
56.4778742368776
 21
110.29296364353
 31
0.0
  0
LINE
  5
6FF2
330
1F
100
AcDbEntity
  8
KONTUR
100
AcDbLine
 10
64.4778742368776
 20
110.29296364353
 30
0.0
 11
64.4778742368776
 21
145.29296364353
 31
0.0
  0
LINE
  5
6FF6
330
1F
100
AcDbEntity
  8
CENTER
  6
CENTER2
100
AcDbLine
 10
71.4778742368776
 20
229.29296364353
 30
0.0
 11
71.4778742368776
 21
104.29296364353
 31
0.0
  0
CIRCLE
  5
6FF9
330
1F
100
AcDbEntity
  8
KONTUR
100
AcDbCircle
 10
71.4778742368776
 20
186.29296364353
 30
0.0
 40
34.0
  0
CIRCLE
  5
6FFA
330
1F
100
AcDbEntity
  8
KONTUR
100
AcDbCircle
 10
71.4778742368776
 20
186.29296364353
 30
0.0
 40
38.0
  0
LINE
  5
6FFB
330
1F
100
AcDbEntity
  8
CENTER
  6
CENTER2
100
AcDbLine
 10
111.4778742368776
 20
186.29296364353
 30
0.0
 11
31.4778742368776
 21
186.29296364353
 31
0.0
  0
LINE
  5
6FFD
330
1F
100
AcDbEntity
  8
KONTUR
100
AcDbLine
 10
86.4778742368776
 20
110.29296364353
 30
0.0
 11
86.4778742368776
 21
108.29296364353
 31
0.0
  0
LINE
  5
6FFE
330
1F
100
AcDbEntity
  8
KONTUR
100
AcDbLine
 10
86.4778742368776
 20
108.29296364353
 30
0.0
 11
56.4778742368776
 21
108.29296364353
 31
0.0
  0
LINE
  5
6FFF
330
1F
100
AcDbEntity
  8
KONTUR
100
AcDbLine
 10
56.4778742368776
 20
108.29296364353
 30
0.0
 11
56.4778742368776
 21
110.29296364353
 31
0.0
  0
LINE
  5
7000
330
1F
100
AcDbEntity
  8
KONTUR
100
AcDbLine
 10
125.1894430843695
 20
108.29296364353
 30
0.0
 11
125.1894430843695
 21
110.29296364353
 31
0.0
  0
LINE
  5
7001
330
1F
100
AcDbEntity
  8
KONTUR
100
AcDbLine
 10
155.1894430843695
 20
108.29296364353
 30
0.0
 11
125.1894430843695
 21
108.29296364353
 31
0.0
  0
LINE
  5
7002
330
1F
100
AcDbEntity
  8
KONTUR
100
AcDbLine
 10
155.1894430843695
 20
110.29296364353
 30
0.0
 11
155.1894430843695
 21
108.29296364353
 31
0.0
  0
LINE
  5
7003
330
1F
100
AcDbEntity
  8
KONTUR
100
AcDbLine
 10
133.1894430843695
 20
110.29296364353
 30
0.0
 11
133.1894430843695
 21
145.29296364353
 31
0.0
  0
LINE
  5
7004
330
1F
100
AcDbEntity
  8
KONTUR
100
AcDbLine
 10
155.1894430843695
 20
110.29296364353
 30
0.0
 11
125.1894430843695
 21
110.29296364353
 31
0.0
  0
LINE
  5
7005
330
1F
100
AcDbEntity
  8
KONTUR
100
AcDbLine
 10
147.1894430843695
 20
145.29296364353
 30
0.0
 11
147.1894430843695
 21
110.29296364353
 31
0.0
  0
LINE
  5
7006
330
1F
100
AcDbEntity
  8
KONTUR
100
AcDbLine
 10
133.1894430843695
 20
145.29296364353
 30
0.0
 11
147.1894430843695
 21
145.29296364353
 31
0.0
  0
LINE
  5
7007
330
1F
100
AcDbEntity
  8
KONTUR
100
AcDbLine
 10
134.6894430843695
 20
148.6816708710827
 30
0.0
 11
134.6894430843695
 21
145.29296364353
 31
0.0
  0
LINE
  5
7008
330
1F
100
AcDbEntity
  8
KONTUR
100
AcDbLine
 10
145.6894430843695
 20
148.6816708710827
 30
0.0
 11
145.6894430843695
 21
145.29296364353
 31
0.0
  0
LINE
  5
7009
330
1F
100
AcDbEntity
  8
KONTUR
100
AcDbLine
 10
133.1894430843695
 20
148.79296364353
 30
0.0
 11
147.1894430843695
 21
148.79296364353
 31
0.0
  0
LINE
  5
700A
330
1F
100
AcDbEntity
  8
KONTUR
100
AcDbLine
 10
147.1894430843695
 20
148.79296364353
 30
0.0
 11
147.1894430843695
 21
224.29296364353
 31
0.0
  0
LINE
  5
700B
330
1F
100
AcDbEntity
  8
KONTUR
100
AcDbLine
 10
147.1894430843695
 20
224.29296364353
 30
0.0
 11
133.1894430843695
 21
224.29296364353
 31
0.0
  0
LINE
  5
700C
330
1F
100
AcDbEntity
  8
KONTUR
100
AcDbLine
 10
133.1894430843695
 20
224.29296364353
 30
0.0
 11
133.1894430843695
 21
148.79296364353
 31
0.0
  0
LINE
  5
700D
330
1F
100
AcDbEntity
  8
CENTER
  6
CENTER2
100
AcDbLine
 10
130.1894430843695
 20
186.29296364353
 30
0.0
 11
150.1894430843695
 21
186.29296364353
 31
0.0
  0
DIMENSION
  5
700E
330
1F
100
AcDbEntity
  8
MÅL
100
AcDbDimension
  2
*D3
 10
56.4778742368776
 20
95.29296364353002
 30
0.0
 11
71.4778742368776
 21
99.04296364353002
 31
0.0
 70
    32
  1
{ø30}
 71
     5
 42
-1.0
 73
     0
 74
     0
 75
     0
  3
ROMANS
100
AcDbAlignedDimension
 13
86.4778742368776
 23
108.29296364353
 33
0.0
 14
56.4778742368776
 24
108.29296364353
 34
0.0
100
AcDbRotatedDimension
1001
ACAD
1000
DSTYLE
1002
{
1070
    78
1070
     8
1070
   284
1070
     0
1070
   178
1070
     4
1070
   141
1040
-3.0
1002
}
  0
DIMENSION
  5
700F
330
1F
100
AcDbEntity
  8
MÅL
100
AcDbDimension
  2
*D4
 10
105.4778742368776
 20
235.29296364353
 30
0.0
 11
71.4778742368776
 21
239.04296364353
 31
0.0
 70
    32
  1
{ø68}
 71
     5
 42
-1.0
 73
     0
 74
     0
 75
     0
  3
ROMANS
100
AcDbAlignedDimension
 13
37.4778742368776
 23
186.29296364353
 33
0.0
 14
105.4778742368776
 24
186.29296364353
 34
0.0
100
AcDbRotatedDimension
1001
ACAD
1000
DSTYLE
1002
{
1070
    78
1070
     8
1070
   284
1070
     0
1070
   178
1070
     4
1070
   141
1040
-3.0
1002
}
  0
DIMENSION
  5
7010
330
1F
100
AcDbEntity
  8
MÅL
100
AcDbDimension
  2
*D5
 10
33.4778742368776
 20
245.29296364353
 30
0.0
 11
71.4778742368776
 21
249.04296364353
 31
0.0
 70
    32
  1
{ø76}
 71
     5
 42
-1.0
 73
     0
 74
     0
 75
     0
  3
ROMANS
100
AcDbAlignedDimension
 13
109.4778742368776
 23
186.29296364353
 33
0.0
 14
33.4778742368776
 24
186.29296364353
 34
0.0
100
AcDbRotatedDimension
1001
ACAD
1000
DSTYLE
1002
{
1070
    78
1070
     8
1070
   284
1070
     0
1070
   178
1070
     4
1070
   141
1040
-3.0
1002
}
  0
DIMENSION
  5
7011
330
1F
100
AcDbEntity
  8
MÅL
100
AcDbDimension
  2
*D6
 10
147.1894430843695
 20
235.1030616983642
 30
0.0
 11
140.0664763504069
 21
235.1030616983642
 31
0.0
 12
-11.28843115250811
 22
0.0
 32
0.0
 70
    32
 71
     5
 42
-1.0
 73
     0
 74
     0
 75
     0
  3
ROMANS
100
AcDbAlignedDimension
 13
133.1894430843695
 23
224.29296364353
 33
0.0
 14
147.1894430843695
 24
224.29296364353
 34
0.0
100
AcDbRotatedDimension
1001
ACAD
1000
DSTYLE
1002
{
1070
    78
1070
     8
1070
   284
1070
     0
1070
   178
1070
     4
1070
   141
1040
-3.0
1002
}
  0
DIMENSION
  5
7012
330
1F
100
AcDbEntity
  8
MÅL
100
AcDbDimension
  2
*D7
 10
165.1894430843695
 20
108.29296364353
 30
0.0
 11
161.4394430843695
 21
166.29296364353
 31
0.0
 12
-11.28843115250811
 22
0.0
 32
0.0
 70
    32
 71
     5
 42
-1.0
 73
     0
 74
     0
 75
     0
  3
ROMANS
100
AcDbAlignedDimension
 13
147.1894430843695
 23
224.29296364353
 33
0.0
 14
155.1894430843695
 24
108.29296364353
 34
0.0
 50
90.0
100
AcDbRotatedDimension
1001
ACAD
1000
DSTYLE
1002
{
1070
    78
1070
     8
1070
   284
1070
     0
1070
   178
1070
     4
1070
   141
1040
-3.0
1002
}
  0
VIEWPORT
  5
70FF
330
73
100
AcDbEntity
 67
     1
  8
0
100
AcDbViewport
 10
240.9019957022236
 20
141.7499999999999
 30
0.0
 40
497.1936938758437
 41
307.63528875598
 68
     1
 69
     1
 12
240.9019957022236
 22
141.7499999999999
 13
0.0
 23
0.0
 14
10.0
 24
10.0
 15
10.0
 25
10.0
 16
0.0
 26
0.0
 36
1.0
 17
0.0
 27
0.0
 37
0.0
 42
50.0
 43
0.0
 44
0.0
 45
307.63528875598
 50
0.0
 51
0.0
 72
 20000
 90
    32992
  1

281
     0
 71
     1
 74
     0
110
0.0
120
0.0
130
0.0
111
1.0
121
0.0
131
0.0
112
0.0
122
1.0
132
0.0
 79
     0
146
0.0
170
     0
 61
     5
292
     1
282
     1
141
0.0
142
0.0
 63
   256
  0
INSERT
  5
7108
330
73
100
AcDbEntity
 67
     1
  8
VIEWPORT
100
AcDbBlockReference
  2
E10
 10
0.0
 20
0.0
 30
0.0
  0
VIEWPORT
  5
710A
330
73
100
AcDbEntity
 67
     1
  8
VIEWPORT
100
AcDbViewport
 10
98.0
 20
141.7499999999999
 30
0.0
 40
211.3897024713965
 41
294.9274627144249
 68
     2
 69
     2
 12
104.9826058099077
 22
172.0459906829591
 13
0.0
 23
0.0
 14
10.0
 24
10.0
 15
10.0
 25
10.0
 16
0.0
 26
0.0
 36
1.0
 17
0.0
 27
0.0
 37
0.0
 42
50.0
 43
0.0
 44
0.0
 45
294.9274627144249
 50
0.0
 51
0.0
 72
 20000
 90
    32928
  1

281
     0
 71
     1
 74
     0
110
0.0
120
0.0
130
0.0
111
1.0
121
0.0
131
0.0
112
0.0
122
1.0
132
0.0
 79
     0
146
0.0
170
     0
 61
     5
292
     1
282
     1
141
0.0
142
0.0
 63
   256
  0
INSERT
  5
710F
330
73
100
AcDbEntity
 67
     1
  8
VIEWPORT
100
AcDbBlockReference
  2
K3
 10
196.0
 20
283.5
 30
0.0
  0
INSERT
  5
711F
330
73
100
AcDbEntity
 67
     1
  8
VIEWPORT
100
AcDbBlockReference
 66
     1
  2
K4
 10
196.0
 20
283.5
 30
0.0
  0
ATTRIB
  5
7120
330
711F
100
AcDbEntity
 67
     1
  8
0
 62
     4
100
AcDbText
 10
17.5
 20
264.0
 30
0.0
 40
2.5
  1
GLASS HOLDER
  7
ROMANS
100
AcDbAttribute
  2
EMNE
 70
     0
280
     0
  0
ATTRIB
  5
7121
330
711F
100
AcDbEntity
 67
     1
  8
0
 62
     4
100
AcDbText
 10
17.5
 20
259.0
 30
0.0
 40
2.5
  1

  7
ROMANS
100
AcDbAttribute
  2
SUBJECT
 70
     0
280
     0
  0
ATTRIB
  5
7122
330
711F
100
AcDbEntity
 67
     1
  8
0
 62
     4
100
AcDbText
 10
163.775
 20
269.0
 30
0.0
 40
2.5
  1
14.7042.02.009
  7
ROMANS
 72
     2
 11
193.5
 21
269.0
 31
0.0
100
AcDbAttribute
  2
KAT.NR
 70
     0
280
     0
  0
ATTRIB
  5
7123
330
711F
100
AcDbEntity
 67
     1
  8
0
 62
     4
100
AcDbText
 10
193.5
 20
264.0
 30
0.0
 40
2.5
  1

  7
ROMANS
 72
     2
 11
193.5
 21
264.0
 31
0.0
100
AcDbAttribute
  2
TEGN.NR
 70
     0
280
     0
  0
ATTRIB
  5
7124
330
711F
100
AcDbEntity
 67
     1
  8
0
 62
     4
100
AcDbText
 10
176.85
 20
259.0
 30
0.0
 40
2.5
  1
14.02.91
  7
ROMANS
 72
     2
 11
193.5
 21
259.0
 31
0.0
100
AcDbAttribute
  2
DATO
 70
     0
280
     0
  0
ATTRIB
  5
7125
330
711F
100
AcDbEntity
 67
     1
  8
0
 62
     4
100
AcDbText
 10
176.85
 20
254.0
 30
0.0
 40
2.5
  1
01.09.99
  7
ROMANS
 72
     2
 11
193.5
 21
254.0
 31
0.0
100
AcDbAttribute
  2
RETTET
 70
     0
280
     0
  0
ATTRIB
  5
7126
330
711F
100
AcDbEntity
 67
     1
  8
0
 62
     4
100
AcDbText
 10
153.55
 20
264.0
 30
0.0
 40
2.5
  1
1:1
  7
ROMANS
 72
     2
 11
159.5
 21
264.0
 31
0.0
100
AcDbAttribute
  2
MÅL
 70
     0
280
     0
  0
ATTRIB
  5
7127
330
711F
100
AcDbEntity
 67
     1
  8
0
 62
     4
100
AcDbText
 10
154.975
 20
254.0
 30
0.0
 40
2.5
  1
A4
  7
ROMANS
 72
     2
 11
159.5
 21
254.0
 31
0.0
100
AcDbAttribute
  2
FORMAT
 70
     0
280
     0
  0
ATTRIB
  5
7128
330
711F
100
AcDbEntity
 67
     1
  8
0
 62
     4
100
AcDbText
 10
151.875
 20
259.0
 30
0.0
 40
2.5
  1
MAN
  7
ROMANS
 72
     2
 11
159.5
 21
259.0
 31
0.0
100
AcDbAttribute
  2
SIGN
 70
     0
280
     0
  0
SEQEND
  5
7161
330
711F
100
AcDbEntity
 67
     1
  8
VIEWPORT
  0
ENDSEC
  0
SECTION
  2
OBJECTS
  0
DICTIONARY
  5
C
330
0
100
AcDbDictionary
281
     1
  3
ACAD_COLOR
350
6C
  3
ACAD_GROUP
350
D
  3
ACAD_LAYOUT
350
1A
  3
ACAD_MATERIAL
350
6B
  3
ACAD_MLINESTYLE
350
17
  3
ACAD_PLOTSETTINGS
350
19
  3
ACAD_PLOTSTYLENAME
350
E
  3
ACAD_TABLESTYLE
350
92
  3
AcDbVariableDictionary
350
59
  0
DICTIONARY
  5
6C
102
{ACAD_REACTORS
330
C
102
}
330
C
100
AcDbDictionary
281
     1
  0
DICTIONARY
  5
D
102
{ACAD_REACTORS
330
C
102
}
330
C
100
AcDbDictionary
281
     1
  0
DICTIONARY
  5
1A
102
{ACAD_REACTORS
330
C
102
}
330
C
100
AcDbDictionary
281
     1
  3
Layout1
350
74
  3
Model
350
22
  0
DICTIONARY
  5
6B
102
{ACAD_REACTORS
330
C
102
}
330
C
100
AcDbDictionary
281
     1
  0
DICTIONARY
  5
17
102
{ACAD_REACTORS
330
C
102
}
330
C
100
AcDbDictionary
281
     1
  3
ROMANS
350
3E33
  3
Standard
350
18
  0
DICTIONARY
  5
19
102
{ACAD_REACTORS
330
C
102
}
330
C
100
AcDbDictionary
281
     1
  0
ACDBDICTIONARYWDFLT
  5
E
102
{ACAD_REACTORS
330
C
102
}
330
C
100
AcDbDictionary
281
     1
  3
Normal
350
F
100
AcDbDictionaryWithDefault
340
F
  0
DICTIONARY
  5
92
102
{ACAD_REACTORS
330
C
102
}
330
C
100
AcDbDictionary
281
     1
  3
Standard
350
93
  0
DICTIONARY
  5
59
102
{ACAD_REACTORS
330
C
102
}
330
C
100
AcDbDictionary
281
     1
  3
CTABLESTYLE
350
98
  3
HIDETEXT
350
7142
  0
LAYOUT
  5
74
102
{ACAD_REACTORS
330
1A
102
}
330
1A
100
AcDbPlotSettings
  1

  2
None
  4

  6

 40
0.0
 41
0.0
 42
0.0
 43
0.0
 44
0.0
 45
0.0
 46
0.0
 47
0.0
 48
0.0
 49
0.0
140
0.0
141
0.0
142
1.0
143
1.0
 70
   688
 72
     0
 73
     0
 74
     5
  7

 75
    16
 76
     0
 77
     2
 78
   300
147
1.0
148
0.0
149
0.0
100
AcDbLayout
  1
Layout1
 70
     1
 71
     1
 10
0.0
 20
0.0
 11
0.0
 21
0.0
 12
0.0
 22
0.0
 32
0.0
 14
0.0
 24
0.0
 34
0.0
 15
0.0
 25
0.0
 35
0.0
146
0.0
 13
0.0
 23
0.0
 33
0.0
 16
1.0
 26
0.0
 36
0.0
 17
0.0
 27
1.0
 37
0.0
 76
     0
330
73
331
70FF
  0
LAYOUT
  5
22
102
{ACAD_REACTORS
330
1A
102
}
330
1A
100
AcDbPlotSettings
  1

  2
None
  4

  6

 40
0.0
 41
0.0
 42
0.0
 43
0.0
 44
0.0
 45
0.0
 46
0.0
 47
0.0
 48
0.0
 49
0.0
140
0.0
141
0.0
142
1.0
143
1.0
 70
 11952
 72
     0
 73
     0
 74
     5
  7

 75
    16
 76
     0
 77
     2
 78
   300
147
1.0
148
0.0
149
0.0
100
AcDbLayout
  1
Model
 70
     1
 71
     0
 10
0.0
 20
0.0
 11
210.0
 21
297.0
 12
0.0
 22
0.0
 32
0.0
 14
-7.694851235698252
 24
-5.713731357212509
 34
0.0
 15
203.6948512356983
 25
289.2137313572124
 35
0.0
146
0.0
 13
0.0
 23
0.0
 33
0.0
 16
1.0
 26
0.0
 36
0.0
 17
0.0
 27
1.0
 37
0.0
 76
     0
330
1F
  0
MLINESTYLE
  5
3E33
102
{ACAD_REACTORS
330
17
102
}
330
17
100
AcDbMlineStyle
  2
ROMANS
 70
     0
  3

 62
     0
 51
90.0
 52
90.0
 71
     2
 49
0.5
 62
   256
  6
BYLAYER
 49
-0.5
 62
   256
  6
BYLAYER
  0
MLINESTYLE
  5
18
102
{ACAD_REACTORS
330
17
102
}
330
17
100
AcDbMlineStyle
  2
STANDARD
 70
     0
  3

 62
     0
 51
90.0
 52
90.0
 71
     2
 49
0.5
 62
   256
  6
BYLAYER
 49
-0.5
 62
   256
  6
BYLAYER
  0
ACDBPLACEHOLDER
  5
F
102
{ACAD_REACTORS
330
E
102
}
330
E
  0
TABLESTYLE
  5
93
102
{ACAD_REACTORS
330
92
102
}
330
92
100
AcDbTableStyle
  3
Standard
 70
     0
 71
     0
 40
0.06
 41
0.06
280
     0
281
     0
  7
Standard
140
0.18
170
     2
 62
     0
 63
     7
283
     0
 90
      512
 91
        0
  1

274
    -2
284
     1
 64
     0
275
    -2
285
     1
 65
     0
276
    -2
286
     1
 66
     0
277
    -2
287
     1
 67
     0
278
    -2
288
     1
 68
     0
279
    -2
289
     1
 69
     0
  7
Standard
140
0.25
170
     5
 62
     0
 63
     7
283
     0
 90
      512
 91
        0
  1

274
    -2
284
     1
 64
     0
275
    -2
285
     1
 65
     0
276
    -2
286
     1
 66
     0
277
    -2
287
     1
 67
     0
278
    -2
288
     1
 68
     0
279
    -2
289
     1
 69
     0
  7
Standard
140
0.18
170
     5
 62
     0
 63
     7
283
     0
 90
      512
 91
        0
  1

274
    -2
284
     1
 64
     0
275
    -2
285
     1
 65
     0
276
    -2
286
     1
 66
     0
277
    -2
287
     1
 67
     0
278
    -2
288
     1
 68
     0
279
    -2
289
     1
 69
     0
  0
DICTIONARYVAR
  5
98
102
{ACAD_REACTORS
330
59
102
}
330
59
100
DictionaryVariables
280
     0
  1
STANDARD
  0
DICTIONARYVAR
  5
7142
102
{ACAD_REACTORS
330
59
102
}
330
59
100
DictionaryVariables
280
     0
  1
2
  0
ENDSEC
  0
EOF
