  0
SECTION
  2
HEADER
  9
$ACADVER
  1
AC1015
  9
$ACADMAINTVER
 70
     6
  9
$DWGCODEPAGE
  3
ANSI_1252
  9
$INSBASE
 10
0.0
 20
0.0
 30
0.0
  9
$EXTMIN
 10
0.0
 20
0.0
 30
0.0
  9
$EXTMAX
 10
210.0
 20
297.0
 30
0.0
  9
$LIMMIN
 10
0.0
 20
0.0
  9
$LIMMAX
 10
210.0
 20
297.0
  9
$ORTHOMODE
 70
     0
  9
$REGENMODE
 70
     1
  9
$FILLMODE
 70
     1
  9
$QTEXTMODE
 70
     0
  9
$MIRRTEXT
 70
     1
  9
$LTSCALE
 40
1.0
  9
$ATTMODE
 70
     1
  9
$TEXTSIZE
 40
3.8805555556
  9
$TRACEWID
 40
1.0
  9
$TEXTSTYLE
  7
Standard
  9
$CLAYER
  8
0
  9
$CELTYPE
  6
ByLayer
  9
$CECOLOR
 62
   256
  9
$CELTSCALE
 40
1.0
  9
$DISPSILH
 70
     0
  9
$DIMSCALE
 40
1.0
  9
$DIMASZ
 40
2.8251505534
  9
$DIMEXO
 40
1.0
  9
$DIMDLI
 40
3.75
  9
$DIMRND
 40
0.0
  9
$DIMDLE
 40
0.0
  9
$DIMEXE
 40
1.0
  9
$DIMTP
 40
0.0
  9
$DIMTM
 40
0.0
  9
$DIMTXT
 40
3.8805555556
  9
$DIMCEN
 40
2.5
  9
$DIMTSZ
 40
0.0
  9
$DIMTOL
 70
     0
  9
$DIMLIM
 70
     0
  9
$DIMTIH
 70
     1
  9
$DIMTOH
 70
     1
  9
$DIMSE1
 70
     0
  9
$DIMSE2
 70
     0
  9
$DIMTAD
 70
     1
  9
$DIMZIN
 70
     0
  9
$DIMBLK
  1

  9
$DIMASO
 70
     1
  9
$DIMSHO
 70
     1
  9
$DIMPOST
  1

  9
$DIMAPOST
  1

  9
$DIMALT
 70
     0
  9
$DIMALTD
 70
     3
  9
$DIMALTF
 40
0.0393700787
  9
$DIMLFAC
 40
1.0
  9
$DIMTOFL
 70
     1
  9
$DIMTVP
 40
0.0
  9
$DIMTIX
 70
     0
  9
$DIMSOXD
 70
     0
  9
$DIMSAH
 70
     0
  9
$DIMBLK1
  1

  9
$DIMBLK2
  1

  9
$DIMSTYLE
  2
ISO-25
  9
$DIMCLRD
 70
     0
  9
$DIMCLRE
 70
     0
  9
$DIMCLRT
 70
     0
  9
$DIMTFAC
 40
1.0
  9
$DIMGAP
 40
1.524
  9
$DIMJUST
 70
     0
  9
$DIMSD1
 70
     0
  9
$DIMSD2
 70
     0
  9
$DIMTOLJ
 70
     0
  9
$DIMTZIN
 70
     0
  9
$DIMALTZ
 70
     0
  9
$DIMALTTZ
 70
     0
  9
$DIMUPT
 70
     0
  9
$DIMDEC
 70
     2
  9
$DIMTDEC
 70
     2
  9
$DIMALTU
 70
     2
  9
$DIMALTTD
 70
     3
  9
$DIMTXSTY
  7
Standard
  9
$DIMAUNIT
 70
     0
  9
$DIMADEC
 70
     2
  9
$DIMALTRND
 40
0.0
  9
$DIMAZIN
 70
     0
  9
$DIMDSEP
 70
    44
  9
$DIMATFIT
 70
     3
  9
$DIMFRAC
 70
     0
  9
$DIMLDRBLK
  1

  9
$DIMLUNIT
 70
     2
  9
$DIMLWD
 70
    -2
  9
$DIMLWE
 70
    -2
  9
$DIMTMOVE
 70
     0
  9
$LUNITS
 70
     2
  9
$LUPREC
 70
     2
  9
$SKETCHINC
 40
1.0
  9
$FILLETRAD
 40
10.0
  9
$AUNITS
 70
     0
  9
$AUPREC
 70
     2
  9
$MENU
  1
.
  9
$ELEVATION
 40
0.0
  9
$PELEVATION
 40
0.0
  9
$THICKNESS
 40
0.0
  9
$LIMCHECK
 70
     0
  9
$CHAMFERA
 40
10.0
  9
$CHAMFERB
 40
10.0
  9
$CHAMFERC
 40
20.0
  9
$CHAMFERD
 40
0.0
  9
$SKPOLY
 70
     0
  9
$TDCREATE
 40
2455926.449195
  9
$TDUCREATE
 40
2455926.407528333
  9
$TDUPDATE
 40
2455926.449195012
  9
$TDUUPDATE
 40
2455926.407528345
  9
$TDINDWG
 40
0.0000000116
  9
$TDUSRTIMER
 40
0.0000000116
  9
$USRTIMER
 70
     1
  9
$ANGBASE
 50
0.0
  9
$ANGDIR
 70
     0
  9
$PDMODE
 70
     0
  9
$PDSIZE
 40
-1.0
  9
$PLINEWID
 40
0.0
  9
$SPLFRAME
 70
     0
  9
$SPLINETYPE
 70
     6
  9
$SPLINESEGS
 70
     8
  9
$HANDSEED
  5
1AC
  9
$SURFTAB1
 70
     6
  9
$SURFTAB2
 70
     6
  9
$SURFTYPE
 70
     6
  9
$SURFU
 70
     6
  9
$SURFV
 70
     6
  9
$UCSBASE
  2

  9
$UCSNAME
  2

  9
$UCSORG
 10
0.0
 20
0.0
 30
0.0
  9
$UCSXDIR
 10
1.0
 20
0.0
 30
0.0
  9
$UCSYDIR
 10
0.0
 20
1.0
 30
0.0
  9
$UCSORTHOREF
  2

  9
$UCSORTHOVIEW
 70
     0
  9
$UCSORGTOP
 10
0.0
 20
0.0
 30
0.0
  9
$UCSORGBOTTOM
 10
0.0
 20
0.0
 30
0.0
  9
$UCSORGLEFT
 10
0.0
 20
0.0
 30
0.0
  9
$UCSORGRIGHT
 10
0.0
 20
0.0
 30
0.0
  9
$UCSORGFRONT
 10
0.0
 20
0.0
 30
0.0
  9
$UCSORGBACK
 10
0.0
 20
0.0
 30
0.0
  9
$PUCSBASE
  2

  9
$PUCSNAME
  2

  9
$PUCSORG
 10
0.0
 20
0.0
 30
0.0
  9
$PUCSXDIR
 10
1.0
 20
0.0
 30
0.0
  9
$PUCSYDIR
 10
0.0
 20
1.0
 30
0.0
  9
$PUCSORTHOREF
  2

  9
$PUCSORTHOVIEW
 70
     0
  9
$PUCSORGTOP
 10
0.0
 20
0.0
 30
0.0
  9
$PUCSORGBOTTOM
 10
0.0
 20
0.0
 30
0.0
  9
$PUCSORGLEFT
 10
0.0
 20
0.0
 30
0.0
  9
$PUCSORGRIGHT
 10
0.0
 20
0.0
 30
0.0
  9
$PUCSORGFRONT
 10
0.0
 20
0.0
 30
0.0
  9
$PUCSORGBACK
 10
0.0
 20
0.0
 30
0.0
  9
$USERI1
 70
     0
  9
$USERI2
 70
     0
  9
$USERI3
 70
     0
  9
$USERI4
 70
     0
  9
$USERI5
 70
     0
  9
$USERR1
 40
0.0
  9
$USERR2
 40
0.0
  9
$USERR3
 40
0.0
  9
$USERR4
 40
0.0
  9
$USERR5
 40
0.0
  9
$WORLDVIEW
 70
     1
  9
$SHADEDGE
 70
     3
  9
$SHADEDIF
 70
    70
  9
$TILEMODE
 70
     1
  9
$MAXACTVP
 70
    64
  9
$PINSBASE
 10
0.0
 20
0.0
 30
0.0
  9
$PLIMCHECK
 70
     0
  9
$PEXTMIN
 10
1.0000000000E+20
 20
1.0000000000E+20
 30
1.0000000000E+20
  9
$PEXTMAX
 10
-1.0000000000E+20
 20
-1.0000000000E+20
 30
-1.0000000000E+20
  9
$PLIMMIN
 10
0.0
 20
0.0
  9
$PLIMMAX
 10
420.0
 20
297.0
  9
$UNITMODE
 70
     0
  9
$VISRETAIN
 70
     1
  9
$PLINEGEN
 70
     0
  9
$PSLTSCALE
 70
     1
  9
$TREEDEPTH
 70
  3020
  9
$CMLSTYLE
  2
Standard
  9
$CMLJUST
 70
     0
  9
$CMLSCALE
 40
20.0
  9
$PROXYGRAPHICS
 70
     1
  9
$MEASUREMENT
 70
     1
  9
$CELWEIGHT
370
    -1
  9
$ENDCAPS
280
     0
  9
$JOINSTYLE
280
     0
  9
$LWDISPLAY
290
     1
  9
$INSUNITS
 70
     4
  9
$HYPERLINKBASE
  1

  9
$STYLESHEET
  1

  9
$XEDIT
290
     1
  9
$CEPSNTYPE
380
     0
  9
$PSTYLEMODE
290
     1
  9
$FINGERPRINTGUID
  2
{39DAB06B-2190-4D3A-B450-0D3A436B6E13}
  9
$VERSIONGUID
  2
{FAEB1C32-E019-11D5-929B-00C0DF256EC4}
  9
$EXTNAMES
290
     1
  9
$PSVPSCALE
 40
0.0
  9
$OLESTARTUP
290
     0
  0
ENDSEC
  0
SECTION
  2
CLASSES
  0
CLASS
  1
ACDBDICTIONARYWDFLT
  2
AcDbDictionaryWithDefault
  3
ObjectDBX Classes
 90
        0
280
     0
281
     0
  0
CLASS
  1
VISUALSTYLE
  2
AcDbVisualStyle
  3
ObjectDBX Classes
 90
     4095
280
     0
281
     0
  0
CLASS
  1
MATERIAL
  2
AcDbMaterial
  3
ObjectDBX Classes
 90
     1153
280
     0
281
     0
  0
CLASS
  1
SCALE
  2
AcDbScale
  3
ObjectDBX Classes
 90
     1153
280
     0
281
     0
  0
CLASS
  1
IMAGEDEF
  2
AcDbRasterImageDef
  3
ISM
 90
        0
280
     0
281
     0
  0
CLASS
  1
IMAGE
  2
AcDbRasterImage
  3
ISM
 90
      127
280
     0
281
     1
  0
CLASS
  1
IMAGEDEF_REACTOR
  2
AcDbRasterImageDefReactor
  3
ISM
 90
        1
280
     0
281
     0
  0
CLASS
  1
DICTIONARYVAR
  2
AcDbDictionaryVar
  3
ObjectDBX Classes
 90
        0
280
     0
281
     0
  0
CLASS
  1
ACDBPLACEHOLDER
  2
AcDbPlaceHolder
  3
ObjectDBX Classes
 90
        0
280
     0
281
     0
  0
CLASS
  1
LAYOUT
  2
AcDbLayout
  3
ObjectDBX Classes
 90
        0
280
     0
281
     0
  0
ENDSEC
  0
SECTION
  2
TABLES
  0
TABLE
  2
VPORT
  5
8
330
0
100
AcDbSymbolTable
 70
     1
  0
VPORT
  5
29
330
8
100
AcDbSymbolTableRecord
100
AcDbViewportTableRecord
  2
*Active
 70
     0
 10
0.0
 20
0.0
 11
1.0
 21
1.0
 12
105.0
 22
148.5
 13
0.0
 23
0.0
 14
10.0
 24
10.0
 15
10.0
 25
10.0
 16
0.0
 26
0.0
 36
1.0
 17
0.0
 27
0.0
 37
0.0
 40
297.0
 41
0.7070707071
 42
50.0
 43
0.0
 44
0.0
 50
0.0
 51
0.0
 71
     0
 72
  2000
 73
     1
 74
     3
 75
     0
 76
     0
 77
     0
 78
     0
281
     0
 65
     1
110
0.0
120
0.0
130
0.0
111
1.0
121
0.0
131
0.0
112
0.0
122
1.0
132
0.0
 79
     0
146
0.0
  0
ENDTAB
  0
TABLE
  2
LTYPE
  5
5
330
0
100
AcDbSymbolTable
 70
     6
  0
LTYPE
  5
14
330
5
100
AcDbSymbolTableRecord
100
AcDbLinetypeTableRecord
  2
ByBlock
 70
     0
  3

 72
    65
 73
     0
 40
0.0
  0
LTYPE
  5
15
330
5
100
AcDbSymbolTableRecord
100
AcDbLinetypeTableRecord
  2
ByLayer
 70
     0
  3

 72
    65
 73
     0
 40
0.0
  0
LTYPE
  5
16
330
5
100
AcDbSymbolTableRecord
100
AcDbLinetypeTableRecord
  2
Continuous
 70
     0
  3
Solid line
 72
    65
 73
     0
 40
0.0
  0
LTYPE
  5
3F
330
5
100
AcDbSymbolTableRecord
100
AcDbLinetypeTableRecord
  2
HIDDEN
 70
     0
  3
Hidden __ __ __ __ __ __ __ __ __ __ __ __ __ __
 72
    65
 73
     2
 40
1.905
 49
1.27
 74
     0
 49
-0.635
 74
     0
  0
LTYPE
  5
40
330
5
100
AcDbSymbolTableRecord
100
AcDbLinetypeTableRecord
  2
PHANTOM
 70
     0
  3
Phantom ______  __  __  ______  __  __  ______
 72
    65
 73
     6
 40
12.7
 49
6.35
 74
     0
 49
-1.27
 74
     0
 49
1.27
 74
     0
 49
-1.27
 74
     0
 49
1.27
 74
     0
 49
-1.27
 74
     0
  0
LTYPE
  5
41
330
5
100
AcDbSymbolTableRecord
100
AcDbLinetypeTableRecord
  2
CENTER
 70
     0
  3
Center ____ _ ____ _ ____ _ ____ _ ____ _ ____
 72
    65
 73
     4
 40
10.16
 49
6.35
 74
     0
 49
-1.27
 74
     0
 49
1.27
 74
     0
 49
-1.27
 74
     0
  0
LTYPE
  5
42
330
5
100
AcDbSymbolTableRecord
100
AcDbLinetypeTableRecord
  2
CENTERX2
 70
     0
  3
Center (2x) ________  __  ________  __  _____
 72
    65
 73
     4
 40
20.32
 49
12.7
 74
     0
 49
-2.54
 74
     0
 49
2.54
 74
     0
 49
-2.54
 74
     0
  0
LTYPE
  5
43
330
5
100
AcDbSymbolTableRecord
100
AcDbLinetypeTableRecord
  2
DOT2
 70
     0
  3
Dot (.5x) ........................................
 72
    65
 73
     2
 40
0.635
 49
0.0
 74
     0
 49
-0.635
 74
     0
  0
ENDTAB
  0
TABLE
  2
LAYER
  5
2
330
0
100
AcDbSymbolTable
 70
     1
  0
LAYER
  5
10
330
2
100
AcDbSymbolTableRecord
100
AcDbLayerTableRecord
  2
0
 70
     0
 62
     7
  6
Continuous
370
    -3
390
F
  0
ENDTAB
  0
TABLE
  2
STYLE
  5
3
330
0
100
AcDbSymbolTable
 70
     3
  0
STYLE
  5
11
330
3
100
AcDbSymbolTableRecord
100
AcDbTextStyleTableRecord
  2
Standard
 70
     0
 40
0.0
 41
1.0
 50
0.0
 71
     0
 42
2.5
  3
txt
  4

  0
STYLE
  5
47
330
3
100
AcDbSymbolTableRecord
100
AcDbTextStyleTableRecord
  2
SLDTEXTSTYLE0
 70
     0
 40
0.0
 41
0.605
 50
0.0
 71
     0
 42
0.2
  3
TXT
  4

  0
STYLE
  5
7A
330
3
100
AcDbSymbolTableRecord
100
AcDbTextStyleTableRecord
  2
SLDTEXTSTYLE1
 70
     0
 40
0.0
 41
0.75
 50
0.0
 71
     0
 42
0.2
  3
TXT
  4

  0
ENDTAB
  0
TABLE
  2
VIEW
  5
6
330
0
100
AcDbSymbolTable
 70
     0
  0
ENDTAB
  0
TABLE
  2
UCS
  5
7
330
0
100
AcDbSymbolTable
 70
     0
  0
ENDTAB
  0
TABLE
  2
APPID
  5
9
330
0
100
AcDbSymbolTable
 70
     1
  0
APPID
  5
12
330
9
100
AcDbSymbolTableRecord
100
AcDbRegAppTableRecord
  2
ACAD
 70
     0
  0
ENDTAB
  0
TABLE
  2
DIMSTYLE
  5
A
330
0
100
AcDbSymbolTable
 70
     5
100
AcDbDimStyleTable
  0
DIMSTYLE
105
27
330
A
100
AcDbSymbolTableRecord
100
AcDbDimStyleTableRecord
  2
ISO-25
 70
     0
 41
2.5
 42
0.625
 43
3.75
 44
1.25
 73
     0
 74
     0
 77
     1
 78
     8
140
2.5
141
2.5
143
0.0393700787
147
0.625
171
     3
172
     1
271
     2
272
     2
274
     3
278
    44
283
     0
284
     8
340
11
  0
DIMSTYLE
105
D5
102
{ACAD_REACTORS
330
D4
330
EC
330
102
330
121
102
}
330
A
100
AcDbSymbolTableRecord
100
AcDbDimStyleTableRecord
  2
SLDDIMSTYLE0
 70
     0
 41
2.8251505534
 44
0.0
 45
0.000000001
 73
     0
 74
     0
 77
     1
 78
    12
140
2.8251505534
147
0.7062876383
173
     1
271
     2
272
     2
276
     2
284
    12
340
47
  0
DIMSTYLE
105
F7
102
{ACAD_REACTORS
330
F6
102
}
330
A
100
AcDbSymbolTableRecord
100
AcDbDimStyleTableRecord
  2
SLDDIMSTYLE1
 70
     0
 41
2.8251505534
 44
0.0
 45
0.000000001
 73
     0
 74
     0
 77
     1
 78
    12
140
2.8251505534
141
0.0
147
0.7062876383
172
     1
173
     1
271
     2
272
     2
276
     2
284
    12
340
47
  0
DIMSTYLE
105
172
330
A
100
AcDbSymbolTableRecord
100
AcDbDimStyleTableRecord
  2
SLDDIMSTYLE2
 70
     0
 41
0.8692770933
 44
0.0
 45
0.000000001
140
0.0
146
0.8692770933
147
0.0
173
     1
271
     0
272
     0
276
     2
340
11
341
173
343
173
344
173
  0
DIMSTYLE
105
190
330
A
100
AcDbSymbolTableRecord
100
AcDbDimStyleTableRecord
  2
SLDDIMSTYLE3
 70
     0
 41
2.8251505534
 44
0.0
 45
0.000000001
140
0.0
146
2.8251505534
147
0.0
173
     1
271
     0
272
     0
276
     2
340
11
  0
ENDTAB
  0
TABLE
  2
BLOCK_RECORD
  5
1
330
0
100
AcDbSymbolTable
 70
    14
  0
BLOCK_RECORD
  5
1F
330
1
100
AcDbSymbolTableRecord
100
AcDbBlockTableRecord
  2
*Model_Space
340
22
  0
BLOCK_RECORD
  5
1B
330
1
100
AcDbSymbolTableRecord
100
AcDbBlockTableRecord
  2
*Paper_Space
340
1E
  0
BLOCK_RECORD
  5
23
330
1
100
AcDbSymbolTableRecord
100
AcDbBlockTableRecord
  2
*Paper_Space0
340
26
  0
BLOCK_RECORD
  5
44
330
1
100
AcDbSymbolTableRecord
100
AcDbBlockTableRecord
  2
tegningshovd
340
0
102
{BLKREFS
331
92
102
}
  0
BLOCK_RECORD
  5
73
330
1
100
AcDbSymbolTableRecord
100
AcDbBlockTableRecord
  2
SW_NOTE_0
340
0
102
{BLKREFS
331
78
102
}
  0
BLOCK_RECORD
  5
A2
330
1
100
AcDbSymbolTableRecord
100
AcDbBlockTableRecord
  2
SW_TABLEANNOTATION_0
340
0
102
{BLKREFS
331
CB
102
}
  0
BLOCK_RECORD
  5
D6
330
1
100
AcDbSymbolTableRecord
100
AcDbBlockTableRecord
  2
*D4
340
0
  0
BLOCK_RECORD
  5
ED
330
1
100
AcDbSymbolTableRecord
100
AcDbBlockTableRecord
  2
*D5
340
0
  0
BLOCK_RECORD
  5
F8
330
1
100
AcDbSymbolTableRecord
100
AcDbBlockTableRecord
  2
*D6
340
0
  0
BLOCK_RECORD
  5
103
330
1
100
AcDbSymbolTableRecord
100
AcDbBlockTableRecord
  2
*D7
340
0
  0
BLOCK_RECORD
  5
122
330
1
100
AcDbSymbolTableRecord
100
AcDbBlockTableRecord
  2
*D8
340
0
  0
BLOCK_RECORD
  5
16C
330
1
100
AcDbSymbolTableRecord
100
AcDbBlockTableRecord
  2
SW_NOTE_1
340
0
102
{BLKREFS
331
171
102
}
  0
BLOCK_RECORD
  5
173
330
1
100
AcDbSymbolTableRecord
100
AcDbBlockTableRecord
  2
_DOT
340
0
  0
BLOCK_RECORD
  5
17C
330
1
100
AcDbSymbolTableRecord
100
AcDbBlockTableRecord
  2
SW_NOTE_2
340
0
102
{BLKREFS
331
181
102
}
  0
BLOCK_RECORD
  5
183
330
1
100
AcDbSymbolTableRecord
100
AcDbBlockTableRecord
  2
SW_NOTE_3
340
0
102
{BLKREFS
331
188
102
}
  0
BLOCK_RECORD
  5
18A
330
1
100
AcDbSymbolTableRecord
100
AcDbBlockTableRecord
  2
SW_NOTE_4
340
0
102
{BLKREFS
331
18F
102
}
  0
ENDTAB
  0
ENDSEC
  0
SECTION
  2
BLOCKS
  0
BLOCK
  5
20
330
1F
100
AcDbEntity
  8
0
100
AcDbBlockBegin
  2
*Model_Space
 70
     0
 10
0.0
 20
0.0
 30
0.0
  3
*Model_Space
  1

  0
ENDBLK
  5
21
330
1F
100
AcDbEntity
  8
0
100
AcDbBlockEnd
  0
BLOCK
  5
1C
330
1B
100
AcDbEntity
 67
     1
  8
0
100
AcDbBlockBegin
  2
*Paper_Space
 70
     0
 10
0.0
 20
0.0
 30
0.0
  3
*Paper_Space
  1

  0
ENDBLK
  5
1D
330
1B
100
AcDbEntity
 67
     1
  8
0
100
AcDbBlockEnd
  0
BLOCK
  5
24
330
23
100
AcDbEntity
  8
0
100
AcDbBlockBegin
  2
*Paper_Space0
 70
     0
 10
0.0
 20
0.0
 30
0.0
  3
*Paper_Space0
  1

  0
ENDBLK
  5
25
330
23
100
AcDbEntity
  8
0
100
AcDbBlockEnd
  0
BLOCK
  5
45
330
44
100
AcDbEntity
  8
0
100
AcDbBlockBegin
  2
tegningshovd
 70
     2
 10
0.0
 20
0.0
 30
0.0
  3
tegningshovd
  1

  0
MTEXT
  5
6A
330
44
100
AcDbEntity
  8
0
  6
Continuous
 62
     7
370
     0
100
AcDbMText
 10
2.5894912534
 20
20.3876192813
 30
0.0
 40
1.5875
 41
0.0
 71
     1
 72
     1
  1
category:
  7
SLDTEXTSTYLE0
 73
     1
 44
1.0
  0
MTEXT
  5
6B
330
44
100
AcDbEntity
  8
0
  6
Continuous
 62
     7
370
     0
100
AcDbMText
 10
49.7673983699
 20
8.9982843649
 30
0.0
 40
1.5875
 41
0.0
 71
     1
 72
     1
  1
Appr. date:
  7
SLDTEXTSTYLE0
 73
     1
 44
1.0
  0
MTEXT
  5
6C
330
44
100
AcDbEntity
  8
0
  6
Continuous
 62
     7
370
     0
100
AcDbMText
 10
49.852625747
 20
14.8626402695
 30
0.0
 40
1.5875
 41
0.0
 71
     1
 72
     1
  1
Date:
  7
SLDTEXTSTYLE0
 73
     1
 44
1.0
  0
MTEXT
  5
6D
330
44
100
AcDbEntity
  8
0
  6
Continuous
 62
     7
370
     0
100
AcDbMText
 10
2.673447253
 20
8.9368704104
 30
0.0
 40
1.5875
 41
0.0
 71
     1
 72
     1
  1
Approved by:
  7
SLDTEXTSTYLE0
 73
     1
 44
1.0
  0
MTEXT
  5
6E
330
44
100
AcDbEntity
  8
0
  6
Continuous
 62
     7
370
     0
100
AcDbMText
 10
159.8669736768
 20
36.2423325143
 30
0.0
 40
1.5875
 41
0.0
 71
     1
 72
     1
  1
Status:
  7
SLDTEXTSTYLE0
 73
     1
 44
1.0
  0
MTEXT
  5
6F
330
44
100
AcDbEntity
  8
0
  6
Continuous
 62
     7
370
     0
100
AcDbMText
 10
94.3569115953
 20
25.6806220053
 30
0.0
 40
1.5875
 41
0.0
 71
     1
 72
     1
  1
Material:
  7
SLDTEXTSTYLE0
 73
     1
 44
1.0
  0
MTEXT
  5
70
330
44
100
AcDbEntity
  8
0
  6
Continuous
 62
     7
370
     0
100
AcDbMText
 10
2.5897518339
 20
36.6139828266
 30
0.0
 40
1.5875
 41
0.0
 71
     1
 72
     1
  1
Subject:
  7
SLDTEXTSTYLE0
 73
     1
 44
1.0
  0
MTEXT
  5
71
330
44
100
AcDbEntity
  8
0
  6
Continuous
 62
     7
370
     0
100
AcDbMText
 10
2.5808851503
 20
14.8626402695
 30
0.0
 40
1.5875
 41
0.0
 71
     1
 72
     1
  1
Sign.:
  7
SLDTEXTSTYLE0
 73
     1
 44
1.0
  0
MTEXT
  5
72
330
44
100
AcDbEntity
  8
0
  6
Continuous
 62
     7
370
     0
100
AcDbMText
 10
94.3498398416
 20
14.9111303223
 30
0.0
 40
1.5875
 41
0.0
 71
     1
 72
     1
  1
Drawing no.:
  7
SLDTEXTSTYLE0
 73
     1
 44
1.0
  0
INSERT
  5
78
330
44
100
AcDbEntity
  8
0
  6
Continuous
 62
     7
370
     0
100
AcDbBlockReference
  2
SW_NOTE_0
 10
2.4976736831
 20
2.5965046327
 30
0.0
  0
MTEXT
  5
79
330
44
100
AcDbEntity
  8
0
  6
Continuous
 62
     7
370
     0
100
AcDbMText
 10
94.3569115953
 20
36.643292524
 30
0.0
 40
1.5875
 41
0.0
 71
     1
 72
     1
  1
Latest release.:
  7
SLDTEXTSTYLE0
 73
     1
 44
1.0
  0
ATTDEF
  5
7B
330
44
100
AcDbEntity
  8
0
  6
Continuous
 62
     7
370
     0
100
AcDbText
 10
111.2675933057
 20
34.8324687063
 30
0.0
 40
3.175
  1
man
 41
0.75
  7
SLDTEXTSTYLE1
 11
111.2675933057
 21
33.7108680097
 31
0.0
100
AcDbAttributeDefinition
  3

  2
AUTOATTR0
 70
     0
 74
     1
  0
ATTDEF
  5
7C
330
44
100
AcDbEntity
  8
0
  6
Continuous
 62
     7
370
     0
100
AcDbText
 10
111.3726911956
 20
29.5422866706
 30
0.0
 40
3.175
  1
01/09-1999
 41
0.75
  7
SLDTEXTSTYLE1
 11
111.3726911956
 21
28.420685974
 31
0.0
100
AcDbAttributeDefinition
  3

  2
AUTOATTR1
 70
     0
 74
     1
  0
ATTDEF
  5
7D
330
44
100
AcDbEntity
  8
0
  6
Continuous
 62
     7
370
     0
100
AcDbText
 10
105.5954816055
 20
23.2565239864
 30
0.0
 40
3.175
  1
Stainless Steel
 41
0.75
  7
SLDTEXTSTYLE1
 11
105.5954816055
 21
22.1349232898
 31
0.0
100
AcDbAttributeDefinition
  3

  2
AUTOATTR2
 70
     0
 74
     1
  0
ATTDEF
  5
7E
330
44
100
AcDbEntity
  8
0
  6
Continuous
 62
     7
370
     0
100
AcDbText
 10
105.5954816055
 20
17.3783850536
 30
0.0
 40
3.175
  1
Brushed
 41
0.75
  7
SLDTEXTSTYLE1
 11
105.5954816055
 21
16.256784357
 31
0.0
100
AcDbAttributeDefinition
  3

  2
AUTOATTR3
 70
     0
 74
     1
  0
ATTDEF
  5
7F
330
44
100
AcDbEntity
  8
0
  6
Continuous
 62
     7
370
     0
100
AcDbText
 10
159.8669736768
 20
29.5422866706
 30
0.0
 40
3.175
  1
Cat 5
 41
0.75
  7
SLDTEXTSTYLE1
 11
159.8669736768
 21
28.420685974
 31
0.0
100
AcDbAttributeDefinition
  3

  2
AUTOATTR4
 70
     0
 74
     1
  0
ATTDEF
  5
80
330
44
100
AcDbEntity
  8
0
  6
Continuous
 62
     7
370
     0
100
AcDbText
 10
0.0
 20
0.0
 30
0.0
 40
1.0
  1

100
AcDbAttributeDefinition
  3

  2
AUTOATTR5
 70
     0
  0
ATTDEF
  5
81
330
44
100
AcDbEntity
  8
0
  6
Continuous
 62
     7
370
     0
100
AcDbText
 10
19.9606883202
 20
17.3783850536
 30
0.0
 40
3.175
  1
Bathroom Fittings
 41
0.75
  7
SLDTEXTSTYLE1
 11
19.9606883202
 21
16.256784357
 31
0.0
100
AcDbAttributeDefinition
  3

  2
AUTOATTR6
 70
     0
 74
     1
  0
ATTDEF
  5
82
330
44
100
AcDbEntity
  8
0
  6
Continuous
 62
     7
370
     0
100
AcDbText
 10
0.0
 20
0.0
 30
0.0
 40
1.0
  1

100
AcDbAttributeDefinition
  3

  2
AUTOATTR7
 70
     0
  0
ATTDEF
  5
83
330
44
100
AcDbEntity
  8
0
  6
Continuous
 62
     7
370
     0
100
AcDbText
 10
0.0
 20
0.0
 30
0.0
 40
1.0
  1

100
AcDbAttributeDefinition
  3

  2
AUTOATTR8
 70
     0
  0
ATTDEF
  5
84
330
44
100
AcDbEntity
  8
0
  6
Continuous
 62
     7
370
     0
100
AcDbText
 10
104.9608784031
 20
4.1188582658
 30
0.0
 40
4.4979166667
  1
14.7040.02.000
 41
0.75
  7
SLDTEXTSTYLE1
 11
104.9608784031
 21
2.5299239456
 31
0.0
100
AcDbAttributeDefinition
  3

  2
AUTOATTR9
 70
     0
 74
     1
  0
ATTDEF
  5
85
330
44
100
AcDbEntity
  8
0
  6
Continuous
 62
     7
370
     0
100
AcDbText
 10
0.0
 20
0.0
 30
0.0
 40
1.0
  1

100
AcDbAttributeDefinition
  3

  2
AUTOATTR10
 70
     0
  0
ATTDEF
  5
86
330
44
100
AcDbEntity
  8
0
  6
Continuous
 62
     7
370
     0
100
AcDbText
 10
67.3805191936
 20
13.4081689964
 30
0.0
 40
2.1166666667
  1
14/02-1991
 41
0.75
  7
SLDTEXTSTYLE1
 11
67.3805191936
 21
12.6604351987
 31
0.0
100
AcDbAttributeDefinition
  3

  2
AUTOATTR11
 70
     0
 74
     1
  0
ATTDEF
  5
87
330
44
100
AcDbEntity
  8
0
  6
Continuous
 62
     7
370
     0
100
AcDbText
 10
19.9606883202
 20
13.4081689964
 30
0.0
 40
2.1166666667
  1
man
 41
0.75
  7
SLDTEXTSTYLE1
 11
19.9606883202
 21
12.6604351987
 31
0.0
100
AcDbAttributeDefinition
  3

  2
AUTOATTR12
 70
     0
 74
     1
  0
ATTDEF
  5
88
330
44
100
AcDbEntity
  8
0
  6
Continuous
 62
     7
370
     0
100
AcDbText
 10
2.328914132
 20
29.9104538356
 30
0.0
 40
4.2333333333
  1
Soap holder, Ø48x88x14mm
 41
0.605
  7
SLDTEXTSTYLE0
 11
2.328914132
 21
28.4149862402
 31
0.0
100
AcDbAttributeDefinition
  3

  2
AUTOATTR13
 70
     0
 74
     1
  0
ENDBLK
  5
46
330
44
100
AcDbEntity
  8
0
100
AcDbBlockEnd
  0
BLOCK
  5
74
330
73
100
AcDbEntity
  8
0
100
AcDbBlockBegin
  2
SW_NOTE_0
 70
     0
 10
0.0
 20
0.0
 30
0.0
  3
SW_NOTE_0
  1

  0
MTEXT
  5
76
330
73
100
AcDbEntity
  8
0
  6
Continuous
 62
     0
370
     0
100
AcDbMText
 10
0.0
 20
2.0463950369
 30
0.0
 40
1.5875
 41
0.0
 71
     1
 72
     1
  1
Dimension without tolerance, follows DS/ISO 2768-mK.
  7
SLDTEXTSTYLE0
 73
     1
 44
1.0
  0
MTEXT
  5
77
330
73
100
AcDbEntity
  8
0
  6
Continuous
 62
     0
370
     0
100
AcDbMText
 10
0.0
 20
-0.0702716042
 30
0.0
 40
1.5875
 41
0.0
 71
     1
 72
     1
  1
This drawing is the property of d line a/s, and is not to be copied or shown to third parties.
  7
SLDTEXTSTYLE0
 73
     1
 44
1.0
  0
ENDBLK
  5
75
330
73
100
AcDbEntity
  8
0
100
AcDbBlockEnd
  0
BLOCK
  5
A3
330
A2
100
AcDbEntity
  8
0
100
AcDbBlockBegin
  2
SW_TABLEANNOTATION_0
 70
     0
 10
0.0
 20
0.0
 30
0.0
  3
SW_TABLEANNOTATION_0
  1

  0
LINE
  5
A5
330
A2
100
AcDbEntity
  8
0
  6
Continuous
 62
     0
370
     0
100
AcDbLine
 10
0.0
 20
0.0
 30
0.0
 11
0.0
 21
-18.4140329906
 31
0.0
  0
LINE
  5
A6
330
A2
100
AcDbEntity
  8
0
  6
Continuous
 62
     0
370
     0
100
AcDbLine
 10
0.0
 20
-18.4140329906
 30
0.0
 11
187.2
 21
-18.4140329906
 31
0.0
  0
LINE
  5
A7
330
A2
100
AcDbEntity
  8
0
  6
Continuous
 62
     0
370
     0
100
AcDbLine
 10
187.2
 20
-18.4140329906
 30
0.0
 11
187.2
 21
0.0
 31
0.0
  0
LINE
  5
A8
330
A2
100
AcDbEntity
  8
0
  6
Continuous
 62
     0
370
     0
100
AcDbLine
 10
187.2
 20
0.0
 30
0.0
 11
0.0
 21
0.0
 31
0.0
  0
LINE
  5
A9
330
A2
100
AcDbEntity
  8
0
  6
Continuous
 62
     0
370
     0
100
AcDbLine
 10
12.0
 20
0.0
 30
0.0
 11
12.0
 21
-5.0
 31
0.0
  0
LINE
  5
AA
330
A2
100
AcDbEntity
  8
0
  6
Continuous
 62
     0
370
     0
100
AcDbLine
 10
37.0
 20
0.0
 30
0.0
 11
37.0
 21
-5.0
 31
0.0
  0
LINE
  5
AB
330
A2
100
AcDbEntity
  8
0
  6
Continuous
 62
     0
370
     0
100
AcDbLine
 10
107.0
 20
0.0
 30
0.0
 11
107.0
 21
-5.0
 31
0.0
  0
LINE
  5
AC
330
A2
100
AcDbEntity
  8
0
  6
Continuous
 62
     0
370
     0
100
AcDbLine
 10
177.0
 20
0.0
 30
0.0
 11
177.0
 21
-5.0
 31
0.0
  0
LINE
  5
AD
330
A2
100
AcDbEntity
  8
0
  6
Continuous
 62
     0
370
     0
100
AcDbLine
 10
12.0
 20
-5.0
 30
0.0
 11
12.0
 21
-18.4140329906
 31
0.0
  0
LINE
  5
AE
330
A2
100
AcDbEntity
  8
0
  6
Continuous
 62
     0
370
     0
100
AcDbLine
 10
37.0
 20
-5.0
 30
0.0
 11
37.0
 21
-18.4140329906
 31
0.0
  0
LINE
  5
AF
330
A2
100
AcDbEntity
  8
0
  6
Continuous
 62
     0
370
     0
100
AcDbLine
 10
107.0
 20
-5.0
 30
0.0
 11
107.0
 21
-18.4140329906
 31
0.0
  0
LINE
  5
B0
330
A2
100
AcDbEntity
  8
0
  6
Continuous
 62
     0
370
     0
100
AcDbLine
 10
177.0
 20
-5.0
 30
0.0
 11
177.0
 21
-18.4140329906
 31
0.0
  0
LINE
  5
B1
330
A2
100
AcDbEntity
  8
0
  6
Continuous
 62
     0
370
     0
100
AcDbLine
 10
0.0
 20
-8.5140329906
 30
0.0
 11
187.2
 21
-8.5140329906
 31
0.0
  0
LINE
  5
B2
330
A2
100
AcDbEntity
  8
0
  6
Continuous
 62
     0
370
     0
100
AcDbLine
 10
0.0
 20
-11.8140329906
 30
0.0
 11
187.2
 21
-11.8140329906
 31
0.0
  0
LINE
  5
B3
330
A2
100
AcDbEntity
  8
0
  6
Continuous
 62
     0
370
     0
100
AcDbLine
 10
0.0
 20
-15.1140329906
 30
0.0
 11
187.2
 21
-15.1140329906
 31
0.0
  0
LINE
  5
B4
330
A2
100
AcDbEntity
  8
0
  6
Continuous
 62
     0
370
     0
100
AcDbLine
 10
0.0
 20
-5.0
 30
0.0
 11
187.2
 21
-5.0
 31
0.0
  0
MTEXT
  5
B5
330
A2
100
AcDbEntity
  8
0
  6
Continuous
 62
     0
370
     0
100
AcDbMText
 10
1.1124992222
 20
-1.4218644753
 30
0.0
 40
2.0
 41
0.0
 71
     1
 72
     1
  1
Pos No.
  7
SLDTEXTSTYLE0
 73
     1
 44
1.0
  0
MTEXT
  5
B6
330
A2
100
AcDbEntity
  8
0
  6
Continuous
 62
     0
370
     0
100
AcDbMText
 10
16.7138885595
 20
-1.4218644753
 30
0.0
 40
2.0
 41
0.0
 71
     1
 72
     1
  1
Part Number
  7
SLDTEXTSTYLE0
 73
     1
 44
1.0
  0
MTEXT
  5
B7
330
A2
100
AcDbEntity
  8
0
  6
Continuous
 62
     0
370
     0
100
AcDbMText
 10
65.1277772412
 20
-1.4218644753
 30
0.0
 40
2.0
 41
0.0
 71
     1
 72
     1
  1
Description
  7
SLDTEXTSTYLE0
 73
     1
 44
1.0
  0
MTEXT
  5
B8
330
A2
100
AcDbEntity
  8
0
  6
Continuous
 62
     0
370
     0
100
AcDbMText
 10
178.894444276
 20
-1.4218644753
 30
0.0
 40
2.0
 41
0.0
 71
     1
 72
     1
  1
QTY.
  7
SLDTEXTSTYLE0
 73
     1
 44
1.0
  0
MTEXT
  5
B9
330
A2
100
AcDbEntity
  8
0
  6
Continuous
 62
     0
370
     0
100
AcDbMText
 10
5.2361110635
 20
-5.6788809706
 30
0.0
 40
2.0
 41
0.0
 71
     1
 72
     1
  1
1
  7
SLDTEXTSTYLE0
 73
     1
 44
1.0
  0
MTEXT
  5
BA
330
A2
100
AcDbEntity
  8
0
  6
Continuous
 62
     0
370
     0
100
AcDbMText
 10
20.8347220328
 20
-5.6788809706
 30
0.0
 40
2.0
 41
0.0
 71
     1
 72
     1
  1
D 377
  7
SLDTEXTSTYLE0
 73
     1
 44
1.0
  0
MTEXT
  5
BB
330
A2
100
AcDbEntity
  8
0
  6
Continuous
 62
     0
370
     0
100
AcDbMText
 10
37.5
 20
-5.6788809706
 30
0.0
 40
2.0
 41
0.0
 71
     1
 72
     1
  1
Base soap holder
  7
SLDTEXTSTYLE0
 73
     1
 44
1.0
  0
MTEXT
  5
BC
330
A2
100
AcDbEntity
  8
0
  6
Continuous
 62
     0
370
     0
100
AcDbMText
 10
181.3361110635
 20
-5.6788809706
 30
0.0
 40
2.0
 41
0.0
 71
     1
 72
     1
  1
1
  7
SLDTEXTSTYLE0
 73
     1
 44
1.0
  0
MTEXT
  5
BD
330
A2
100
AcDbEntity
  8
0
  6
Continuous
 62
     0
370
     0
100
AcDbMText
 10
5.2361110635
 20
-9.0858974659
 30
0.0
 40
2.0
 41
0.0
 71
     1
 72
     1
  1
2
  7
SLDTEXTSTYLE0
 73
     1
 44
1.0
  0
MTEXT
  5
BE
330
A2
100
AcDbEntity
  8
0
  6
Continuous
 62
     0
370
     0
100
AcDbMText
 10
21.5986109693
 20
-9.0858974659
 30
0.0
 40
2.0
 41
0.0
 71
     1
 72
     1
  1
D 17
  7
SLDTEXTSTYLE0
 73
     1
 44
1.0
  0
MTEXT
  5
BF
330
A2
100
AcDbEntity
  8
0
  6
Continuous
 62
     0
370
     0
100
AcDbMText
 10
37.5
 20
-9.0858974659
 30
0.0
 40
2.0
 41
0.0
 71
     1
 72
     1
  1
Bush Ø10,9 x 23,4mm w/turnstop
  7
SLDTEXTSTYLE0
 73
     1
 44
1.0
  0
MTEXT
  5
C0
330
A2
100
AcDbEntity
  8
0
  6
Continuous
 62
     0
370
     0
100
AcDbMText
 10
107.5
 20
-9.0858974659
 30
0.0
 40
2.0
 41
0.0
 71
     1
 72
     1
  1
Brass, countersunk
  7
SLDTEXTSTYLE0
 73
     1
 44
1.0
  0
MTEXT
  5
C1
330
A2
100
AcDbEntity
  8
0
  6
Continuous
 62
     0
370
     0
100
AcDbMText
 10
181.3361110635
 20
-9.0858974659
 30
0.0
 40
2.0
 41
0.0
 71
     1
 72
     1
  1
1
  7
SLDTEXTSTYLE0
 73
     1
 44
1.0
  0
MTEXT
  5
C2
330
A2
100
AcDbEntity
  8
0
  6
Continuous
 62
     0
370
     0
100
AcDbMText
 10
5.2361110635
 20
-12.3858974659
 30
0.0
 40
2.0
 41
0.0
 71
     1
 72
     1
  1
3
  7
SLDTEXTSTYLE0
 73
     1
 44
1.0
  0
MTEXT
  5
C3
330
A2
100
AcDbEntity
  8
0
  6
Continuous
 62
     0
370
     0
100
AcDbMText
 10
20.8347220328
 20
-12.3858974659
 30
0.0
 40
2.0
 41
0.0
 71
     1
 72
     1
  1
D 574
  7
SLDTEXTSTYLE0
 73
     1
 44
1.0
  0
MTEXT
  5
C4
330
A2
100
AcDbEntity
  8
0
  6
Continuous
 62
     0
370
     0
100
AcDbMText
 10
37.5
 20
-12.3858974659
 30
0.0
 40
2.0
 41
0.0
 71
     1
 72
     1
  1
Washer with turn security
  7
SLDTEXTSTYLE0
 73
     1
 44
1.0
  0
MTEXT
  5
C5
330
A2
100
AcDbEntity
  8
0
  6
Continuous
 62
     0
370
     0
100
AcDbMText
 10
181.3361110635
 20
-12.3858974659
 30
0.0
 40
2.0
 41
0.0
 71
     1
 72
     1
  1
1
  7
SLDTEXTSTYLE0
 73
     1
 44
1.0
  0
MTEXT
  5
C6
330
A2
100
AcDbEntity
  8
0
  6
Continuous
 62
     0
370
     0
100
AcDbMText
 10
5.2361110635
 20
-15.9456642298
 30
0.0
 40
2.0
 41
0.0
 71
     1
 72
     1
  1
4
  7
SLDTEXTSTYLE0
 73
     1
 44
1.0
  0
MTEXT
  5
C7
330
A2
100
AcDbEntity
  8
0
  6
Continuous
 62
     0
370
     0
100
AcDbMText
 10
14.951388061
 20
-15.9456642298
 30
0.0
 40
2.0
 41
0.0
 71
     1
 72
     1
  1
14.9701.00.052
  7
SLDTEXTSTYLE0
 73
     1
 44
1.0
  0
MTEXT
  5
C8
330
A2
100
AcDbEntity
  8
0
  6
Continuous
 62
     0
370
     0
100
AcDbMText
 10
37.5
 20
-15.9456642298
 30
0.0
 40
2.0
 41
0.0
 71
     1
 72
     1
  1
Grub screw M4x3mm
  7
SLDTEXTSTYLE0
 73
     1
 44
1.0
  0
MTEXT
  5
C9
330
A2
100
AcDbEntity
  8
0
  6
Continuous
 62
     0
370
     0
100
AcDbMText
 10
107.5
 20
-15.9456642298
 30
0.0
 40
2.0
 41
0.0
 71
     1
 72
     1
  1
DIN 916A4
  7
SLDTEXTSTYLE0
 73
     1
 44
1.0
  0
MTEXT
  5
CA
330
A2
100
AcDbEntity
  8
0
  6
Continuous
 62
     0
370
     0
100
AcDbMText
 10
181.3361110635
 20
-15.9456642298
 30
0.0
 40
2.0
 41
0.0
 71
     1
 72
     1
  1
1
  7
SLDTEXTSTYLE0
 73
     1
 44
1.0
  0
ENDBLK
  5
A4
330
A2
100
AcDbEntity
  8
0
100
AcDbBlockEnd
  0
BLOCK
  5
D7
330
D6
100
AcDbEntity
  8
0
100
AcDbBlockBegin
  2
*D4
 70
     1
 10
0.0
 20
0.0
 30
0.0
  3
*D4
  1

  0
SOLID
  5
D9
330
D6
100
AcDbEntity
  8
0
  6
Continuous
 62
     7
370
     0
100
AcDbTrace
 10
45.2037026239
 20
251.1753151751
 30
0.0
 11
48.0288531773
 21
250.7406766284
 31
0.0
 12
48.0288531773
 22
251.6099537218
 32
0.0
 13
48.0288531773
 23
251.6099537218
 33
0.0
  0
SOLID
  5
DA
330
D6
100
AcDbEntity
  8
0
  6
Continuous
 62
     7
370
     0
100
AcDbTrace
 10
75.2037026239
 20
251.1753151751
 30
0.0
 11
72.3785520705
 21
251.6099537218
 31
0.0
 12
72.3785520705
 22
250.7406766284
 32
0.0
 13
72.3785520705
 23
250.7406766284
 33
0.0
  0
LINE
  5
DB
330
D6
100
AcDbEntity
  8
0
  6
Continuous
 62
     7
370
     0
100
AcDbLine
 10
45.2037026239
 20
238.9231949513
 30
0.0
 11
45.2037026239
 21
252.1753151751
 31
0.0
  0
LINE
  5
DC
330
D6
100
AcDbEntity
  8
0
  6
Continuous
 62
     7
370
     0
100
AcDbLine
 10
75.2037026239
 20
240.7161881547
 30
0.0
 11
75.2037026239
 21
252.1753151751
 31
0.0
  0
LINE
  5
DD
330
D6
100
AcDbEntity
  8
0
  6
Continuous
 62
     7
370
     0
100
AcDbLine
 10
45.2037026239
 20
251.1753151751
 30
0.0
 11
75.2037026239
 21
251.1753151751
 31
0.0
  0
MTEXT
  5
DE
330
D6
100
AcDbEntity
  8
0
  6
Continuous
 62
     7
370
     0
100
AcDbMText
 10
55.9878612245
 20
254.9270393512
 30
0.0
 40
2.9104166667
 41
0.0
 71
     1
 72
     1
  1
%%c
  7
SLDTEXTSTYLE0
 73
     1
 44
1.0
  0
MTEXT
  5
DF
330
D6
100
AcDbEntity
  8
0
  6
Continuous
 62
     7
370
     0
100
AcDbMText
 10
60.1094938776
 20
254.9270392348
 30
0.0
 40
2.9104166667
 41
0.0
 71
     1
 72
     1
  1
30
  7
SLDTEXTSTYLE0
 73
     1
 44
1.0
  0
ENDBLK
  5
D8
330
D6
100
AcDbEntity
  8
0
100
AcDbBlockEnd
  0
BLOCK
  5
EE
330
ED
100
AcDbEntity
  8
0
100
AcDbBlockBegin
  2
*D5
 70
     1
 10
0.0
 20
0.0
 30
0.0
  3
*D5
  1

  0
SOLID
  5
F0
330
ED
100
AcDbEntity
  8
0
  6
Continuous
 62
     7
370
     0
100
AcDbTrace
 10
24.6634185266
 20
101.4294752187
 30
0.0
 11
25.0980570733
 21
104.254625772
 31
0.0
 12
24.22877998
 22
104.254625772
 32
0.0
 13
24.22877998
 23
104.254625772
 33
0.0
  0
SOLID
  5
F1
330
ED
100
AcDbEntity
  8
0
  6
Continuous
 62
     7
370
     0
100
AcDbTrace
 10
24.6634185266
 20
189.4294752187
 30
0.0
 11
24.22877998
 21
186.6043246653
 31
0.0
 12
25.0980570733
 22
186.6043246653
 32
0.0
 13
25.0980570733
 23
186.6043246653
 33
0.0
  0
LINE
  5
F2
330
ED
100
AcDbEntity
  8
0
  6
Continuous
 62
     7
370
     0
100
AcDbLine
 10
59.2037026239
 20
101.4294752187
 30
0.0
 11
23.6634185266
 21
101.4294752187
 31
0.0
  0
LINE
  5
F3
330
ED
100
AcDbEntity
  8
0
  6
Continuous
 62
     7
370
     0
100
AcDbLine
 10
44.2037026239
 20
189.4294752187
 30
0.0
 11
23.6634185266
 21
189.4294752187
 31
0.0
  0
LINE
  5
F4
330
ED
100
AcDbEntity
  8
0
  6
Continuous
 62
     7
370
     0
100
AcDbLine
 10
24.6634185266
 20
101.4294752187
 30
0.0
 11
24.6634185266
 21
189.4294752187
 31
0.0
  0
MTEXT
  5
F5
330
ED
100
AcDbEntity
  8
0
  6
Continuous
 62
     7
370
     0
100
AcDbMText
 10
20.911694467
 20
143.2744501458
 30
0.0
 40
2.9104166667
 41
0.0
 71
     1
 72
     1
  1
88
  7
SLDTEXTSTYLE0
 11
6.123233995736766E-17
 21
1.0
 31
0.0
 73
     1
 44
1.0
  0
ENDBLK
  5
EF
330
ED
100
AcDbEntity
  8
0
100
AcDbBlockEnd
  0
BLOCK
  5
F9
330
F8
100
AcDbEntity
  8
0
100
AcDbBlockBegin
  2
*D6
 70
     1
 10
0.0
 20
0.0
 30
0.0
  3
*D6
  1

  0
SOLID
  5
FB
330
F8
100
AcDbEntity
  8
0
  6
Continuous
 62
     7
370
     0
100
AcDbTrace
 10
45.2880347588
 20
112.1057050264
 30
0.0
 11
42.891533187
 21
110.5477684
 31
0.0
 12
43.4706355982
 22
109.8994759796
 32
0.0
 13
43.4706355982
 23
109.8994759796
 33
0.0
  0
SOLID
  5
FC
330
F8
100
AcDbEntity
  8
0
  6
Continuous
 62
     7
370
     0
100
AcDbTrace
 10
75.119370489
 20
138.7532454109
 30
0.0
 11
77.5158720608
 21
140.3111820374
 31
0.0
 12
76.9367696496
 22
140.9594744577
 32
0.0
 13
76.9367696496
 23
140.9594744577
 33
0.0
  0
LINE
  5
FD
330
F8
100
AcDbEntity
  8
0
  6
Continuous
 62
     7
370
     0
100
AcDbLine
 10
75.119370489
 20
138.7532454109
 30
0.0
 11
95.5641428021
 21
157.0160178457
 31
0.0
  0
LINE
  5
FE
330
F8
100
AcDbEntity
  8
0
  6
Continuous
 62
     7
370
     0
100
AcDbLine
 10
45.2880347588
 20
112.1057050264
 30
0.0
 11
41.2362071315
 21
108.486314956
 31
0.0
  0
LINE
  5
FF
330
F8
100
AcDbEntity
  8
0
  6
Continuous
 62
     7
370
     0
100
AcDbLine
 10
75.119370489
 20
138.7532454109
 30
0.0
 11
45.2880347588
 21
112.1057050264
 31
0.0
  0
MTEXT
  5
100
330
F8
100
AcDbEntity
  8
0
  6
Continuous
 62
     7
370
     0
100
AcDbMText
 10
85.5945989776
 20
153.1371419137
 30
0.0
 40
2.9104166667
 41
0.0
 71
     1
 72
     1
  1
%%c
  7
SLDTEXTSTYLE0
 11
0.7457833932567394
 21
0.6661885096145561
 31
0.0
 73
     1
 44
1.0
  0
MTEXT
  5
101
330
F8
100
AcDbEntity
  8
0
  6
Continuous
 62
     7
370
     0
100
AcDbMText
 10
88.6684442409
 20
155.8829261412
 30
0.0
 40
2.9104166667
 41
0.0
 71
     1
 72
     1
  1
40
  7
SLDTEXTSTYLE0
 11
0.7457833932567394
 21
0.6661885096145561
 31
0.0
 73
     1
 44
1.0
  0
ENDBLK
  5
FA
330
F8
100
AcDbEntity
  8
0
100
AcDbBlockEnd
  0
BLOCK
  5
104
330
103
100
AcDbEntity
  8
0
100
AcDbBlockBegin
  2
*D7
 70
     1
 10
0.0
 20
0.0
 30
0.0
  3
*D7
  1

  0
SOLID
  5
106
330
103
100
AcDbEntity
  8
0
  6
Continuous
 62
     7
370
     0
100
AcDbTrace
 10
36.2037026239
 20
85.4294752187
 30
0.0
 11
39.0288531773
 21
84.994836672
 31
0.0
 12
39.0288531773
 22
85.8641137653
 32
0.0
 13
39.0288531773
 23
85.8641137653
 33
0.0
  0
SOLID
  5
107
330
103
100
AcDbEntity
  8
0
  6
Continuous
 62
     7
370
     0
100
AcDbTrace
 10
84.2037026239
 20
85.4294752187
 30
0.0
 11
81.3785520705
 21
85.8641137653
 31
0.0
 12
81.3785520705
 22
84.994836672
 32
0.0
 13
81.3785520705
 23
84.994836672
 33
0.0
  0
LINE
  5
108
330
103
100
AcDbEntity
  8
0
  6
Continuous
 62
     7
370
     0
100
AcDbLine
 10
36.2037026239
 20
124.4294752187
 30
0.0
 11
36.2037026239
 21
84.4294752187
 31
0.0
  0
LINE
  5
109
330
103
100
AcDbEntity
  8
0
  6
Continuous
 62
     7
370
     0
100
AcDbLine
 10
84.2037026239
 20
124.4294752187
 30
0.0
 11
84.2037026239
 21
84.4294752187
 31
0.0
  0
LINE
  5
10A
330
103
100
AcDbEntity
  8
0
  6
Continuous
 62
     7
370
     0
100
AcDbLine
 10
36.2037026239
 20
85.4294752187
 30
0.0
 11
84.2037026239
 21
85.4294752187
 31
0.0
  0
MTEXT
  5
10B
330
103
100
AcDbEntity
  8
0
  6
Continuous
 62
     7
370
     0
100
AcDbMText
 10
55.9878612245
 20
89.1811993947
 30
0.0
 40
2.9104166667
 41
0.0
 71
     1
 72
     1
  1
%%c
  7
SLDTEXTSTYLE0
 73
     1
 44
1.0
  0
MTEXT
  5
10C
330
103
100
AcDbEntity
  8
0
  6
Continuous
 62
     7
370
     0
100
AcDbMText
 10
60.1094938776
 20
89.1811992783
 30
0.0
 40
2.9104166667
 41
0.0
 71
     1
 72
     1
  1
48
  7
SLDTEXTSTYLE0
 73
     1
 44
1.0
  0
ENDBLK
  5
105
330
103
100
AcDbEntity
  8
0
100
AcDbBlockEnd
  0
BLOCK
  5
123
330
122
100
AcDbEntity
  8
0
100
AcDbBlockBegin
  2
*D8
 70
     1
 10
0.0
 20
0.0
 30
0.0
  3
*D8
  1

  0
SOLID
  5
125
330
122
100
AcDbEntity
  8
0
  6
Continuous
 62
     7
370
     0
100
AcDbTrace
 10
193.2613112771
 20
223.3732069971
 30
0.0
 11
193.6959498238
 21
226.1983575505
 31
0.0
 12
192.8266727304
 22
226.1983575505
 32
0.0
 13
192.8266727304
 23
226.1983575505
 33
0.0
  0
SOLID
  5
126
330
122
100
AcDbEntity
  8
0
  6
Continuous
 62
     7
370
     0
100
AcDbTrace
 10
193.2613112771
 20
237.3732069971
 30
0.0
 11
192.8266727304
 21
234.5480564437
 31
0.0
 12
193.6959498238
 22
234.5480564437
 32
0.0
 13
193.6959498238
 23
234.5480564437
 33
0.0
  0
LINE
  5
127
330
122
100
AcDbEntity
  8
0
  6
Continuous
 62
     7
370
     0
100
AcDbLine
 10
185.1805539359
 20
223.3732069971
 30
0.0
 11
194.2613112771
 21
223.3732069971
 31
0.0
  0
LINE
  5
128
330
122
100
AcDbEntity
  8
0
  6
Continuous
 62
     7
370
     0
100
AcDbLine
 10
185.1805539359
 20
237.3732069971
 30
0.0
 11
194.2613112771
 21
237.3732069971
 31
0.0
  0
LINE
  5
129
330
122
100
AcDbEntity
  8
0
  6
Continuous
 62
     7
370
     0
100
AcDbLine
 10
193.2613112771
 20
223.3732069971
 30
0.0
 11
193.2613112771
 21
237.3732069971
 31
0.0
  0
MTEXT
  5
12A
330
122
100
AcDbEntity
  8
0
  6
Continuous
 62
     7
370
     0
100
AcDbMText
 10
189.5095872174
 20
228.2181819242
 30
0.0
 40
2.9104166667
 41
0.0
 71
     1
 72
     1
  1
14
  7
SLDTEXTSTYLE0
 11
-7.044195017643634E-15
 21
1.0
 31
0.0
 73
     1
 44
1.0
  0
ENDBLK
  5
124
330
122
100
AcDbEntity
  8
0
100
AcDbBlockEnd
  0
BLOCK
  5
16D
330
16C
100
AcDbEntity
  8
0
100
AcDbBlockBegin
  2
SW_NOTE_1
 70
     0
 10
0.0
 20
0.0
 30
0.0
  3
SW_NOTE_1
  1

  0
CIRCLE
  5
16F
330
16C
100
AcDbEntity
  8
0
  6
Continuous
 62
     0
370
     0
100
AcDbCircle
 10
-1.8311825073
 20
1.9401113703
 30
0.0
 40
2.667819616094996
  0
MTEXT
  5
170
330
16C
100
AcDbEntity
  8
0
  6
Continuous
 62
     0
370
     0
100
AcDbMText
 10
-2.9091145801
 20
3.585318347
 30
0.0
 40
2.9104166667
 41
0.0
 71
     1
 72
     1
  1
3
  7
SLDTEXTSTYLE0
 73
     1
 44
1.0
  0
ENDBLK
  5
16E
330
16C
100
AcDbEntity
  8
0
100
AcDbBlockEnd
  0
BLOCK
  5
174
330
173
100
AcDbEntity
  8
0
100
AcDbBlockBegin
  2
_DOT
 70
     0
 10
0.0
 20
0.0
 30
0.0
  3
_DOT
  1

  0
POLYLINE
  5
176
330
173
100
AcDbEntity
  8
0
  6
ByBlock
 62
     0
100
AcDb2dPolyline
 66
     1
 10
0.0
 20
0.0
 30
0.0
 70
     1
 40
0.5
 41
0.5
  0
VERTEX
  5
178
330
176
100
AcDbEntity
  8
0
  6
ByBlock
 62
     0
100
AcDbVertex
100
AcDb2dVertex
 10
-0.25
 20
0.0
 30
0.0
 42
1.0
  0
VERTEX
  5
179
330
176
100
AcDbEntity
  8
0
  6
ByBlock
 62
     0
100
AcDbVertex
100
AcDb2dVertex
 10
0.25
 20
0.0
 30
0.0
 42
1.0
  0
SEQEND
  5
17A
330
176
100
AcDbEntity
  8
0
  6
ByBlock
 62
     0
  0
LINE
  5
177
330
173
100
AcDbEntity
  8
0
  6
ByBlock
 62
     0
370
    -2
100
AcDbLine
 10
-0.5
 20
0.0
 30
0.0
 11
-1.0
 21
0.0
 31
0.0
  0
ENDBLK
  5
175
330
173
100
AcDbEntity
  8
0
100
AcDbBlockEnd
  0
BLOCK
  5
17D
330
17C
100
AcDbEntity
  8
0
100
AcDbBlockBegin
  2
SW_NOTE_2
 70
     0
 10
0.0
 20
0.0
 30
0.0
  3
SW_NOTE_2
  1

  0
CIRCLE
  5
17F
330
17C
100
AcDbEntity
  8
0
  6
Continuous
 62
     0
370
     0
100
AcDbCircle
 10
-1.8311825073
 20
1.9401113703
 30
0.0
 40
2.667819616094997
  0
MTEXT
  5
180
330
17C
100
AcDbEntity
  8
0
  6
Continuous
 62
     0
370
     0
100
AcDbMText
 10
-2.9091145801
 20
3.585318347
 30
0.0
 40
2.9104166667
 41
0.0
 71
     1
 72
     1
  1
2
  7
SLDTEXTSTYLE0
 73
     1
 44
1.0
  0
ENDBLK
  5
17E
330
17C
100
AcDbEntity
  8
0
100
AcDbBlockEnd
  0
BLOCK
  5
184
330
183
100
AcDbEntity
  8
0
100
AcDbBlockBegin
  2
SW_NOTE_3
 70
     0
 10
0.0
 20
0.0
 30
0.0
  3
SW_NOTE_3
  1

  0
CIRCLE
  5
186
330
183
100
AcDbEntity
  8
0
  6
Continuous
 62
     0
370
     0
100
AcDbCircle
 10
-1.8311825073
 20
1.9401113703
 30
0.0
 40
2.667819616095006
  0
MTEXT
  5
187
330
183
100
AcDbEntity
  8
0
  6
Continuous
 62
     0
370
     0
100
AcDbMText
 10
-2.9091145801
 20
3.585318347
 30
0.0
 40
2.9104166667
 41
0.0
 71
     1
 72
     1
  1
1
  7
SLDTEXTSTYLE0
 73
     1
 44
1.0
  0
ENDBLK
  5
185
330
183
100
AcDbEntity
  8
0
100
AcDbBlockEnd
  0
BLOCK
  5
18B
330
18A
100
AcDbEntity
  8
0
100
AcDbBlockBegin
  2
SW_NOTE_4
 70
     0
 10
0.0
 20
0.0
 30
0.0
  3
SW_NOTE_4
  1

  0
CIRCLE
  5
18D
330
18A
100
AcDbEntity
  8
0
  6
Continuous
 62
     0
370
     0
100
AcDbCircle
 10
1.8311825073
 20
1.9401113703
 30
0.0
 40
2.667819616095016
  0
MTEXT
  5
18E
330
18A
100
AcDbEntity
  8
0
  6
Continuous
 62
     0
370
     0
100
AcDbMText
 10
0.7532504345
 20
3.585318347
 30
0.0
 40
2.9104166667
 41
0.0
 71
     1
 72
     1
  1
4
  7
SLDTEXTSTYLE0
 73
     1
 44
1.0
  0
ENDBLK
  5
18C
330
18A
100
AcDbEntity
  8
0
100
AcDbBlockEnd
  0
ENDSEC
  0
SECTION
  2
ENTITIES
  0
IMAGE
  5
8B
330
1F
100
AcDbEntity
  8
0
 92
      140
310
8C00000001000000840000000600000005000000F46A0193303A6640AC98D2B416EC13400000000000000000F46A0193307A6940AC98D2B416EC13400000000000000000F46A0193307A69402344C2A7D4413F400000000000000000F46A0193303A66402344C2A7D4413F400000000000000000F46A0193303A6640AC98D2
310
B416EC13400000000000000000
100
AcDbRasterImage
 90
        0
 10
177.8184294727
 20
4.9805553678
 30
0.0
 11
0.02514506769825918
 21
0.0
 31
0.0
 12
0.0
 22
0.0251450676982592
 32
0.0
 13
1034.0
 23
1045.0
340
8A
 70
     7
280
     0
281
    50
282
    50
283
     0
360
8C
 71
     1
 91
        2
 14
-0.5
 24
-0.5
 14
1033.5
 24
1044.5
  0
LINE
  5
8D
330
1F
100
AcDbEntity
  8
0
  6
Continuous
 62
     7
370
     0
100
AcDbLine
 10
15.0672935252
 20
290.5242805094
 30
0.0
 11
15.0672935252
 21
6.5242805094
 31
0.0
  0
LINE
  5
8E
330
1F
100
AcDbEntity
  8
0
  6
Continuous
 62
     7
370
     0
100
AcDbLine
 10
15.0672935252
 20
44.7742805094
 30
0.0
 11
15.0672935252
 21
6.5242805094
 31
0.0
  0
LINE
  5
8F
330
1F
100
AcDbEntity
  8
0
  6
Continuous
 62
     7
370
     0
100
AcDbLine
 10
202.2672935252
 20
290.5242805094
 30
0.0
 11
15.0672935252
 21
290.5242805094
 31
0.0
  0
LINE
  5
90
330
1F
100
AcDbEntity
  8
0
  6
Continuous
 62
     7
370
     0
100
AcDbLine
 10
15.0672935252
 20
6.5242805094
 30
0.0
 11
202.2672935252
 21
6.5242805094
 31
0.0
  0
LINE
  5
91
330
1F
100
AcDbEntity
  8
0
  6
Continuous
 62
     7
370
     0
100
AcDbLine
 10
202.2672935252
 20
6.5242805094
 30
0.0
 11
202.2672935252
 21
290.5242805094
 31
0.0
  0
INSERT
  5
92
330
1F
100
AcDbEntity
  8
0
  6
Continuous
 62
     7
100
AcDbBlockReference
 66
     1
  2
tegningshovd
 10
15.0672935252
 20
6.5242805094
 30
0.0
  0
ATTRIB
  5
93
330
92
100
AcDbEntity
  8
0
  6
Continuous
 62
     7
370
     0
100
AcDbText
 10
126.3348868309
 20
41.3567492158
 30
0.0
 40
3.175
  1
man
 41
0.75
  7
SLDTEXTSTYLE1
 11
126.3348868309
 21
40.2351485192
 31
0.0
100
AcDbAttribute
  2
AUTOATTR0
 70
     0
 74
     1
  0
ATTRIB
  5
94
330
92
100
AcDbEntity
  8
0
  6
Continuous
 62
     7
370
     0
100
AcDbText
 10
126.4399847208
 20
36.06656718
 30
0.0
 40
3.175
  1
01/09-1999
 41
0.75
  7
SLDTEXTSTYLE1
 11
126.4399847208
 21
34.9449664834
 31
0.0
100
AcDbAttribute
  2
AUTOATTR1
 70
     0
 74
     1
  0
ATTRIB
  5
95
330
92
100
AcDbEntity
  8
0
  6
Continuous
 62
     7
370
     0
100
AcDbText
 10
120.6627751307
 20
29.7808044958
 30
0.0
 40
3.175
  1
Stainless Steel
 41
0.75
  7
SLDTEXTSTYLE1
 11
120.6627751307
 21
28.6592037992
 31
0.0
100
AcDbAttribute
  2
AUTOATTR2
 70
     0
 74
     1
  0
ATTRIB
  5
96
330
92
100
AcDbEntity
  8
0
  6
Continuous
 62
     7
370
     0
100
AcDbText
 10
120.6627751307
 20
23.902665563
 30
0.0
 40
3.175
  1
Brushed
 41
0.75
  7
SLDTEXTSTYLE1
 11
120.6627751307
 21
22.7810648664
 31
0.0
100
AcDbAttribute
  2
AUTOATTR3
 70
     0
 74
     1
  0
ATTRIB
  5
97
330
92
100
AcDbEntity
  8
0
  6
Continuous
 62
     7
370
     0
100
AcDbText
 10
174.934267202
 20
36.06656718
 30
0.0
 40
3.175
  1
Cat 5
 41
0.75
  7
SLDTEXTSTYLE1
 11
174.934267202
 21
34.9449664834
 31
0.0
100
AcDbAttribute
  2
AUTOATTR4
 70
     0
 74
     1
  0
ATTRIB
  5
98
330
92
100
AcDbEntity
  8
0
  6
Continuous
 62
     7
370
     0
100
AcDbText
 10
120.6627751307
 20
23.902665563
 30
0.0
 40
3.175
  1

 41
0.75
  7
SLDTEXTSTYLE1
 11
120.6627751307
 21
22.7810648664
 31
0.0
100
AcDbAttribute
  2
AUTOATTR5
 70
     0
 74
     1
  0
ATTRIB
  5
99
330
92
100
AcDbEntity
  8
0
  6
Continuous
 62
     7
370
     0
100
AcDbText
 10
35.0279818454
 20
23.902665563
 30
0.0
 40
3.175
  1
Bathroom Fittings
 41
0.75
  7
SLDTEXTSTYLE1
 11
35.0279818454
 21
22.7810648664
 31
0.0
100
AcDbAttribute
  2
AUTOATTR6
 70
     0
 74
     1
  0
ATTRIB
  5
9A
330
92
100
AcDbEntity
  8
0
  6
Continuous
 62
     7
370
     0
100
AcDbText
 10
81.9274441956
 20
13.7847936312
 30
0.0
 40
2.1166666667
  1

 41
0.75
  7
SLDTEXTSTYLE1
 11
81.9274441956
 21
13.0370598335
 31
0.0
100
AcDbAttribute
  2
AUTOATTR7
 70
     0
 74
     1
  0
ATTRIB
  5
9B
330
92
100
AcDbEntity
  8
0
  6
Continuous
 62
     7
370
     0
100
AcDbText
 10
35.0279818454
 20
13.671049861
 30
0.0
 40
2.1166666667
  1

 41
0.75
  7
SLDTEXTSTYLE1
 11
35.0279818454
 21
12.9233160633
 31
0.0
100
AcDbAttribute
  2
AUTOATTR8
 70
     0
 74
     1
  0
ATTRIB
  5
9C
330
92
100
AcDbEntity
  8
0
  6
Continuous
 62
     7
370
     0
100
AcDbText
 10
120.0281719283
 20
10.6431387753
 30
0.0
 40
4.4979166667
  1
14.7040.02.000
 41
0.75
  7
SLDTEXTSTYLE1
 11
120.0281719283
 21
9.0542044551
 31
0.0
100
AcDbAttribute
  2
AUTOATTR9
 70
     0
 74
     1
  0
ATTRIB
  5
9D
330
92
100
AcDbEntity
  8
0
  6
Continuous
 62
     7
370
     0
100
AcDbText
 10
17.3027457115
 20
30.0567834473
 30
0.0
 40
4.2333333333
  1

 41
0.75
  7
SLDTEXTSTYLE1
 11
17.3027457115
 21
28.5613158518
 31
0.0
100
AcDbAttribute
  2
AUTOATTR10
 70
     0
 74
     1
  0
ATTRIB
  5
9E
330
92
100
AcDbEntity
  8
0
  6
Continuous
 62
     7
370
     0
100
AcDbText
 10
82.4478127188
 20
19.9324495059
 30
0.0
 40
2.1166666667
  1
14/02-1991
 41
0.75
  7
SLDTEXTSTYLE1
 11
82.4478127188
 21
19.1847157082
 31
0.0
100
AcDbAttribute
  2
AUTOATTR11
 70
     0
 74
     1
  0
ATTRIB
  5
9F
330
92
100
AcDbEntity
  8
0
  6
Continuous
 62
     7
370
     0
100
AcDbText
 10
35.0279818454
 20
19.9324495059
 30
0.0
 40
2.1166666667
  1
man
 41
0.75
  7
SLDTEXTSTYLE1
 11
35.0279818454
 21
19.1847157082
 31
0.0
100
AcDbAttribute
  2
AUTOATTR12
 70
     0
 74
     1
  0
ATTRIB
  5
A0
330
92
100
AcDbEntity
  8
0
  6
Continuous
 62
     7
370
     0
100
AcDbText
 10
17.3962076572
 20
36.4347343451
 30
0.0
 40
4.2333333333
  1
Soap holder, Ø48x88x14mm
 41
0.75
  7
SLDTEXTSTYLE1
 11
17.3962076572
 21
34.9392667496
 31
0.0
100
AcDbAttribute
  2
AUTOATTR13
 70
     0
 74
     1
  0
SEQEND
  5
A1
330
92
100
AcDbEntity
  8
0
  6
Continuous
 62
     7
  0
INSERT
  5
CB
330
1F
100
AcDbEntity
  8
0
  6
Continuous
 62
     7
370
     0
100
AcDbBlockReference
  2
SW_TABLEANNOTATION_0
 10
15.0672935252
 20
63.1883135001
 30
0.0
  0
LINE
  5
CC
330
1F
100
AcDbEntity
  8
0
  6
Continuous
 62
     7
370
    15
100
AcDbLine
 10
36.2037026239
 20
237.3732069971
 30
0.0
 11
36.2037026239
 21
223.3732069971
 31
0.0
  0
LINE
  5
CD
330
1F
100
AcDbEntity
  8
0
  6
Continuous
 62
     7
370
    15
100
AcDbLine
 10
84.2037026239
 20
223.3732069971
 30
0.0
 11
84.2037026239
 21
237.3732069971
 31
0.0
  0
ARC
  5
CE
330
1F
100
AcDbEntity
  8
0
  6
Continuous
 62
     7
370
    15
100
AcDbCircle
 10
60.2037026239
 20
230.3732069971
 30
0.0
 40
15.0
100
AcDbArc
 50
207.8181392847
 51
332.1818607153
  0
ARC
  5
CF
330
1F
100
AcDbEntity
  8
0
  6
Continuous
 62
     7
370
    15
100
AcDbCircle
 10
60.2037026239
 20
230.3732069971
 30
0.0
 40
15.00000000000001
100
AcDbArc
 50
27.8181392847
 51
152.1818607153
  0
LINE
  5
D0
330
1F
100
AcDbEntity
  8
0
  6
Continuous
 62
     7
370
    15
100
AcDbLine
 10
60.2037026239
 20
223.3732069971
 30
0.0
 11
84.2037026239
 21
223.3732069971
 31
0.0
  0
LINE
  5
D1
330
1F
100
AcDbEntity
  8
0
  6
Continuous
 62
     7
370
    15
100
AcDbLine
 10
36.2037026239
 20
223.3732069971
 30
0.0
 11
60.2037026239
 21
223.3732069971
 31
0.0
  0
LINE
  5
D2
330
1F
100
AcDbEntity
  8
0
  6
Continuous
 62
     7
370
    15
100
AcDbLine
 10
60.2037026239
 20
237.3732069971
 30
0.0
 11
84.2037026239
 21
237.3732069971
 31
0.0
  0
LINE
  5
D3
330
1F
100
AcDbEntity
  8
0
  6
Continuous
 62
     7
370
    15
100
AcDbLine
 10
36.2037026239
 20
237.3732069971
 30
0.0
 11
60.2037026239
 21
237.3732069971
 31
0.0
  0
DIMENSION
  5
D4
330
1F
100
AcDbEntity
  8
0
  6
Continuous
 62
     7
370
     0
100
AcDbDimension
  2
*D4
 10
75.2037026239
 20
251.1753151751
 30
0.0
 11
60.2037026239
 21
251.1753151751
 31
0.0
 70
   160
  1
%%c<>
 71
     2
 42
-1.0
  3
SLDDIMSTYLE0
100
AcDbAlignedDimension
 13
45.2037026239
 23
230.3732069971
 33
0.0
 14
75.2037026239
 24
230.3732069971
 34
0.0
 50
0.0
100
AcDbRotatedDimension
  0
LINE
  5
E0
330
1F
100
AcDbEntity
  8
0
  6
Continuous
 62
     7
370
    15
100
AcDbLine
 10
67.2037026239
 20
152.4294752187
 30
0.0
 11
67.2037026239
 21
187.4294752187
 31
0.0
  0
LINE
  5
E1
330
1F
100
AcDbEntity
  8
0
  6
Continuous
 62
     7
370
    15
100
AcDbLine
 10
53.2037026239
 20
187.4294752187
 30
0.0
 11
53.2037026239
 21
152.4294752187
 31
0.0
  0
LINE
  5
E2
330
1F
100
AcDbEntity
  8
0
  6
Continuous
 62
     7
370
    15
100
AcDbLine
 10
65.6537026239
 20
148.8024831552
 30
0.0
 11
65.6537026239
 21
152.4294752187
 31
0.0
  0
LINE
  5
E3
330
1F
100
AcDbEntity
  8
0
  6
Continuous
 62
     7
370
    15
100
AcDbLine
 10
54.7537026239
 20
152.4294752187
 30
0.0
 11
54.7537026239
 21
148.8024831552
 31
0.0
  0
LINE
  5
E4
330
1F
100
AcDbEntity
  8
0
  6
Continuous
 62
     7
370
    15
100
AcDbLine
 10
75.2037026239
 20
187.4294752187
 30
0.0
 11
75.2037026239
 21
189.4294752187
 31
0.0
  0
LINE
  5
E5
330
1F
100
AcDbEntity
  8
0
  6
Continuous
 62
     7
370
    15
100
AcDbLine
 10
45.2037026239
 20
189.4294752187
 30
0.0
 11
45.2037026239
 21
187.4294752187
 31
0.0
  0
LINE
  5
E6
330
1F
100
AcDbEntity
  8
0
  6
Continuous
 62
     7
370
    15
100
AcDbLine
 10
60.2037026239
 20
152.4294752187
 30
0.0
 11
53.2037026239
 21
152.4294752187
 31
0.0
  0
LINE
  5
E7
330
1F
100
AcDbEntity
  8
0
  6
Continuous
 62
     7
370
    15
100
AcDbLine
 10
67.2037026239
 20
152.4294752187
 30
0.0
 11
60.2037026239
 21
152.4294752187
 31
0.0
  0
LINE
  5
E8
330
1F
100
AcDbEntity
  8
0
  6
Continuous
 62
     7
370
    15
100
AcDbLine
 10
45.2037026239
 20
189.4294752187
 30
0.0
 11
75.2037026239
 21
189.4294752187
 31
0.0
  0
LINE
  5
E9
330
1F
100
AcDbEntity
  8
0
  6
Continuous
 62
     7
370
    15
100
AcDbLine
 10
45.2037026239
 20
187.4294752187
 30
0.0
 11
75.2037026239
 21
187.4294752187
 31
0.0
  0
CIRCLE
  5
EA
330
1F
100
AcDbEntity
  8
0
  6
Continuous
 62
     7
370
    15
100
AcDbCircle
 10
60.2037026239
 20
125.4294752187
 30
0.0
 40
23.99999999999999
  0
CIRCLE
  5
EB
330
1F
100
AcDbEntity
  8
0
  6
Continuous
 62
     7
370
    15
100
AcDbCircle
 10
60.2037026239
 20
125.4294752187
 30
0.0
 40
19.99999999999999
  0
DIMENSION
  5
EC
330
1F
100
AcDbEntity
  8
0
  6
Continuous
 62
     7
370
     0
100
AcDbDimension
  2
*D5
 10
24.6634185266
 20
189.4294752187
 30
0.0
 11
24.6634185266
 21
145.4294752187
 31
0.0
 70
   160
 71
     2
 42
-1.0
  3
SLDDIMSTYLE0
100
AcDbAlignedDimension
 13
60.2037026239
 23
101.4294752187
 33
0.0
 14
45.2037026239
 24
189.4294752187
 34
0.0
 50
90.0
100
AcDbRotatedDimension
  0
DIMENSION
  5
F6
330
1F
100
AcDbEntity
  8
0
  6
Continuous
 62
     7
370
     0
100
AcDbDimension
  2
*D6
 10
75.119370489
 20
138.7532454109
 30
0.0
 11
91.2781065729
 21
153.1874165151
 31
0.0
 70
   163
  1
<>
 71
     1
 42
-1.0
  3
SLDDIMSTYLE1
100
AcDbDiametricDimension
 15
45.2880347588
 25
112.1057050264
 35
0.0
 40
0.0
  0
DIMENSION
  5
102
330
1F
100
AcDbEntity
  8
0
  6
Continuous
 62
     7
370
     0
100
AcDbDimension
  2
*D7
 10
84.2037026239
 20
85.4294752187
 30
0.0
 11
60.2037026239
 21
85.4294752187
 31
0.0
 70
   160
  1
%%c<>
 71
     2
 42
-1.0
  3
SLDDIMSTYLE0
100
AcDbAlignedDimension
 13
36.2037026239
 23
125.4294752187
 33
0.0
 14
84.2037026239
 24
125.4294752187
 34
0.0
 50
0.0
100
AcDbRotatedDimension
  0
LINE
  5
10D
330
1F
100
AcDbEntity
  8
0
  6
Continuous
 62
     7
370
    15
100
AcDbLine
 10
133.1805539359
 20
237.3732069971
 30
0.0
 11
98.1805539359
 21
237.3732069971
 31
0.0
  0
LINE
  5
10E
330
1F
100
AcDbEntity
  8
0
  6
Continuous
 62
     7
370
    15
100
AcDbLine
 10
108.8225128075
 20
223.3732069971
 30
0.0
 11
133.1805539359
 21
223.3732069971
 31
0.0
  0
LINE
  5
10F
330
1F
100
AcDbEntity
  8
0
  6
Continuous
 62
     7
370
    15
100
AcDbLine
 10
98.1805539359
 20
223.3732069971
 30
0.0
 11
105.5502734164
 21
223.3732069971
 31
0.0
  0
LINE
  5
110
330
1F
100
AcDbEntity
  8
0
  6
Continuous
 62
     7
370
    15
100
AcDbLine
 10
136.1805539359
 20
235.8232069971
 30
0.0
 11
133.1805539359
 21
235.8232069971
 31
0.0
  0
LINE
  5
111
330
1F
100
AcDbEntity
  8
0
  6
Continuous
 62
     7
370
    15
100
AcDbLine
 10
133.1805539359
 20
224.9232069971
 30
0.0
 11
136.1805539359
 21
224.9232069971
 31
0.0
  0
LINE
  5
112
330
1F
100
AcDbEntity
  8
0
  6
Continuous
 62
     7
370
    15
100
AcDbLine
 10
98.1805539359
 20
245.3732069971
 30
0.0
 11
96.1805539359
 21
245.3732069971
 31
0.0
  0
LINE
  5
113
330
1F
100
AcDbEntity
  8
0
  6
Continuous
 62
     7
370
    15
100
AcDbLine
 10
96.1805539359
 20
215.3732069971
 30
0.0
 11
98.1805539359
 21
215.3732069971
 31
0.0
  0
LINE
  5
114
330
1F
100
AcDbEntity
  8
0
  6
Continuous
 62
     7
370
    15
100
AcDbLine
 10
136.1805539359
 20
224.8842588995
 30
0.0
 11
136.1805539359
 21
223.3732069971
 31
0.0
  0
LINE
  5
115
330
1F
100
AcDbEntity
  8
0
  6
Continuous
 62
     7
370
    15
100
AcDbLine
 10
136.1805539359
 20
237.3732069971
 30
0.0
 11
136.1805539359
 21
235.8541901921
 31
0.0
  0
LINE
  5
116
330
1F
100
AcDbEntity
  8
0
  6
Continuous
 62
     7
370
    15
100
AcDbLine
 10
184.1805539359
 20
223.3732069971
 30
0.0
 11
184.1805539359
 21
237.3732069971
 31
0.0
  0
LINE
  5
117
330
1F
100
AcDbEntity
  8
0
  6
Continuous
 62
     7
370
    15
100
AcDbLine
 10
133.1805539359
 20
237.3732069971
 30
0.0
 11
133.1805539359
 21
223.3732069971
 31
0.0
  0
SPLINE
  5
118
330
1F
100
AcDbEntity
  8
0
  6
Continuous
 62
     7
370
    15
100
AcDbSpline
210
0.0
220
0.0
230
1.0
 70
     8
 71
     3
 72
    11
 73
     7
 74
     0
 42
0.00000001
 43
0.00000001
 40
0.0
 40
0.0
 40
0.0
 40
0.0
 40
0.1288684213467952
 40
0.5393970091286687
 40
0.9534009820554693
 40
1.0
 40
1.0
 40
1.0
 40
1.0
 10
105.5502734163811
 20
223.3778104680212
 30
0.0
 10
105.5445191180117
 20
223.3764969491797
 30
0.0
 10
105.5204336881004
 20
223.3709990302391
 30
0.0
 10
105.6714499380811
 20
223.4041573751277
 30
0.0
 10
105.8547903603952
 20
223.4481557850713
 30
0.0
 10
106.0179373367504
 20
223.4709054252103
 30
0.0
 10
106.0344428502391
 20
223.4732069970847
 30
0.0
  0
SPLINE
  5
119
330
1F
100
AcDbEntity
  8
0
  6
Continuous
 62
     7
370
    15
100
AcDbSpline
210
0.0
220
0.0
230
1.0
 70
     8
 71
     3
 72
    11
 73
     7
 74
     0
 42
0.00000001
 43
0.00000001
 40
0.0
 40
0.0
 40
0.0
 40
0.0
 40
0.1100006775612501
 40
0.5359619064123988
 40
0.9588475258929753
 40
1.0
 40
1.0
 40
1.0
 40
1.0
 10
108.3203688954873
 20
223.4732069970847
 30
0.0
 10
108.3583714900994
 20
223.4676004733878
 30
0.0
 10
108.5435334682662
 20
223.4402835222966
 30
0.0
 10
108.7284159273331
 20
223.3958714551844
 30
0.0
 10
108.8549176112391
 20
223.3676056840631
 30
0.0
 10
108.8251524803596
 20
223.3744589099705
 30
0.0
 10
108.8225128074647
 20
223.3750666773189
 30
0.0
  0
LINE
  5
11A
330
1F
100
AcDbEntity
  8
0
  6
Continuous
 62
     7
370
    15
100
AcDbLine
 10
107.1805539359
 20
223.4732069971
 30
0.0
 11
105.8873022202
 21
223.4732069971
 31
0.0
  0
LINE
  5
11B
330
1F
100
AcDbEntity
  8
0
  6
Continuous
 62
     7
370
    15
100
AcDbLine
 10
108.4738056515
 20
223.4732069971
 30
0.0
 11
107.1805539359
 21
223.4732069971
 31
0.0
  0
LINE
  5
11C
330
1F
100
AcDbEntity
  8
0
  6
Continuous
 62
     7
370
    15
100
AcDbLine
 10
98.1805539359
 20
215.3732069971
 30
0.0
 11
98.1805539359
 21
245.3732069971
 31
0.0
  0
LINE
  5
11D
330
1F
100
AcDbEntity
  8
0
  6
Continuous
 62
     7
370
    15
100
AcDbLine
 10
96.1805539359
 20
215.3732069971
 30
0.0
 11
96.1805539359
 21
245.3732069971
 31
0.0
  0
LINE
  5
11E
330
1F
100
AcDbEntity
  8
0
  6
Continuous
 62
     7
370
    15
100
AcDbLine
 10
136.1805539359
 20
237.3732069971
 30
0.0
 11
184.1805539359
 21
237.3732069971
 31
0.0
  0
LINE
  5
11F
330
1F
100
AcDbEntity
  8
0
  6
Continuous
 62
     7
370
    15
100
AcDbLine
 10
136.1805539359
 20
223.3732069971
 30
0.0
 11
184.1805539359
 21
223.3732069971
 31
0.0
  0
SPLINE
  5
120
330
1F
100
AcDbEntity
  8
0
  6
Continuous
 62
     7
370
    15
100
AcDbSpline
210
0.0
220
0.0
230
1.0
 70
     8
 71
     3
 72
    27
 73
    23
 74
     0
 42
0.00000001
 43
0.00000001
 40
0.0
 40
0.0
 40
0.0
 40
0.0
 40
0.032821885533887
 40
0.0843392252759974
 40
0.137329884022951
 40
0.1892807236391865
 40
0.2426729448926744
 40
0.2957872690144924
 40
0.3504287971359257
 40
0.403685690768812
 40
0.4585556431671787
 40
0.5106293532721627
 40
0.5642553648847239
 40
0.6156838219174934
 40
0.6685576755631017
 40
0.7208616041640367
 40
0.7746216404145927
 40
0.8279681892951145
 40
0.8828799756857326
 40
0.9358327563835614
 40
0.9903921908783497
 40
1.0
 40
1.0
 40
1.0
 40
1.0
 10
136.1849034286553
 20
235.8541901920819
 30
0.0
 10
136.1844921278369
 20
235.8560083259989
 30
0.0
 10
136.1834352478979
 20
235.8606802089062
 30
0.0
 10
136.2205521298849
 20
235.697657201974
 30
0.0
 10
136.2869003852747
 20
235.3932829298571
 30
0.0
 10
136.378288220962
 20
234.9428121408268
 30
0.0
 10
136.4825971459481
 20
234.3698655516162
 30
0.0
 10
136.5909038859139
 20
233.6752064668865
 30
0.0
 10
136.689318219303
 20
232.8865698610659
 30
0.0
 10
136.7673005557844
 20
232.0154854893879
 30
0.0
 10
136.8137599292876
 20
231.1088455324109
 30
0.0
 10
136.8244961292836
 20
230.1788447626979
 30
0.0
 10
136.7991113820571
 20
229.2739513012591
 30
0.0
 10
136.7408458754364
 20
228.3966653720398
 30
0.0
 10
136.657329310948
 20
227.581334359236
 30
0.0
 10
136.5558048673485
 20
226.831949717279
 30
0.0
 10
136.4479971048517
 20
226.1779331624566
 30
0.0
 10
136.3446636403542
 20
225.6324876892894
 30
0.0
 10
136.2583800916494
 20
225.2201593884949
 30
0.0
 10
136.2018783262013
 20
224.9659977944202
 30
0.0
 10
136.1770049948392
 20
224.8576643859852
 30
0.0
 10
136.1822870443453
 20
224.8807954657069
 30
0.0
 10
136.1830779295473
 20
224.8842588994812
 30
0.0
  0
DIMENSION
  5
121
330
1F
100
AcDbEntity
  8
0
  6
Continuous
 62
     7
370
     0
100
AcDbDimension
  2
*D8
 10
193.2613112771
 20
237.3732069971
 30
0.0
 11
193.2613112771
 21
230.3732069971
 31
0.0
 70
   160
 71
     2
 42
-1.0
  3
SLDDIMSTYLE0
100
AcDbAlignedDimension
 13
184.1805539359
 23
223.3732069971
 33
0.0
 14
184.1805539359
 24
237.3732069971
 34
0.0
 50
90.0
100
AcDbRotatedDimension
  0
LINE
  5
12B
330
1F
100
AcDbEntity
  8
0
  6
Continuous
 62
     7
370
    15
100
AcDbLine
 10
158.5052178823
 20
93.5755866806
 30
0.0
 11
170.1754850267
 21
100.3126884998
 31
0.0
  0
LINE
  5
12C
330
1F
100
AcDbEntity
  8
0
  6
Continuous
 62
     7
370
    15
100
AcDbLine
 10
166.6757694625
 20
106.3750305365
 30
0.0
 11
154.3014007917
 21
99.231459558
 31
0.0
  0
LINE
  5
12D
330
1F
100
AcDbEntity
  8
0
  6
Continuous
 62
     7
370
    15
100
AcDbLine
 10
154.2863985928
 20
93.4494526675
 30
0.0
 11
154.2864431337
 21
93.4494783804
 31
0.0
  0
LINE
  5
12E
330
1F
100
AcDbEntity
  8
0
  6
Continuous
 62
     7
370
    15
100
AcDbLine
 10
152.7865650347
 20
96.0476249675
 30
0.0
 11
152.7864163843
 21
96.0475391534
 31
0.0
  0
LINE
  5
12F
330
1F
100
AcDbEntity
  8
0
  6
Continuous
 62
     7
370
    15
100
AcDbLine
 10
165.9508684071
 20
92.0968894754
 30
0.0
 11
165.5972575682
 21
92.301091023
 31
0.0
  0
LINE
  5
130
330
1F
100
AcDbEntity
  8
0
  6
Continuous
 62
     7
370
    15
100
AcDbLine
 10
164.8900358903
 20
92.301091023
 30
0.0
 11
164.5364250513
 21
92.0968894754
 31
0.0
  0
LINE
  5
131
330
1F
100
AcDbEntity
  8
0
  6
Continuous
 62
     7
370
    15
100
AcDbLine
 10
164.2436467292
 20
91.6887517588
 30
0.0
 11
164.2436467292
 21
90.9742785484
 31
0.0
  0
LINE
  5
132
330
1F
100
AcDbEntity
  8
0
  6
Continuous
 62
     7
370
    15
100
AcDbLine
 10
166.2436467292
 20
90.9742785484
 30
0.0
 11
166.2436467292
 21
91.6887517588
 31
0.0
  0
LINE
  5
133
330
1F
100
AcDbEntity
  8
0
  6
Continuous
 62
     7
370
    15
100
AcDbLine
 10
164.5364250513
 20
90.5661408317
 30
0.0
 11
164.6248277611
 21
90.5150904448
 31
0.0
  0
LINE
  5
134
330
1F
100
AcDbEntity
  8
0
  6
Continuous
 62
     7
370
    15
100
AcDbLine
 10
165.8624656974
 20
90.5150904448
 30
0.0
 11
165.9508684071
 21
90.5661408317
 31
0.0
  0
LINE
  5
135
330
1F
100
AcDbEntity
  8
0
  6
Continuous
 62
     7
370
    15
100
AcDbLine
 10
189.6019833437
 20
106.9086902227
 30
0.0
 11
190.3090901249
 21
107.3168942786
 31
0.0
  0
LINE
  5
136
330
1F
100
AcDbEntity
  8
0
  6
Continuous
 62
     7
370
    15
100
AcDbLine
 10
182.8096996302
 20
120.3076272144
 30
0.0
 11
182.102592849
 21
119.8994231584
 31
0.0
  0
LINE
  5
137
330
1F
100
AcDbEntity
  8
0
  6
Continuous
 62
     7
370
    15
100
AcDbLine
 10
173.7807523926
 20
109.5817811993
 30
0.0
 11
170.0684417914
 21
107.4387099058
 31
0.0
  0
LINE
  5
138
330
1F
100
AcDbEntity
  8
0
  6
Continuous
 62
     7
370
    15
100
AcDbLine
 10
172.7932203378
 20
102.7187436058
 30
0.0
 11
176.5055309391
 21
104.8618148993
 31
0.0
  0
LINE
  5
139
330
1F
100
AcDbEntity
  8
0
  6
Continuous
 62
     7
370
    15
100
AcDbLine
 10
175.5824344639
 20
109.7270014428
 30
0.0
 11
175.1200236463
 21
109.4600573598
 31
0.0
  0
LINE
  5
13A
330
1F
100
AcDbEntity
  8
0
  6
Continuous
 62
     7
370
    15
100
AcDbLine
 10
177.0698651749
 20
106.0824667966
 30
0.0
 11
177.5322759925
 21
106.3494108795
 31
0.0
  0
LINE
  5
13B
330
1F
100
AcDbEntity
  8
0
  6
Continuous
 62
     7
370
    15
100
AcDbLine
 10
178.3415911313
 20
112.2146973599
 30
0.0
 11
175.194965955
 21
110.3981893111
 31
0.0
  0
LINE
  5
13C
330
1F
100
AcDbEntity
  8
0
  6
Continuous
 62
     7
370
    15
100
AcDbLine
 10
177.9197445014
 20
105.6782230112
 30
0.0
 11
181.0663696777
 21
107.49473106
 31
0.0
  0
LINE
  5
13D
330
1F
100
AcDbEntity
  8
0
  6
Continuous
 62
     7
370
    15
100
AcDbLine
 10
134.5053170278
 20
93.5474266265
 30
0.0
 11
134.5053170278
 21
87.8316409433
 31
0.0
  0
LINE
  5
13E
330
1F
100
AcDbEntity
  8
0
  6
Continuous
 62
     7
370
    15
100
AcDbLine
 10
158.5053170278
 20
87.8316409433
 30
0.0
 11
158.5053170278
 21
93.5474266265
 31
0.0
  0
ARC
  5
13F
330
1F
100
AcDbEntity
  8
0
  6
Continuous
 62
     7
370
    15
100
AcDbCircle
 10
155.2504407523
 20
97.3325920417
 30
0.0
 40
1.354789989586073
100
AcDbArc
 50
53.7648170708
 51
112.1889407207
  0
ARC
  5
140
330
1F
100
AcDbEntity
  8
0
  6
Continuous
 62
     7
370
    15
100
AcDbCircle
 10
153.7228112395
 20
94.8364739981
 30
0.0
 40
4.278058658799013
100
AcDbArc
 50
11.5874472245
 51
57.0247553379
  0
ARC
  5
141
330
1F
100
AcDbEntity
  8
0
  6
Continuous
 62
     7
370
    15
100
AcDbCircle
 10
167.404517038
 20
104.8121725875
 30
0.0
 40
1.724412362991157
100
AcDbArc
 50
53.69029605
 51
114.9992455209
  0
LWPOLYLINE
  5
142
330
1F
100
AcDbEntity
  8
0
  6
Continuous
 62
     7
370
    15
100
AcDbPolyline
 90
       17
 70
   128
 43
0.0
 10
170.1754850267
 20
100.3126884998
 10
170.2732522039
 20
100.3758187768
 10
170.5029506911
 20
100.5911884084
 10
170.6839584773
 20
100.8710783178
 10
170.8120328935
 20
101.2089281227
 10
170.884171984
 20
101.59681891
 10
170.8986848695
 20
102.0256588484
 10
170.8552313803
 20
102.4853962933
 10
170.7548300295
 20
102.9652553886
 10
170.5998341395
 20
103.4539886438
 10
170.3938766826
 20
103.9401405656
 10
170.1417851272
 20
104.4123161651
 10
169.8494682855
 20
104.8594480463
 10
169.5237778166
 20
105.271055817
 10
169.1723476291
 20
105.6374917399
 10
168.8034149486
 20
105.9501668675
 10
168.4256272446
 20
106.2017523598
  0
ARC
  5
143
330
1F
100
AcDbEntity
  8
0
  6
Continuous
 62
     7
370
    15
100
AcDbCircle
 10
155.0683295908
 20
97.8872977598
 30
0.0
 40
1.528763500561696
100
AcDbArc
 50
49.9873397161
 51
135.175300601
  0
ARC
  5
144
330
1F
100
AcDbEntity
  8
0
  6
Continuous
 62
     7
370
    15
100
AcDbCircle
 10
153.3866303736
 20
94.7059648326
 30
0.0
 40
5.103139458467405
100
AcDbArc
 50
353.7644954229
 51
58.5231048889
  0
LWPOLYLINE
  5
145
330
1F
100
AcDbEntity
  8
0
  6
Continuous
 62
     7
370
    15
100
AcDbPolyline
 90
       17
 70
   128
 43
0.0
 10
164.8900933386
 20
92.3011241927
 10
165.052305013
 20
92.3636943155
 10
165.2436467292
 20
92.3856660208
 10
165.4349884454
 20
92.3636943155
 10
165.5972001198
 20
92.3011241927
 10
165.7055864955
 20
92.2074813863
 10
165.7436467292
 20
92.0970221647
 10
165.7055864955
 20
91.9865629432
 10
165.5972001198
 20
91.8929201368
 10
165.4349884454
 20
91.8303500139
 10
165.2436467292
 20
91.8083783087
 10
165.052305013
 20
91.8303500139
 10
164.8900933386
 20
91.8929201368
 10
164.781706963
 20
91.9865629432
 10
164.7436467292
 20
92.0970221647
 10
164.781706963
 20
92.2074813863
 10
164.8900933386
 20
92.3011241927
  0
LWPOLYLINE
  5
146
330
1F
100
AcDbEntity
  8
0
  6
Continuous
 62
     7
370
    15
100
AcDbPolyline
 90
        7
 70
   128
 43
0.0
 10
165.9507535104
 20
91.2805477029
 10
166.1213257188
 20
91.4120872077
 10
166.2207935952
 20
91.5660404291
 10
166.2410988438
 20
91.7299349926
 10
166.1805964542
 20
91.8904931355
 10
166.0441879702
 20
92.0347073918
 10
165.9508684071
 20
92.0968894754
  0
LWPOLYLINE
  5
147
330
1F
100
AcDbEntity
  8
0
  6
Continuous
 62
     7
370
    15
100
AcDbPolyline
 90
       12
 70
   128
 43
0.0
 10
164.5364250513
 20
92.0968894754
 10
164.3659677397
 20
91.9654163098
 10
164.2664998633
 20
91.8114630884
 10
164.2461946146
 20
91.6475685249
 10
164.3066970042
 20
91.4870103821
 10
164.4431054883
 20
91.3427961258
 10
164.6443690627
 20
91.2266091374
 10
164.8941825496
 20
91.1478621957
 10
165.172307546
 20
91.1129349096
 10
165.4562120188
 20
91.1246568801
 10
165.7228957159
 20
91.1820784629
 10
165.9507535104
 20
91.2805477029
  0
LWPOLYLINE
  5
148
330
1F
100
AcDbEntity
  8
0
  6
Continuous
 62
     7
370
    15
100
AcDbPolyline
 90
       13
 70
   128
 43
0.0
 10
164.2436467292
 20
90.9742785484
 10
164.2461946146
 20
90.9330953145
 10
164.3066970042
 20
90.7725371717
 10
164.4431054883
 20
90.6283229154
 10
164.6443690627
 20
90.512135927
 10
164.8941825496
 20
90.4333889853
 10
165.172307546
 20
90.3984616992
 10
165.4562120188
 20
90.4101836697
 10
165.7228957159
 20
90.4676052525
 10
165.9507535104
 20
90.5660744925
 10
166.1213257188
 20
90.6976139973
 10
166.2207935952
 20
90.8515672187
 10
166.2436467292
 20
90.9742785484
  0
LWPOLYLINE
  5
149
330
1F
100
AcDbEntity
  8
0
  6
Continuous
 62
     7
370
    15
100
AcDbPolyline
 90
       17
 70
   128
 43
0.0
 10
165.3303416476
 20
91.8618140583
 10
165.290565681
 20
91.8464712223
 10
165.2436467292
 20
91.8410835347
 10
165.1967277775
 20
91.8464712223
 10
165.1569518108
 20
91.8618140583
 10
165.1303743596
 20
91.8847762351
 10
165.1210415998
 20
91.9118619694
 10
165.1303743596
 20
91.9389477037
 10
165.1569518108
 20
91.9619098805
 10
165.1967277775
 20
91.9772527165
 10
165.2436467292
 20
91.982640404
 10
165.290565681
 20
91.9772527165
 10
165.3303416476
 20
91.9619098805
 10
165.3569190989
 20
91.9389477037
 10
165.3662518586
 20
91.9118619694
 10
165.3569190989
 20
91.8847762351
 10
165.3303416476
 20
91.8618140583
  0
ARC
  5
14A
330
1F
100
AcDbEntity
  8
0
  6
Continuous
 62
     7
370
    15
100
AcDbCircle
 10
165.2436467292
 20
91.6649749587
 30
0.0
 40
1.305822082309569
100
AcDbArc
 50
241.7127508114
 51
298.2872491886
  0
LINE
  5
14B
330
1F
100
AcDbEntity
  8
0
  6
Continuous
 62
     7
370
    15
100
AcDbLine
 10
187.2841793283
 20
114.0967086684
 30
0.0
 11
187.2841793283
 21
111.0581782863
 31
0.0
  0
LWPOLYLINE
  5
14C
330
1F
100
AcDbEntity
  8
0
  6
Continuous
 62
     7
370
    15
100
AcDbPolyline
 90
       10
 70
   128
 43
0.0
 10
184.4203968645
 20
115.7499350948
 10
184.6851731003
 20
115.8738707998
 10
184.9893214558
 20
115.9144883939
 10
185.3225816178
 20
115.8704176601
 10
185.6737111987
 20
115.7431453056
 10
186.030864994
 20
115.5369648082
 10
186.381994575
 20
115.2588315779
 10
186.7152547369
 20
114.9181283188
 10
187.0194030924
 20
114.5263485082
 10
187.2841793283
 20
114.0967086684
  0
LINE
  5
14D
330
1F
100
AcDbEntity
  8
0
  6
Continuous
 62
     7
370
    15
100
AcDbLine
 10
184.4203968645
 20
112.7114047128
 30
0.0
 11
184.4203968645
 21
115.7499350948
 31
0.0
  0
LWPOLYLINE
  5
14E
330
1F
100
AcDbEntity
  8
0
  6
Continuous
 62
     7
370
    15
100
AcDbPolyline
 90
       10
 70
   128
 43
0.0
 10
187.2841793283
 20
111.0581782863
 10
187.0194030924
 20
110.9342425814
 10
186.7152547369
 20
110.8936249873
 10
186.381994575
 20
110.9376957211
 10
186.030864994
 20
111.0649680756
 10
185.6737111987
 20
111.271148573
 10
185.3225816178
 20
111.5492818033
 10
184.9893214558
 20
111.8899850623
 10
184.6851731003
 20
112.281764873
 10
184.4203968645
 20
112.7114047128
  0
LWPOLYLINE
  5
14F
330
1F
100
AcDbEntity
  8
0
  6
Continuous
 62
     7
370
    15
100
AcDbPolyline
 90
       62
 70
   128
 43
0.0
 10
191.1555889553
 20
110.3425262712
 10
191.1274808011
 20
109.7290712097
 10
191.0434542919
 20
109.1545719084
 10
190.9044001296
 20
108.625118203
 10
190.711792323
 20
108.1463224344
 10
190.4676725626
 20
107.7232599569
 10
190.1746285787
 20
107.360415338
 10
189.8357667105
 20
107.0616348209
 10
189.454678978
 20
106.8300855535
 10
189.0354050059
 20
106.6682220155
 10
188.5823892028
 20
106.5777600007
 10
188.1004336487
 20
106.5596584291
 10
187.5946471925
 20
106.6141091817
 10
187.0703912965
 20
106.740535067
 10
186.5332232035
 20
106.9375959392
 10
185.988837029
 20
107.2032029041
 10
185.4430034018
 20
107.5345404617
 10
184.9015082942
 20
107.9280963515
 10
184.370091689
 20
108.3796987831
 10
183.8543867345
 20
108.8845606585
 10
183.3598600314
 20
109.4373303161
 10
182.8917536859
 20
110.0321482601
 10
182.4550297416
 20
110.6627092723
 10
182.054317581
 20
111.3223292491
 10
181.6938648527
 20
112.0040160547
 10
181.3774924452
 20
112.7005436392
 10
181.1085539849
 20
113.4045286372
 10
180.8899002863
 20
114.1085086324
 10
180.7238491329
 20
114.8050212617
 10
180.6121607084
 20
115.4866833181
 10
180.5560189377
 20
116.1462690142
 10
180.5560189377
 20
116.7767865774
 10
180.6121607084
 20
117.3715523648
 10
180.7238491329
 20
117.924261711
 10
180.8899002863
 20
118.4290557595
 10
181.1085539849
 20
118.8805835679
 10
181.3774924452
 20
119.2740588289
 10
181.6938648527
 20
119.605310607
 10
182.054317581
 20
119.8708275509
 10
182.4550297416
 20
120.0677951149
 10
182.8917536859
 20
120.1941253938
 10
183.3598600314
 20
120.2484792554
 10
183.8543867345
 20
120.2302805351
 10
184.370091689
 20
120.1397221438
 10
184.9015082942
 20
119.9777640231
 10
185.4430034018
 20
119.7461229693
 10
185.988837029
 20
119.4472544353
 10
186.5332232035
 20
119.0843265018
 10
187.0703912965
 20
118.6611862952
 10
187.5946471925
 20
118.182319207
 10
188.1004336487
 20
117.6528013474
 10
188.5823892028
 20
117.0782457375
 10
189.0354050059
 20
116.4647428097
 10
189.454678978
 20
115.8187958475
 10
189.8357667105
 20
115.1472520496
 10
190.1746285787
 20
114.4572299473
 10
190.4676725626
 20
113.7560439464
 10
190.711792323
 20
113.0511267931
 10
190.9044001296
 20
112.3499507844
 10
191.0434542919
 20
111.6599485606
 10
191.1274808011
 20
110.9884343169
 10
191.1555889553
 20
110.3425262712
  0
ARC
  5
150
330
1F
100
AcDbEntity
  8
0
  6
Continuous
 62
     7
370
    15
100
AcDbCircle
 10
188.140068378
 20
110.3666218753
 30
0.0
 40
3.742391448321968
100
AcDbArc
 50
305.4211298259
 51
5.8910505675
  0
LWPOLYLINE
  5
151
330
1F
100
AcDbEntity
  8
0
  6
Continuous
 62
     7
370
    15
100
AcDbPolyline
 90
       24
 70
   128
 43
0.0
 10
182.8096996302
 20
120.3076272144
 10
183.1621365228
 20
120.4759991708
 10
183.598860467
 20
120.6023294498
 10
184.0669668126
 20
120.6566833113
 10
184.5614935157
 20
120.638484591
 10
185.0771984702
 20
120.5479261997
 10
185.6086150754
 20
120.385968079
 10
186.150110183
 20
120.1543270253
 10
186.6959438101
 20
119.8554584912
 10
187.2403299847
 20
119.4925305577
 10
187.7774980777
 20
119.0693903511
 10
188.3017539737
 20
118.5905232629
 10
188.8075404299
 20
118.0610054033
 10
189.289495984
 20
117.4864497934
 10
189.7425117871
 20
116.8729468656
 10
190.1617857591
 20
116.2269999035
 10
190.5428734917
 20
115.5554561056
 10
190.8817353599
 20
114.8654340032
 10
191.1747793438
 20
114.1642480023
 10
191.4188991041
 20
113.459330849
 10
191.6115069108
 20
112.7581548403
 10
191.7505610731
 20
112.0681526165
 10
191.8345875822
 20
111.3966383728
 10
191.8626957364
 20
110.7507303272
  0
LINE
  5
152
330
1F
100
AcDbEntity
  8
0
  6
Continuous
 62
     7
370
    15
100
AcDbLine
 10
184.5368698568
 20
115.8171735221
 30
0.0
 11
184.4203968645
 21
115.7499350948
 31
0.0
  0
LINE
  5
153
330
1F
100
AcDbEntity
  8
0
  6
Continuous
 62
     7
370
    15
100
AcDbLine
 10
185.1275036456
 20
113.1196087687
 30
0.0
 11
184.4203968645
 21
112.7114047128
 31
0.0
  0
ARC
  5
154
330
1F
100
AcDbEntity
  8
0
  6
Continuous
 62
     7
370
    15
100
AcDbCircle
 10
188.1367871652
 20
114.5163931892
 30
0.0
 40
3.317648869101158
100
AcDbArc
 50
204.8987706109
 51
255.1083720509
  0
LINE
  5
155
330
1F
100
AcDbEntity
  8
0
  6
Continuous
 62
     7
370
    15
100
AcDbLine
 10
185.1275036456
 20
113.1196087687
 30
0.0
 11
185.1275036456
 21
115.9061453717
 31
0.0
  0
LWPOLYLINE
  5
156
330
1F
100
AcDbEntity
  8
0
  6
Continuous
 62
     7
370
    15
100
AcDbPolyline
 90
       13
 70
   128
 43
0.0
 10
173.3576970433
 20
103.9663707034
 10
173.3284236195
 20
103.596889896
 10
173.2414928061
 20
103.2724339517
 10
173.0995459519
 20
103.0028613002
 10
172.9068960403
 20
102.7963627701
 10
172.6693966413
 20
102.6592127149
 10
172.394264054
 20
102.5955783694
 10
172.0898580428
 20
102.6073932311
 10
171.7654278304
 20
102.6942983114
 10
171.4308310646
 20
102.8536530434
 10
171.0962342988
 20
103.0806155142
 10
170.7718040864
 20
103.368289584
 10
170.5310576878
 20
103.6305726231
  0
LWPOLYLINE
  5
157
330
1F
100
AcDbEntity
  8
0
  6
Continuous
 62
     7
370
    15
100
AcDbPolyline
 90
       23
 70
   128
 43
0.0
 10
169.7268009411
 20
105.023737123
 10
169.6201693232
 20
105.3629794999
 10
169.5332385097
 20
105.7878036249
 10
169.5039650859
 20
106.1910828081
 10
169.5332385097
 20
106.5605636156
 10
169.6201693232
 20
106.8850195599
 10
169.7621161773
 20
107.1545922114
 10
169.954766089
 20
107.3610907414
 10
170.192265488
 20
107.4982407967
 10
170.4673980752
 20
107.5618751422
 10
170.7718040864
 20
107.5500602805
 10
171.0962342988
 20
107.4631552002
 10
171.4308310646
 20
107.3038004682
 10
171.7654278304
 20
107.0768379974
 10
172.0898580428
 20
106.7891639276
 10
172.394264054
 20
106.4495190898
 10
172.6693966413
 20
106.0682234207
 10
172.9068960403
 20
105.6568623961
 10
173.0995459519
 20
105.2279350126
 10
173.2414928061
 20
104.7944740117
 10
173.3284236195
 20
104.3696498866
 10
173.3576970433
 20
103.9663707034
 10
173.3576970433
 20
103.9663707034
  0
ARC
  5
158
330
1F
100
AcDbEntity
  8
0
  6
Continuous
 62
     7
370
    15
100
AcDbCircle
 10
175.7445094883
 20
105.9576411657
 30
0.0
 40
1.334162229507483
100
AcDbArc
 50
304.7789244315
 51
6.5332559619
  0
LWPOLYLINE
  5
159
330
1F
100
AcDbEntity
  8
0
  6
Continuous
 62
     7
370
    15
100
AcDbPolyline
 90
       15
 70
   128
 43
0.0
 10
173.7807523926
 20
109.5817811993
 10
173.9045760892
 20
109.6413120902
 10
174.1797086765
 20
109.7049464357
 10
174.4841146876
 20
109.693131574
 10
174.8085449
 20
109.6062264937
 10
175.1431416658
 20
109.4468717617
 10
175.4777384317
 20
109.2199092909
 10
175.8021686441
 20
108.9322352211
 10
176.1065746552
 20
108.5925903834
 10
176.3817072425
 20
108.2112947142
 10
176.6192066415
 20
107.7999336896
 10
176.8118565531
 20
107.3710063061
 10
176.9538034073
 20
106.9375453053
 10
177.0407342207
 20
106.5127211802
 10
177.0700076446
 20
106.109441997
  0
LWPOLYLINE
  5
15A
330
1F
100
AcDbEntity
  8
0
  6
Continuous
 62
     7
370
    15
100
AcDbPolyline
 90
       36
 70
   128
 43
0.0
 10
173.180920348
 20
104.0684217174
 10
173.1527956933
 20
103.7238052302
 10
173.0693256785
 20
103.4227370356
 10
172.9331930987
 20
103.1748937133
 10
172.7487733669
 20
102.9882411513
 10
172.5219938852
 20
102.8687785168
 10
172.2601435326
 20
102.820345437
 10
171.9716383949
 20
102.844498591
 10
171.6657512646
 20
102.9404616766
 10
171.3523136058
 20
103.1051503611
 10
171.0413995628
 20
103.3332714149
 10
170.7430021686
 20
103.6174928394
 10
170.4667121611
 20
103.9486795244
 10
170.2214097284
 20
104.3161868572
 10
170.0149790926
 20
104.7082028497
 10
169.8540551042
 20
105.1121277855
 10
169.7438099925
 20
105.5149791846
 10
169.6877871261
 20
105.9038090718
 10
169.6877871261
 20
106.2661201344
 10
169.7438099925
 20
106.5902673969
 10
169.8540551042
 20
106.8658324994
 10
170.0149790926
 20
107.083958553
 10
170.2214097284
 20
107.2376348066
 10
170.4667121611
 20
107.3219219791
 10
170.7430021686
 20
107.3341110115
 10
171.0413995628
 20
107.2738101381
 10
171.3523136058
 20
107.1429574787
 10
171.6657512646
 20
106.9457587455
 10
171.9716383949
 20
106.6885520678
 10
172.2601435326
 20
106.3796042801
 10
172.5219938852
 20
106.0288452184
 10
172.7487733669
 20
105.6475485675
 10
172.9331930987
 20
105.2479695156
 10
173.0693256785
 20
104.8429508621
 10
173.1527956933
 20
104.4455102398
 10
173.180920348
 20
104.0684217174
  0
LWPOLYLINE
  5
15B
330
1F
100
AcDbEntity
  8
0
  6
Continuous
 62
     7
370
    15
100
AcDbPolyline
 90
       19
 70
   128
 43
0.0
 10
173.1229070996
 20
104.6179389614
 10
173.0695524692
 20
104.5089969736
 10
172.9364044344
 20
104.3631099414
 10
172.7609618714
 20
104.2849076268
 10
172.5534208643
 20
104.2789348641
 10
172.3258429419
 20
104.3455387686
 10
172.0914541059
 20
104.4808485634
 10
171.8638761835
 20
104.6770005352
 10
171.6563351764
 20
104.9225950443
 10
171.4808926134
 20
105.2033590304
 10
171.3477445787
 20
105.5029755114
 10
171.264629152
 20
105.8040318663
 10
171.2363766998
 20
106.0890317942
 10
171.264629152
 20
106.3414121351
 10
171.3477445787
 20
106.5465054609
 10
171.4808926134
 20
106.6923924932
 10
171.6563351764
 20
106.7705948078
 10
171.8638761835
 20
106.7765675705
 10
171.8779742729
 20
106.7744595327
  0
ARC
  5
15C
330
1F
100
AcDbEntity
  8
0
  6
Continuous
 62
     7
370
    15
100
AcDbCircle
 10
176.9654775232
 20
107.143630783
 30
0.0
 40
0.975728322809018
100
AcDbArc
 50
305.5137163071
 51
5.7984640863
  0
LWPOLYLINE
  5
15D
330
1F
100
AcDbEntity
  8
0
  6
Continuous
 62
     7
370
    15
100
AcDbPolyline
 90
       13
 70
   128
 43
0.0
 10
175.5824344639
 20
109.7270014428
 10
175.7133478606
 20
109.7845575348
 10
175.9501141308
 20
109.8182923779
 10
176.2117409229
 20
109.7791502821
 10
176.4875172053
 20
109.6687337295
 10
176.7661526645
 20
109.4915631866
 10
177.0362399321
 20
109.2548920364
 10
177.2867216037
 20
108.9684096235
 10
177.5073429302
 20
108.6438445715
 10
177.6890716485
 20
108.2944846118
 10
177.8244677636
 20
107.9346325823
 10
177.9079881427
 20
107.5790208673
 10
177.9362134515
 20
107.2422082521
  0
LWPOLYLINE
  5
15E
330
1F
100
AcDbEntity
  8
0
  6
Continuous
 62
     7
370
    15
100
AcDbPolyline
 90
        9
 70
   128
 43
0.0
 10
178.4842212069
 20
106.9258501088
 10
178.4549477831
 20
106.5563693013
 10
178.3680169697
 20
106.231913357
 10
178.2260701155
 20
105.9623407056
 10
178.0334202039
 20
105.7558421755
 10
177.7959208049
 20
105.6186921202
 10
177.5207882176
 20
105.5550577747
 10
177.2163822064
 20
105.5668726364
 10
177.01483723
 20
105.6126565796
  0
LWPOLYLINE
  5
15F
330
1F
100
AcDbEntity
  8
0
  6
Continuous
 62
     7
370
    15
100
AcDbPolyline
 90
       18
 70
   128
 43
0.0
 10
174.685659664
 20
109.6473476309
 10
174.7466934868
 20
109.8444989653
 10
174.8886403409
 20
110.1140716167
 10
175.0812902526
 20
110.3205701468
 10
175.3187896516
 20
110.4577202021
 10
175.5939222388
 20
110.5213545475
 10
175.89832825
 20
110.5095396858
 10
176.2227584624
 20
110.4226346055
 10
176.5573552282
 20
110.2632798735
 10
176.891951994
 20
110.0363174027
 10
177.2163822064
 20
109.7486433329
 10
177.5207882176
 20
109.4089984952
 10
177.7959208049
 20
109.027702826
 10
178.0334202039
 20
108.6163418014
 10
178.2260701155
 20
108.1874144179
 10
178.3680169697
 20
107.7539534171
 10
178.4549477831
 20
107.329129292
 10
178.4842212069
 20
106.9258501088
  0
LINE
  5
160
330
1F
100
AcDbEntity
  8
0
  6
Continuous
 62
     7
370
    15
100
AcDbLine
 10
180.4287648552
 20
107.1276633312
 30
0.0
 11
181.1005162973
 21
107.5154571843
 31
0.0
  0
LINE
  5
161
330
1F
100
AcDbEntity
  8
0
  6
Continuous
 62
     7
370
    15
100
AcDbLine
 10
181.1005162973
 20
107.5154571843
 30
0.0
 11
181.0663696777
 21
107.49473106
 31
0.0
  0
LWPOLYLINE
  5
162
330
1F
100
AcDbEntity
  8
0
  6
Continuous
 62
     7
370
    15
100
AcDbPolyline
 90
       10
 70
   128
 43
0.0
 10
178.3415911313
 20
112.2146973599
 10
178.5679281529
 20
112.3077485336
 10
178.8651840464
 20
112.3421249091
 10
179.1895904791
 20
112.295987652
 10
179.5306469172
 20
112.1708301539
 10
179.8773138918
 20
111.9707035693
 10
180.2183703299
 20
111.7020856857
 10
180.5427767626
 20
111.3736712481
 10
180.8400326561
 20
110.9960905234
 10
181.1005162973
 20
110.5815652147
  0
LINE
  5
163
330
1F
100
AcDbEntity
  8
0
  6
Continuous
 62
     7
370
    15
100
AcDbLine
 10
180.4287648552
 20
110.1937713616
 30
0.0
 11
181.1005162973
 21
110.5815652147
 31
0.0
  0
LWPOLYLINE
  5
164
330
1F
100
AcDbEntity
  8
0
  6
Continuous
 62
     7
370
    15
100
AcDbPolyline
 90
        9
 70
   128
 43
0.0
 10
180.4287648552
 20
110.1937713616
 10
180.6543853122
 20
109.7313238162
 10
180.8216073461
 20
109.2593576167
 10
180.9244108816
 20
108.7948637776
 10
180.9590949411
 20
108.3545643045
 10
180.9244108816
 20
107.9543101941
 10
180.8216073461
 20
107.6085107906
 10
180.6543853122
 20
107.3296150417
 10
180.4287648552
 20
107.1276633312
  0
LINE
  5
165
330
1F
100
AcDbEntity
  8
0
  6
Continuous
 62
     7
370
    15
100
AcDbLine
 10
181.1005162973
 20
107.5154571843
 30
0.0
 11
181.1005162973
 21
110.5815652147
 31
0.0
  0
LWPOLYLINE
  5
166
330
1F
100
AcDbEntity
  8
0
  6
Continuous
 62
     7
370
    15
100
AcDbPolyline
 90
       78
 70
   128
 43
0.0
 10
138.0200356535
 20
88.6489779556
 10
138.7398989328
 20
88.2660080978
 10
139.5114397884
 20
87.9181852089
 10
140.329523743
 20
87.6078239929
 10
141.188706583
 20
87.3369898525
 10
142.0832705883
 20
87.1074851441
 10
143.0072625831
 20
86.9208371838
 10
143.9545335531
 20
86.778288083
 10
144.9187795663
 20
86.6807864823
 10
145.8935837245
 20
86.6289812388
 10
146.872458867
 20
86.623217108
 10
147.848890741
 20
86.6635324491
 10
148.8163813537
 20
86.7496589701
 10
149.7684922146
 20
86.8810235134
 10
150.698887183
 20
87.0567518695
 10
151.6013746339
 20
87.2756745952
 10
152.4699486622
 20
87.536334796
 10
153.2988290511
 20
87.8369978211
 10
154.0824997383
 20
88.1756628077
 10
154.8157455248
 20
88.5500759963
 10
155.4936867807
 20
88.9577457288
 10
156.1118119189
 20
89.3959590305
 10
156.6660074185
 20
89.861799664
 10
157.1525852
 20
90.3521675369
 10
157.5683071685
 20
90.8637993319
 10
157.9104067629
 20
91.3932902237
 10
158.1766073667
 20
91.9371165379
 10
158.365137459
 20
92.4916592001
 10
158.4747424031
 20
93.0532278203
 10
158.5046927961
 20
93.618085252
 10
158.4547893231
 20
94.1824724622
 10
158.3253640836
 20
94.7426335472
 10
158.117278381
 20
95.2948407273
 10
157.8319169915
 20
95.8354191548
 10
157.471178948
 20
96.3607713696
 10
157.0374649026
 20
96.8674012393
 10
156.5336611508
 20
97.3519372256
 10
155.9631204234
 20
97.8111548217
 10
155.3296395749
 20
98.2419980101
 10
154.6374343157
 20
98.6415996004
 10
153.8911111577
 20
99.0073003101
 10
153.0956367583
 20
99.3366664613
 10
152.2563048684
 20
99.6275061765
 10
151.3787011033
 20
99.8778839655
 10
150.4686657712
 20
100.0861336053
 10
149.5322550072
 20
100.2508692289
 10
148.5757004703
 20
100.3709945481
 10
147.6053678732
 20
100.4457101485
 10
146.6277146192
 20
100.4745188103
 10
145.6492468294
 20
100.4572288164
 10
144.6764760455
 20
100.393955229
 10
143.7158758967
 20
100.2851191234
 10
142.7738390183
 20
100.1314447858
 10
141.8566345105
 20
99.9339548937
 10
140.9703662178
 20
99.6939637096
 10
140.1209321096
 20
99.4130683354
 10
139.3139850296
 20
99.0931380834
 10
138.5548950777
 20
98.7363020365
 10
137.848713872
 20
98.34493488
 10
137.2001409321
 20
97.9216410975
 10
136.6134924039
 20
97.4692376395
 10
136.0926723366
 20
96.9907351762
 10
135.6411467016
 20
96.4893180626
 10
135.2619203278
 20
95.9683231469
 10
134.9575169039
 20
95.4312175642
 10
134.7299621847
 20
94.8815756637
 10
134.5807705091
 20
94.3230552214
 10
134.5109347231
 20
93.7593730989
 10
134.5209195725
 20
93.1942805075
 10
134.6106586097
 20
92.6315380452
 10
134.7795546361
 20
92.0748906704
 10
135.0264836767
 20
91.5280427794
 10
135.3498024593
 20
90.9946335547
 10
135.7473593509
 20
90.4782127468
 10
136.2165086758
 20
89.9822170508
 10
136.7541283228
 20
89.5099472364
 10
137.3566405218
 20
89.0645461811
 10
138.0200356535
 20
88.6489779556
  0
LWPOLYLINE
  5
167
330
1F
100
AcDbEntity
  8
0
  6
Continuous
 62
     7
370
    15
100
AcDbPolyline
 90
       71
 70
   128
 43
0.0
 10
139.4342492159
 20
89.4083576005
 10
140.0965608879
 20
89.058879401
 10
140.8104720961
 20
88.7450811849
 10
141.5702348471
 20
88.4694894709
 10
142.3697319781
 20
88.2343231614
 10
143.2025264082
 20
88.0414756773
 10
144.0619129664
 20
87.892499713
 10
144.9409723774
 20
87.7885947356
 10
145.8326269717
 20
87.7305973267
 10
146.7296976707
 20
87.7189744474
 10
147.6249617888
 20
87.7538196784
 10
148.5112111856
 20
87.8348524661
 10
149.3813103021
 20
87.9614203824
 10
150.2282536118
 20
88.1325043768
 10
151.0452220252
 20
88.3467269815
 10
151.8256377929
 20
88.6023634022
 10
152.5632174662
 20
88.8973554045
 10
153.2520224871
 20
89.2293278865
 10
153.8865070027
 20
89.5956080008
 10
154.4615625166
 20
89.9932466754
 10
154.9725590201
 20
90.4190423575
 10
155.4153822697
 20
90.8695667905
 10
155.786466913
 20
91.3411926167
 10
156.0828251946
 20
91.8301225823
 10
156.302071012
 20
92.3324201105
 10
156.4424391267
 20
92.8440409971
 10
156.5027993772
 20
93.3608659716
 10
156.4826657782
 20
93.878733863
 10
156.3822004337
 20
94.3934751037
 10
156.2022122316
 20
94.9009452999
 10
155.9441503309
 20
95.3970585998
 10
155.6100924944
 20
95.877820591
 10
155.2027283593
 20
96.3393604606
 10
154.7253377823
 20
96.7779621609
 10
154.1817644314
 20
97.1900943289
 10
153.5763848396
 20
97.5724387187
 10
152.9140731676
 20
97.9219169181
 10
152.2001619595
 20
98.2357151342
 10
151.4403992084
 20
98.5113068482
 10
150.6409020774
 20
98.7464731577
 10
149.8081076473
 20
98.9393206419
 10
148.9487210892
 20
99.0882966061
 10
148.0696616782
 20
99.1922015835
 10
147.1780070839
 20
99.2501989924
 10
146.2809363848
 20
99.2618218717
 10
145.3856722668
 20
99.2269766408
 10
144.49942287
 20
99.145943853
 10
143.6293237535
 20
99.0193759367
 10
142.7823804438
 20
98.8482919423
 10
141.9654120304
 20
98.6340693376
 10
141.1849962626
 20
98.378432917
 10
140.4474165894
 20
98.0834409146
 10
139.7586115685
 20
97.7514684326
 10
139.1241270529
 20
97.3851883183
 10
138.549071539
 20
96.9875496437
 10
138.0380750355
 20
96.5617539616
 10
137.5952517859
 20
96.1112295286
 10
137.2241671426
 20
95.6396037024
 10
136.9278088609
 20
95.1506737369
 10
136.7085630436
 20
94.6483762086
 10
136.5681949289
 20
94.136755322
 10
136.5078346784
 20
93.6199303476
 10
136.5279682773
 20
93.1020624561
 10
136.6284336218
 20
92.5873212154
 10
136.808421824
 20
92.0798510193
 10
137.0664837247
 20
91.5837377193
 10
137.4005415612
 20
91.1029757281
 10
137.8079056962
 20
90.6414358585
 10
138.2852962733
 20
90.2028341583
 10
138.8288696242
 20
89.7907019903
 10
139.4342492159
 20
89.4083576005
  0
LWPOLYLINE
  5
168
330
1F
100
AcDbEntity
  8
0
  6
Continuous
 62
     7
370
    15
100
AcDbPolyline
 90
       30
 70
   128
 43
0.0
 10
138.0200356535
 20
82.9331922724
 10
138.7398989328
 20
82.5502224146
 10
139.5114397884
 20
82.2023995257
 10
140.329523743
 20
81.8920383097
 10
141.188706583
 20
81.6212041693
 10
142.0832705883
 20
81.3916994609
 10
143.0072625831
 20
81.2050515006
 10
143.9545335531
 20
81.0625023998
 10
144.9187795663
 20
80.9650007991
 10
145.8935837245
 20
80.9131955556
 10
146.872458867
 20
80.9074314248
 10
147.848890741
 20
80.9477467659
 10
148.8163813537
 20
81.0338732869
 10
149.7684922146
 20
81.1652378302
 10
150.698887183
 20
81.3409661863
 10
151.6013746339
 20
81.559888912
 10
152.4699486622
 20
81.8205491128
 10
153.2988290511
 20
82.1212121379
 10
154.0824997383
 20
82.4598771245
 10
154.8157455248
 20
82.8342903131
 10
155.4936867807
 20
83.2419600456
 10
156.1118119189
 20
83.6801733473
 10
156.6660074185
 20
84.1460139808
 10
157.1525852
 20
84.6363818537
 10
157.5683071685
 20
85.1480136487
 10
157.9104067629
 20
85.6775045405
 10
158.1766073667
 20
86.2213308547
 10
158.365137459
 20
86.7758735169
 10
158.4747424031
 20
87.3374421371
 10
158.5053170278
 20
87.8316409433
  0
LWPOLYLINE
  5
169
330
1F
100
AcDbEntity
  8
0
  6
Continuous
 62
     7
370
    15
100
AcDbPolyline
 90
       11
 70
   128
 43
0.0
 10
134.5053170278
 20
87.8316409433
 10
134.5209195725
 20
87.4784948243
 10
134.6106586097
 20
86.915752362
 10
134.7795546361
 20
86.3591049872
 10
135.0264836767
 20
85.8122570962
 10
135.3498024593
 20
85.2788478715
 10
135.7473593509
 20
84.7624270636
 10
136.2165086758
 20
84.2664313676
 10
136.7541283228
 20
83.7941615532
 10
137.3566405218
 20
83.3487604979
 10
138.0200356535
 20
82.9331922724
  0
ARC
  5
16A
330
1F
100
AcDbEntity
  8
0
  6
Continuous
 62
     7
370
    15
100
AcDbCircle
 10
149.9739172748
 20
85.5331896327
 30
0.0
 40
7.37695334405968
100
AcDbArc
 50
44.3452405953
 51
60.7684122257
  0
LWPOLYLINE
  5
16B
330
1F
100
AcDbEntity
  8
0
  6
Continuous
 62
     7
370
    15
100
AcDbPolyline
 90
       22
 70
   128
 43
0.0
 10
137.7611546662
 20
90.6895337849
 10
138.0380750355
 20
90.9600252123
 10
138.549071539
 20
91.3858208944
 10
139.1241270529
 20
91.783459569
 10
139.7586115685
 20
92.1497396833
 10
140.4474165894
 20
92.4817121653
 10
141.1849962626
 20
92.7767041677
 10
141.9654120304
 20
93.0323405883
 10
142.7823804438
 20
93.246563193
 10
143.6293237535
 20
93.4176471874
 10
144.49942287
 20
93.5442151037
 10
145.3856722668
 20
93.6252478915
 10
146.2809363848
 20
93.6600931224
 10
147.1780070839
 20
93.6484702431
 10
148.0696616782
 20
93.5904728342
 10
148.9487210892
 20
93.4865678568
 10
149.8081076473
 20
93.3375918925
 10
150.6409020774
 20
93.1447444084
 10
151.4403992084
 20
92.9095780989
 10
152.2001619595
 20
92.6339863849
 10
152.9140731676
 20
92.3201881688
 10
153.5763848396
 20
91.9707099694
  0
INSERT
  5
171
102
{ACAD_REACTORS
330
17B
102
}
330
1F
100
AcDbEntity
  8
0
  6
Continuous
 62
     7
370
     0
100
AcDbBlockReference
  2
SW_NOTE_1
 10
183.6672472303
 20
126.6801067637
 30
0.0
  0
LEADER
  5
17B
330
1F
100
AcDbEntity
  8
0
  6
Continuous
 62
     7
370
     0
100
AcDbLeader
  3
SLDDIMSTYLE2
 73
     2
 76
     3
 10
183.6054227405
 20
117.1461516
 30
0.0
 10
184.1672472303
 20
126.6801067637
 30
0.0
 10
183.6672472303
 20
126.6801067637
 30
0.0
340
171
  0
INSERT
  5
181
102
{ACAD_REACTORS
330
182
102
}
330
1F
100
AcDbEntity
  8
0
  6
Continuous
 62
     7
370
     0
100
AcDbBlockReference
  2
SW_NOTE_2
 10
161.8844186589
 20
118.1424391252
 30
0.0
  0
LEADER
  5
182
330
1F
100
AcDbEntity
  8
0
  6
Continuous
 62
     7
370
     0
100
AcDbLeader
  3
SLDDIMSTYLE2
 73
     2
 76
     3
 10
173.5957434402
 20
108.0196792968
 30
0.0
 10
162.3844186589
 20
118.1424391252
 30
0.0
 10
161.8844186589
 20
118.1424391252
 30
0.0
340
181
  0
INSERT
  5
188
102
{ACAD_REACTORS
330
189
102
}
330
1F
100
AcDbEntity
  8
0
  6
Continuous
 62
     7
370
     0
100
AcDbBlockReference
  2
SW_NOTE_3
 10
155.7019696793
 20
110.4879784838
 30
0.0
  0
LEADER
  5
189
330
1F
100
AcDbEntity
  8
0
  6
Continuous
 62
     7
370
     0
100
AcDbLeader
  3
SLDDIMSTYLE2
 73
     2
 76
     3
 10
160.0532361516
 20
101.8372303172
 30
0.0
 10
156.2019696793
 20
110.4879784838
 30
0.0
 10
155.7019696793
 20
110.4879784838
 30
0.0
340
188
  0
INSERT
  5
18F
102
{ACAD_REACTORS
330
191
102
}
330
1F
100
AcDbEntity
  8
0
  6
Continuous
 62
     7
370
     0
100
AcDbBlockReference
  2
SW_NOTE_4
 10
183.6760793003
 20
73.3255720699
 30
0.0
  0
LEADER
  5
191
330
1F
100
AcDbEntity
  8
0
  6
Continuous
 62
     7
370
     0
100
AcDbLeader
  3
SLDDIMSTYLE3
 73
     2
 76
     3
 10
165.7077344408
 20
91.1773965091
 30
0.0
 10
183.1760793003
 20
73.3255720699
 30
0.0
 10
183.6760793003
 20
73.3255720699
 30
0.0
340
18F
  0
LINE
  5
192
330
1F
100
AcDbEntity
  8
0
  6
Continuous
 62
     7
370
    15
100
AcDbLine
 10
114.9336726928
 20
91.5147703541
 30
0.0
 11
126.6039398372
 21
98.2518721733
 31
0.0
  0
LINE
  5
193
330
1F
100
AcDbEntity
  8
0
  6
Continuous
 62
     7
370
    15
100
AcDbLine
 10
123.104224273
 20
104.31421421
 30
0.0
 11
110.7298556022
 21
97.1706432315
 31
0.0
  0
LINE
  5
194
330
1F
100
AcDbEntity
  8
0
  6
Continuous
 62
     7
370
    15
100
AcDbLine
 10
110.7148534033
 20
91.3886363409
 30
0.0
 11
110.7148979442
 21
91.3886620538
 31
0.0
  0
LINE
  5
195
330
1F
100
AcDbEntity
  8
0
  6
Continuous
 62
     7
370
    15
100
AcDbLine
 10
109.2150198452
 20
93.986808641
 30
0.0
 11
109.2148711947
 21
93.9867228269
 31
0.0
  0
LINE
  5
196
330
1F
100
AcDbEntity
  8
0
  6
Continuous
 62
     7
370
    15
100
AcDbLine
 10
128.6037773024
 20
94.7876767238
 30
0.0
 11
129.3108840836
 21
95.1958807797
 31
0.0
  0
LINE
  5
197
330
1F
100
AcDbEntity
  8
0
  6
Continuous
 62
     7
370
    15
100
AcDbLine
 10
121.8114935889
 20
108.1866137154
 30
0.0
 11
121.1043868077
 21
107.7784096595
 31
0.0
  0
LINE
  5
198
330
1F
100
AcDbEntity
  8
0
  6
Continuous
 62
     7
370
    15
100
AcDbLine
 10
90.9337718383
 20
91.4866103
 30
0.0
 11
90.9337718383
 21
85.7708246168
 31
0.0
  0
LINE
  5
199
330
1F
100
AcDbEntity
  8
0
  6
Continuous
 62
     7
370
    15
100
AcDbLine
 10
114.9337718383
 20
85.7708246168
 30
0.0
 11
114.9337718383
 21
91.4866103
 31
0.0
  0
ARC
  5
19A
330
1F
100
AcDbEntity
  8
0
  6
Continuous
 62
     7
370
    15
100
AcDbCircle
 10
111.6788955628
 20
95.2717757152
 30
0.0
 40
1.354789989586183
100
AcDbArc
 50
53.7648170708
 51
112.1889407207
  0
ARC
  5
19B
330
1F
100
AcDbEntity
  8
0
  6
Continuous
 62
     7
370
    15
100
AcDbCircle
 10
110.15126605
 20
92.7756576716
 30
0.0
 40
4.278058658799169
100
AcDbArc
 50
11.5874472245
 51
57.0247553379
  0
ARC
  5
19C
330
1F
100
AcDbEntity
  8
0
  6
Continuous
 62
     7
370
    15
100
AcDbCircle
 10
123.8329718484
 20
102.7513562609
 30
0.0
 40
1.724412362991748
100
AcDbArc
 50
53.69029605
 51
114.9992455209
  0
LWPOLYLINE
  5
19D
330
1F
100
AcDbEntity
  8
0
  6
Continuous
 62
     7
370
    15
100
AcDbPolyline
 90
       17
 70
   128
 43
0.0
 10
126.6039398372
 20
98.2518721733
 10
126.7017070144
 20
98.3150024502
 10
126.9314055016
 20
98.5303720819
 10
127.1124132878
 20
98.8102619913
 10
127.240487704
 20
99.1481117961
 10
127.3126267945
 20
99.5360025835
 10
127.32713968
 20
99.9648425219
 10
127.2836861908
 20
100.4245799668
 10
127.18328484
 20
100.9044390621
 10
127.02828895
 20
101.3931723173
 10
126.8223314931
 20
101.8793242391
 10
126.5702399377
 20
102.3514998386
 10
126.277923096
 20
102.7986317198
 10
125.9522326271
 20
103.2102394905
 10
125.6008024396
 20
103.5766754133
 10
125.2318697591
 20
103.8893505409
 10
124.8540820551
 20
104.1409360332
  0
ARC
  5
19E
330
1F
100
AcDbEntity
  8
0
  6
Continuous
 62
     7
370
    15
100
AcDbCircle
 10
111.4967844013
 20
95.8264814333
 30
0.0
 40
1.528763500561696
100
AcDbArc
 50
49.9873397161
 51
135.175300601
  0
ARC
  5
19F
330
1F
100
AcDbEntity
  8
0
  6
Continuous
 62
     7
370
    15
100
AcDbCircle
 10
109.8150851841
 20
92.645148506
 30
0.0
 40
5.103139458467367
100
AcDbArc
 50
353.7644954229
 51
58.5231048888
  0
LWPOLYLINE
  5
1A0
330
1F
100
AcDbEntity
  8
0
  6
Continuous
 62
     7
370
    15
100
AcDbPolyline
 90
       20
 70
   128
 43
0.0
 10
130.157382914
 20
98.2215127723
 10
130.1292747598
 20
97.6080577107
 10
130.0452482506
 20
97.0335584095
 10
129.9061940883
 20
96.5041047041
 10
129.7135862817
 20
96.0253089355
 10
129.4694665213
 20
95.602246458
 10
129.1764225374
 20
95.2394018391
 10
128.8375606692
 20
94.940621322
 10
128.4564729367
 20
94.7090720545
 10
128.0371989646
 20
94.5472085165
 10
127.5841831615
 20
94.4567465018
 10
127.1022276074
 20
94.4386449301
 10
126.5964411512
 20
94.4930956827
 10
126.0721852552
 20
94.619521568
 10
125.5350171622
 20
94.8165824403
 10
124.9906309877
 20
95.0821894051
 10
124.4447973605
 20
95.4135269627
 10
123.9033022529
 20
95.8070828525
 10
123.3718856477
 20
96.2586852841
 10
123.2870455354
 20
96.3370698506
  0
LWPOLYLINE
  5
1A1
330
1F
100
AcDbEntity
  8
0
  6
Continuous
 62
     7
370
    15
100
AcDbPolyline
 90
       36
 70
   128
 43
0.0
 10
119.7873299711
 20
102.3994118872
 10
119.7256430916
 20
102.6840077628
 10
119.6139546671
 20
103.3656698192
 10
119.5578128964
 20
104.0252555152
 10
119.5578128964
 20
104.6557730784
 10
119.6139546671
 20
105.2505388658
 10
119.7256430916
 20
105.8032482121
 10
119.891694245
 20
106.3080422606
 10
120.1103479436
 20
106.7595700689
 10
120.3792864039
 20
107.15304533
 10
120.6956588114
 20
107.484297108
 10
121.0561115397
 20
107.7498140519
 10
121.4568237003
 20
107.9467816159
 10
121.8935476446
 20
108.0731118949
 10
122.3616539901
 20
108.1274657564
 10
122.8561806932
 20
108.1092670361
 10
123.3718856477
 20
108.0187086448
 10
123.9033022529
 20
107.8567505242
 10
124.4447973605
 20
107.6251094704
 10
124.9906309877
 20
107.3262409363
 10
125.5350171622
 20
106.9633130028
 10
126.0721852552
 20
106.5401727963
 10
126.5964411512
 20
106.061305708
 10
127.1022276074
 20
105.5317878484
 10
127.5841831615
 20
104.9572322385
 10
128.0371989646
 20
104.3437293107
 10
128.4564729367
 20
103.6977823486
 10
128.8375606692
 20
103.0262385507
 10
129.1764225374
 20
102.3362164483
 10
129.4694665213
 20
101.6350304475
 10
129.7135862817
 20
100.9301132941
 10
129.9061940883
 20
100.2289372855
 10
130.0452482506
 20
99.5389350617
 10
130.1292747598
 20
98.8674208179
 10
130.157382914
 20
98.2215127723
 10
130.157382914
 20
98.2215127723
  0
ARC
  5
1A2
330
1F
100
AcDbEntity
  8
0
  6
Continuous
 62
     7
370
    15
100
AcDbCircle
 10
127.1418623367
 20
98.2456083764
 30
0.0
 40
3.742391448321869
100
AcDbArc
 50
305.4211298259
 51
5.8910505675
  0
LWPOLYLINE
  5
1A3
330
1F
100
AcDbEntity
  8
0
  6
Continuous
 62
     7
370
    15
100
AcDbPolyline
 90
       24
 70
   128
 43
0.0
 10
121.8114935889
 20
108.1866137154
 10
122.1639304815
 20
108.3549856718
 10
122.6006544257
 20
108.4813159508
 10
123.0687607713
 20
108.5356698123
 10
123.5632874744
 20
108.517471092
 10
124.0789924289
 20
108.4269127008
 10
124.6104090341
 20
108.2649545801
 10
125.1519041417
 20
108.0333135263
 10
125.6977377689
 20
107.7344449923
 10
126.2421239434
 20
107.3715170588
 10
126.7792920364
 20
106.9483768522
 10
127.3035479324
 20
106.4695097639
 10
127.8093343886
 20
105.9399919044
 10
128.2912899427
 20
105.3654362944
 10
128.7443057458
 20
104.7519333666
 10
129.1635797179
 20
104.1059864045
 10
129.5446674504
 20
103.4344426066
 10
129.8835293186
 20
102.7444205043
 10
130.1765733025
 20
102.0432345034
 10
130.4206930628
 20
101.33831735
 10
130.6133008695
 20
100.6371413414
 10
130.7523550318
 20
99.9471391176
 10
130.8363815409
 20
99.2756248739
 10
130.8644896951
 20
98.6297168282
  0
LWPOLYLINE
  5
1A4
330
1F
100
AcDbEntity
  8
0
  6
Continuous
 62
     7
370
    15
100
AcDbPolyline
 90
       78
 70
   128
 43
0.0
 10
94.448490464
 20
86.588161629
 10
95.1683537433
 20
86.2051917712
 10
95.9398945989
 20
85.8573688824
 10
96.7579785535
 20
85.5470076664
 10
97.6171613935
 20
85.276173526
 10
98.5117253988
 20
85.0466688176
 10
99.4357173936
 20
84.8600208573
 10
100.3829883636
 20
84.7174717564
 10
101.3472343768
 20
84.6199701558
 10
102.322038535
 20
84.5681649123
 10
103.3009136775
 20
84.5624007815
 10
104.2773455515
 20
84.6027161225
 10
105.2448361642
 20
84.6888426436
 10
106.1969470251
 20
84.8202071869
 10
107.1273419935
 20
84.995935543
 10
108.0298294444
 20
85.2148582687
 10
108.8984034727
 20
85.4755184694
 10
109.7272838616
 20
85.7761814945
 10
110.5109545488
 20
86.1148464812
 10
111.2442003353
 20
86.4892596698
 10
111.9221415912
 20
86.8969294023
 10
112.5402667294
 20
87.3351427039
 10
113.094462229
 20
87.8009833375
 10
113.5810400105
 20
88.2913512104
 10
113.996761979
 20
88.8029830054
 10
114.3388615734
 20
89.3324738972
 10
114.6050621772
 20
89.8763002114
 10
114.7935922695
 20
90.4308428736
 10
114.9031972136
 20
90.9924114938
 10
114.9331476066
 20
91.5572689255
 10
114.8832441336
 20
92.1216561357
 10
114.7538188941
 20
92.6818172206
 10
114.5457331915
 20
93.2340244007
 10
114.260371802
 20
93.7746028283
 10
113.8996337585
 20
94.2999550431
 10
113.4659197131
 20
94.8065849127
 10
112.9621159613
 20
95.2911208991
 10
112.3915752339
 20
95.7503384952
 10
111.7580943854
 20
96.1811816835
 10
111.0658891262
 20
96.5807832739
 10
110.3195659682
 20
96.9464839836
 10
109.5240915688
 20
97.2758501348
 10
108.6847596789
 20
97.56668985
 10
107.8071559138
 20
97.8170676389
 10
106.8971205817
 20
98.0253172787
 10
105.9607098177
 20
98.1900529024
 10
105.0041552808
 20
98.3101782216
 10
104.0338226837
 20
98.384893822
 10
103.0561694297
 20
98.4137024837
 10
102.0777016399
 20
98.3964124899
 10
101.104930856
 20
98.3331389025
 10
100.1443307072
 20
98.2243027968
 10
99.2022938288
 20
98.0706284593
 10
98.285089321
 20
97.8731385671
 10
97.3988210283
 20
97.6331473831
 10
96.5493869201
 20
97.3522520089
 10
95.7424398401
 20
97.0323217568
 10
94.9833498882
 20
96.67548571
 10
94.2771686825
 20
96.2841185535
 10
93.6285957426
 20
95.860824771
 10
93.0419472144
 20
95.4084213129
 10
92.5211271471
 20
94.9299188496
 10
92.0696015121
 20
94.4285017361
 10
91.6903751383
 20
93.9075068203
 10
91.3859717144
 20
93.3704012377
 10
91.1584169952
 20
92.8207593372
 10
91.0092253196
 20
92.2622388949
 10
90.9393895336
 20
91.6985567723
 10
90.949374383
 20
91.1334641809
 10
91.0391134202
 20
90.5707217187
 10
91.2080094466
 20
90.0140743439
 10
91.4549384872
 20
89.4672264529
 10
91.7782572698
 20
88.9338172282
 10
92.1758141614
 20
88.4173964203
 10
92.6449634863
 20
87.9214007243
 10
93.1825831333
 20
87.4491309098
 10
93.7850953323
 20
87.0037298546
 10
94.448490464
 20
86.588161629
  0
LWPOLYLINE
  5
1A5
330
1F
100
AcDbEntity
  8
0
  6
Continuous
 62
     7
370
    15
100
AcDbPolyline
 90
       71
 70
   128
 43
0.0
 10
95.8627040264
 20
87.3475412739
 10
96.5250156984
 20
86.9980630745
 10
97.2389269066
 20
86.6842648584
 10
97.9986896576
 20
86.4086731444
 10
98.7981867886
 20
86.1735068349
 10
99.6309812187
 20
85.9806593507
 10
100.4903677769
 20
85.8316833865
 10
101.3694271879
 20
85.7277784091
 10
102.2610817822
 20
85.6697810002
 10
103.1581524812
 20
85.6581581209
 10
104.0534165993
 20
85.6930033518
 10
104.9396659961
 20
85.7740361396
 10
105.8097651126
 20
85.9006040559
 10
106.6567084223
 20
86.0716880503
 10
107.4736768357
 20
86.285910655
 10
108.2540926034
 20
86.5415470756
 10
108.9916722767
 20
86.836539078
 10
109.6804772976
 20
87.16851156
 10
110.3149618132
 20
87.5347916743
 10
110.8900173271
 20
87.9324303489
 10
111.4010138306
 20
88.358226031
 10
111.8438370802
 20
88.808750464
 10
112.2149217235
 20
89.2803762902
 10
112.5112800051
 20
89.7693062557
 10
112.7305258225
 20
90.271603784
 10
112.8708939372
 20
90.7832246706
 10
112.9312541877
 20
91.300049645
 10
112.9111205887
 20
91.8179175365
 10
112.8106552442
 20
92.3326587772
 10
112.630667042
 20
92.8401289733
 10
112.3726051414
 20
93.3362422733
 10
112.0385473049
 20
93.8170042645
 10
111.6311831698
 20
94.2785441341
 10
111.1537925928
 20
94.7171458343
 10
110.6102192419
 20
95.1292780023
 10
110.0048396501
 20
95.5116223921
 10
109.3425279781
 20
95.8611005916
 10
108.62861677
 20
96.1748988077
 10
107.8688540189
 20
96.4504905217
 10
107.0693568879
 20
96.6856568312
 10
106.2365624578
 20
96.8785043153
 10
105.3771758997
 20
97.0274802796
 10
104.4981164887
 20
97.131385257
 10
103.6064618944
 20
97.1893826659
 10
102.7093911953
 20
97.2010055451
 10
101.8141270772
 20
97.1661603142
 10
100.9278776804
 20
97.0851275265
 10
100.057778564
 20
96.9585596102
 10
99.2108352543
 20
96.7874756158
 10
98.3938668409
 20
96.5732530111
 10
97.6134510731
 20
96.3176165904
 10
96.8758713999
 20
96.0226245881
 10
96.187066379
 20
95.6906521061
 10
95.5525818634
 20
95.3243719918
 10
94.9775263495
 20
94.9267333172
 10
94.466529846
 20
94.5009376351
 10
94.0237065964
 20
94.0504132021
 10
93.6526219531
 20
93.5787873759
 10
93.3562636714
 20
93.0898574103
 10
93.137017854
 20
92.5875598821
 10
92.9966497393
 20
92.0759389955
 10
92.9362894889
 20
91.559114021
 10
92.9564230878
 20
91.0412461296
 10
93.0568884323
 20
90.5265048889
 10
93.2368766345
 20
90.0190346927
 10
93.4949385352
 20
89.5229213928
 10
93.8289963717
 20
89.0421594016
 10
94.2363605067
 20
88.580619532
 10
94.7137510838
 20
88.1420178317
 10
95.2573244347
 20
87.7298856637
 10
95.8627040264
 20
87.3475412739
  0
LWPOLYLINE
  5
1A6
330
1F
100
AcDbEntity
  8
0
  6
Continuous
 62
     7
370
    15
100
AcDbPolyline
 90
       30
 70
   128
 43
0.0
 10
94.448490464
 20
80.8723759458
 10
95.1683537433
 20
80.489406088
 10
95.9398945989
 20
80.1415831992
 10
96.7579785535
 20
79.8312219832
 10
97.6171613935
 20
79.5603878428
 10
98.5117253988
 20
79.3308831344
 10
99.4357173936
 20
79.1442351741
 10
100.3829883636
 20
79.0016860732
 10
101.3472343768
 20
78.9041844726
 10
102.322038535
 20
78.8523792291
 10
103.3009136775
 20
78.8466150983
 10
104.2773455515
 20
78.8869304393
 10
105.2448361642
 20
78.9730569604
 10
106.1969470251
 20
79.1044215037
 10
107.1273419935
 20
79.2801498598
 10
108.0298294444
 20
79.4990725855
 10
108.8984034727
 20
79.7597327862
 10
109.7272838616
 20
80.0603958113
 10
110.5109545488
 20
80.399060798
 10
111.2442003353
 20
80.7734739866
 10
111.9221415912
 20
81.1811437191
 10
112.5402667294
 20
81.6193570207
 10
113.094462229
 20
82.0851976543
 10
113.5810400105
 20
82.5755655272
 10
113.996761979
 20
83.0871973222
 10
114.3388615734
 20
83.616688214
 10
114.6050621772
 20
84.1605145282
 10
114.7935922695
 20
84.7150571904
 10
114.9031972136
 20
85.2766258106
 10
114.9337718383
 20
85.7708246168
  0
LWPOLYLINE
  5
1A7
330
1F
100
AcDbEntity
  8
0
  6
Continuous
 62
     7
370
    15
100
AcDbPolyline
 90
       11
 70
   128
 43
0.0
 10
90.9337718383
 20
85.7708246168
 10
90.949374383
 20
85.4176784977
 10
91.0391134202
 20
84.8549360355
 10
91.2080094466
 20
84.2982886607
 10
91.4549384872
 20
83.7514407697
 10
91.7782572698
 20
83.218031545
 10
92.1758141614
 20
82.7016107371
 10
92.6449634863
 20
82.2056150411
 10
93.1825831333
 20
81.7333452266
 10
93.7850953323
 20
81.2879441714
 10
94.448490464
 20
80.8723759458
  0
ARC
  5
1A8
330
1F
100
AcDbEntity
  8
0
  6
Continuous
 62
     7
370
    15
100
AcDbCircle
 10
106.4023720853
 20
83.4723733062
 30
0.0
 40
7.376953344053778
100
AcDbArc
 50
44.3452405953
 51
60.7684122257
  0
LWPOLYLINE
  5
1A9
330
1F
100
AcDbEntity
  8
0
  6
Continuous
 62
     7
370
    15
100
AcDbPolyline
 90
       22
 70
   128
 43
0.0
 10
94.1896094767
 20
88.6287174584
 10
94.466529846
 20
88.8992088858
 10
94.9775263495
 20
89.3250045679
 10
95.5525818634
 20
89.7226432425
 10
96.187066379
 20
90.0889233568
 10
96.8758713999
 20
90.4208958388
 10
97.6134510731
 20
90.7158878411
 10
98.3938668409
 20
90.9715242617
 10
99.2108352543
 20
91.1857468665
 10
100.057778564
 20
91.3568308608
 10
100.9278776804
 20
91.4833987771
 10
101.8141270772
 20
91.5644315649
 10
102.7093911953
 20
91.5992767958
 10
103.6064618944
 20
91.5876539166
 10
104.4981164887
 20
91.5296565077
 10
105.3771758997
 20
91.4257515302
 10
106.2365624578
 20
91.276775566
 10
107.0693568879
 20
91.0839280819
 10
107.8688540189
 20
90.8487617724
 10
108.62861677
 20
90.5731700584
 10
109.3425279781
 20
90.2593718423
 10
110.0048396501
 20
89.9098936428
  0
ENDSEC
  0
SECTION
  2
OBJECTS
  0
DICTIONARY
  5
C
330
0
100
AcDbDictionary
281
     1
  3
ACAD_GROUP
350
D
  3
ACAD_IMAGE_DICT
350
89
  3
ACAD_IMAGE_VARS
350
1AC
  3
ACAD_LAYOUT
350
1A
  3
ACAD_MLINESTYLE
350
17
  3
ACAD_PLOTSETTINGS
350
19
  3
ACAD_PLOTSTYLENAME
350
E
  3
ACAD_SCALELIST
350
48
  3
AcDbVariableDictionary
350
1AA
  0
IMAGEDEF_REACTOR
  5
8C
330
8B
100
AcDbRasterImageDefReactor
 90
        2
330
8B
  0
DICTIONARY
  5
D
102
{ACAD_REACTORS
330
C
102
}
330
C
100
AcDbDictionary
281
     1
  0
DICTIONARY
  5
89
102
{ACAD_REACTORS
330
C
102
}
330
C
100
AcDbDictionary
281
     1
  3
P:\Navision\dxf\dxfE521.bmp
350
8A
  0
RASTERVARIABLES
  5
1AC
102
{ACAD_REACTORS
330
C
102
}
330
C
100
AcDbRasterVariables
 90
        0
 70
     1
 71
     1
 72
     1
  0
DICTIONARY
  5
1A
102
{ACAD_REACTORS
330
C
102
}
330
C
100
AcDbDictionary
281
     1
  3
Layout1
350
1E
  3
Layout2
350
26
  3
Model
350
22
  0
DICTIONARY
  5
17
102
{ACAD_REACTORS
330
C
102
}
330
C
100
AcDbDictionary
281
     1
  3
Standard
350
18
  0
DICTIONARY
  5
19
102
{ACAD_REACTORS
330
C
102
}
330
C
100
AcDbDictionary
281
     1
  0
ACDBDICTIONARYWDFLT
  5
E
102
{ACAD_REACTORS
330
C
102
}
330
C
100
AcDbDictionary
281
     1
  3
Normal
350
F
100
AcDbDictionaryWithDefault
340
F
  0
DICTIONARY
  5
48
102
{ACAD_REACTORS
330
C
102
}
330
C
100
AcDbDictionary
281
     1
  3
A0
350
49
  3
A1
350
4A
  3
A2
350
4B
  3
A3
350
4C
  3
A4
350
4D
  3
A5
350
4E
  3
A6
350
4F
  3
A7
350
50
  3
A8
350
51
  3
A9
350
52
  3
B0
350
53
  3
B1
350
54
  3
B2
350
55
  3
B3
350
56
  3
B4
350
57
  3
B5
350
58
  3
B6
350
59
  3
B7
350
5A
  3
B8
350
5B
  3
B9
350
5C
  3
C0
350
5D
  3
C1
350
5E
  3
C2
350
5F
  3
C3
350
60
  3
C4
350
61
  3
C5
350
62
  3
C6
350
63
  3
C7
350
64
  3
C8
350
65
  3
C9
350
66
  3
D0
350
67
  3
D1
350
68
  3
D2
350
69
  0
DICTIONARY
  5
1AA
102
{ACAD_REACTORS
330
C
102
}
330
C
100
AcDbDictionary
281
     1
  3
CANNOSCALE
350
1AB
  0
IMAGEDEF
  5
8A
102
{ACAD_REACTORS
330
89
330
8C
102
}
330
89
100
AcDbRasterImageDef
 90
        0
  1
P:\Navision\dxf\dxfE521.bmp
 10
1034.0
 20
1045.0
 11
0.2116850127011008
 21
0.2116850127011008
280
     1
281
     3
  0
LAYOUT
  5
1E
102
{ACAD_REACTORS
330
1A
102
}
330
1A
100
AcDbPlotSettings
  1

  2
none_device
  4

  6

 40
0.0
 41
0.0
 42
0.0
 43
0.0
 44
0.0
 45
0.0
 46
0.0
 47
0.0
 48
0.0
 49
0.0
140
0.0
141
0.0
142
1.0
143
1.0
 70
   688
 72
     0
 73
     0
 74
     5
  7

 75
    16
147
1.0
148
0.0
149
0.0
100
AcDbLayout
  1
Layout1
 70
     1
 71
     1
 10
0.0
 20
0.0
 11
420.0
 21
297.0
 12
0.0
 22
0.0
 32
0.0
 14
1.0000000000E+20
 24
1.0000000000E+20
 34
1.0000000000E+20
 15
-1.0000000000E+20
 25
-1.0000000000E+20
 35
-1.0000000000E+20
146
0.0
 13
0.0
 23
0.0
 33
0.0
 16
1.0
 26
0.0
 36
0.0
 17
0.0
 27
1.0
 37
0.0
 76
     0
330
1B
  0
LAYOUT
  5
26
102
{ACAD_REACTORS
330
1A
102
}
330
1A
100
AcDbPlotSettings
  1

  2
none_device
  4

  6

 40
0.0
 41
0.0
 42
0.0
 43
0.0
 44
0.0
 45
0.0
 46
0.0
 47
0.0
 48
0.0
 49
0.0
140
0.0
141
0.0
142
1.0
143
1.0
 70
   688
 72
     0
 73
     0
 74
     5
  7

 75
    16
147
1.0
148
0.0
149
0.0
100
AcDbLayout
  1
Layout2
 70
     1
 71
     2
 10
0.0
 20
0.0
 11
0.0
 21
0.0
 12
0.0
 22
0.0
 32
0.0
 14
0.0
 24
0.0
 34
0.0
 15
0.0
 25
0.0
 35
0.0
146
0.0
 13
0.0
 23
0.0
 33
0.0
 16
1.0
 26
0.0
 36
0.0
 17
0.0
 27
1.0
 37
0.0
 76
     0
330
23
  0
LAYOUT
  5
22
102
{ACAD_REACTORS
330
1A
102
}
330
1A
100
AcDbPlotSettings
  1

  2
none_device
  4

  6

 40
0.0
 41
0.0
 42
0.0
 43
0.0
 44
0.0
 45
0.0
 46
0.0
 47
0.0
 48
0.0
 49
0.0
140
0.0
141
0.0
142
1.0
143
1.0
 70
  1712
 72
     0
 73
     0
 74
     0
  7

 75
     0
147
1.0
148
0.0
149
0.0
100
AcDbLayout
  1
Model
 70
     1
 71
     0
 10
0.0
 20
0.0
 11
210.0
 21
297.0
 12
0.0
 22
0.0
 32
0.0
 14
0.0
 24
0.0
 34
0.0
 15
210.0
 25
297.0
 35
0.0
146
0.0
 13
0.0
 23
0.0
 33
0.0
 16
1.0
 26
0.0
 36
0.0
 17
0.0
 27
1.0
 37
0.0
 76
     0
330
1F
331
29
  0
MLINESTYLE
  5
18
102
{ACAD_REACTORS
330
17
102
}
330
17
100
AcDbMlineStyle
  2
Standard
 70
     0
  3

 62
   256
 51
90.0
 52
90.0
 71
     2
 49
0.5
 62
   256
  6
BYLAYER
 49
-0.5
 62
   256
  6
BYLAYER
  0
ACDBPLACEHOLDER
  5
F
102
{ACAD_REACTORS
330
E
102
}
330
E
  0
SCALE
  5
49
102
{ACAD_REACTORS
330
48
102
}
330
48
100
AcDbScale
 70
     0
300
1:1
140
1.0
141
1.0
290
     1
  0
SCALE
  5
4A
102
{ACAD_REACTORS
330
48
102
}
330
48
100
AcDbScale
 70
     0
300
1:2
140
1.0
141
2.0
290
     0
  0
SCALE
  5
4B
102
{ACAD_REACTORS
330
48
102
}
330
48
100
AcDbScale
 70
     0
300
1:4
140
1.0
141
4.0
290
     0
  0
SCALE
  5
4C
102
{ACAD_REACTORS
330
48
102
}
330
48
100
AcDbScale
 70
     0
300
1:5
140
1.0
141
5.0
290
     0
  0
SCALE
  5
4D
102
{ACAD_REACTORS
330
48
102
}
330
48
100
AcDbScale
 70
     0
300
1:8
140
1.0
141
8.0
290
     0
  0
SCALE
  5
4E
102
{ACAD_REACTORS
330
48
102
}
330
48
100
AcDbScale
 70
     0
300
1:10
140
1.0
141
10.0
290
     0
  0
SCALE
  5
4F
102
{ACAD_REACTORS
330
48
102
}
330
48
100
AcDbScale
 70
     0
300
1:16
140
1.0
141
16.0
290
     0
  0
SCALE
  5
50
102
{ACAD_REACTORS
330
48
102
}
330
48
100
AcDbScale
 70
     0
300
1:20
140
1.0
141
20.0
290
     0
  0
SCALE
  5
51
102
{ACAD_REACTORS
330
48
102
}
330
48
100
AcDbScale
 70
     0
300
1:30
140
1.0
141
30.0
290
     0
  0
SCALE
  5
52
102
{ACAD_REACTORS
330
48
102
}
330
48
100
AcDbScale
 70
     0
300
1:40
140
1.0
141
40.0
290
     0
  0
SCALE
  5
53
102
{ACAD_REACTORS
330
48
102
}
330
48
100
AcDbScale
 70
     0
300
1:50
140
1.0
141
50.0
290
     0
  0
SCALE
  5
54
102
{ACAD_REACTORS
330
48
102
}
330
48
100
AcDbScale
 70
     0
300
1:100
140
1.0
141
100.0
290
     0
  0
SCALE
  5
55
102
{ACAD_REACTORS
330
48
102
}
330
48
100
AcDbScale
 70
     0
300
2:1
140
2.0
141
1.0
290
     0
  0
SCALE
  5
56
102
{ACAD_REACTORS
330
48
102
}
330
48
100
AcDbScale
 70
     0
300
4:1
140
4.0
141
1.0
290
     0
  0
SCALE
  5
57
102
{ACAD_REACTORS
330
48
102
}
330
48
100
AcDbScale
 70
     0
300
8:1
140
8.0
141
1.0
290
     0
  0
SCALE
  5
58
102
{ACAD_REACTORS
330
48
102
}
330
48
100
AcDbScale
 70
     0
300
10:1
140
10.0
141
1.0
290
     0
  0
SCALE
  5
59
102
{ACAD_REACTORS
330
48
102
}
330
48
100
AcDbScale
 70
     0
300
100:1
140
100.0
141
1.0
290
     0
  0
SCALE
  5
5A
102
{ACAD_REACTORS
330
48
102
}
330
48
100
AcDbScale
 70
     0
300
1/128" = 1'-0"
140
0.0078125
141
12.0
290
     0
  0
SCALE
  5
5B
102
{ACAD_REACTORS
330
48
102
}
330
48
100
AcDbScale
 70
     0
300
1/64" = 1'-0"
140
0.015625
141
12.0
290
     0
  0
SCALE
  5
5C
102
{ACAD_REACTORS
330
48
102
}
330
48
100
AcDbScale
 70
     0
300
1/32" = 1'-0"
140
0.03125
141
12.0
290
     0
  0
SCALE
  5
5D
102
{ACAD_REACTORS
330
48
102
}
330
48
100
AcDbScale
 70
     0
300
1/16" = 1'-0"
140
0.0625
141
12.0
290
     0
  0
SCALE
  5
5E
102
{ACAD_REACTORS
330
48
102
}
330
48
100
AcDbScale
 70
     0
300
3/32" = 1'-0"
140
0.09375
141
12.0
290
     0
  0
SCALE
  5
5F
102
{ACAD_REACTORS
330
48
102
}
330
48
100
AcDbScale
 70
     0
300
1/8" = 1'-0"
140
0.125
141
12.0
290
     0
  0
SCALE
  5
60
102
{ACAD_REACTORS
330
48
102
}
330
48
100
AcDbScale
 70
     0
300
3/16" = 1'-0"
140
0.1875
141
12.0
290
     0
  0
SCALE
  5
61
102
{ACAD_REACTORS
330
48
102
}
330
48
100
AcDbScale
 70
     0
300
1/4" = 1'-0"
140
0.25
141
12.0
290
     0
  0
SCALE
  5
62
102
{ACAD_REACTORS
330
48
102
}
330
48
100
AcDbScale
 70
     0
300
3/8" = 1'-0"
140
0.375
141
12.0
290
     0
  0
SCALE
  5
63
102
{ACAD_REACTORS
330
48
102
}
330
48
100
AcDbScale
 70
     0
300
1/2" = 1'-0"
140
0.5
141
12.0
290
     0
  0
SCALE
  5
64
102
{ACAD_REACTORS
330
48
102
}
330
48
100
AcDbScale
 70
     0
300
3/4" = 1'-0"
140
0.75
141
12.0
290
     0
  0
SCALE
  5
65
102
{ACAD_REACTORS
330
48
102
}
330
48
100
AcDbScale
 70
     0
300
1" = 1'-0"
140
1.0
141
12.0
290
     0
  0
SCALE
  5
66
102
{ACAD_REACTORS
330
48
102
}
330
48
100
AcDbScale
 70
     0
300
1-1/2" = 1'-0"
140
1.5
141
12.0
290
     0
  0
SCALE
  5
67
102
{ACAD_REACTORS
330
48
102
}
330
48
100
AcDbScale
 70
     0
300
3" = 1'-0"
140
3.0
141
12.0
290
     0
  0
SCALE
  5
68
102
{ACAD_REACTORS
330
48
102
}
330
48
100
AcDbScale
 70
     0
300
6" = 1'-0"
140
6.0
141
12.0
290
     0
  0
SCALE
  5
69
102
{ACAD_REACTORS
330
48
102
}
330
48
100
AcDbScale
 70
     0
300
1'-0" = 1'-0"
140
12.0
141
12.0
290
     0
  0
DICTIONARYVAR
  5
1AB
102
{ACAD_REACTORS
330
1AA
102
}
330
1AA
100
DictionaryVariables
280
     0
  1
1:1
  0
ENDSEC
  0
EOF
