  0
SECTION
  2
HEADER
  9
$ACADVER
  1
AC1021
  9
$ACADMAINTVER
 70
     1
  9
$DWGCODEPAGE
  3
ANSI_1252
  9
$LASTSAVEDBY
  1
fottrem
  9
$INSBASE
 10
0.0
 20
0.0
 30
0.0
  9
$EXTMIN
 10
-5.852088719303765
 20
-2.529920391020823
 30
0.0
  9
$EXTMAX
 10
202.1112457466011
 20
287.759506299592
 30
0.0
  9
$LIMMIN
 10
0.0
 20
0.0
  9
$LIMMAX
 10
12.0
 20
9.0
  9
$ORTHOMODE
 70
     0
  9
$REGENMODE
 70
     1
  9
$FILLMODE
 70
     1
  9
$QTEXTMODE
 70
     0
  9
$MIRRTEXT
 70
     1
  9
$LTSCALE
 40
10.0
  9
$ATTMODE
 70
     1
  9
$TEXTSIZE
 40
2.0
  9
$TRACEWID
 40
0.05
  9
$TEXTSTYLE
  7
ROMANS
  9
$CLAYER
  8
VIEWPORT
  9
$CELTYPE
  6
ByLayer
  9
$CECOLOR
 62
   256
  9
$CELTSCALE
 40
1.0
  9
$DISPSILH
 70
     0
  9
$DIMSCALE
 40
2.0
  9
$DIMASZ
 40
3.5
  9
$DIMEXO
 40
1.0
  9
$DIMDLI
 40
10.0
  9
$DIMRND
 40
0.0
  9
$DIMDLE
 40
0.0
  9
$DIMEXE
 40
2.0
  9
$DIMTP
 40
0.0
  9
$DIMTM
 40
0.0
  9
$DIMTXT
 40
3.5
  9
$DIMCEN
 40
-3.0
  9
$DIMTSZ
 40
0.0
  9
$DIMTOL
 70
     0
  9
$DIMLIM
 70
     0
  9
$DIMTIH
 70
     0
  9
$DIMTOH
 70
     0
  9
$DIMSE1
 70
     0
  9
$DIMSE2
 70
     0
  9
$DIMTAD
 70
     1
  9
$DIMZIN
 70
     8
  9
$DIMBLK
  1

  9
$DIMASO
 70
     1
  9
$DIMSHO
 70
     1
  9
$DIMPOST
  1

  9
$DIMAPOST
  1

  9
$DIMALT
 70
     0
  9
$DIMALTD
 70
     2
  9
$DIMALTF
 40
25.4
  9
$DIMLFAC
 40
1.0
  9
$DIMTOFL
 70
     1
  9
$DIMTVP
 40
0.0
  9
$DIMTIX
 70
     0
  9
$DIMSOXD
 70
     0
  9
$DIMSAH
 70
     0
  9
$DIMBLK1
  1

  9
$DIMBLK2
  1

  9
$DIMSTYLE
  2
ROMANS
  9
$DIMCLRD
 70
     0
  9
$DIMCLRE
 70
     0
  9
$DIMCLRT
 70
     4
  9
$DIMTFAC
 40
1.0
  9
$DIMGAP
 40
2.0
  9
$DIMJUST
 70
     0
  9
$DIMSD1
 70
     0
  9
$DIMSD2
 70
     0
  9
$DIMTOLJ
 70
     1
  9
$DIMTZIN
 70
     0
  9
$DIMALTZ
 70
     0
  9
$DIMALTTZ
 70
     0
  9
$DIMUPT
 70
     0
  9
$DIMDEC
 70
     2
  9
$DIMTDEC
 70
     2
  9
$DIMALTU
 70
     2
  9
$DIMALTTD
 70
     2
  9
$DIMTXSTY
  7
ROMANS
  9
$DIMAUNIT
 70
     0
  9
$DIMADEC
 70
     0
  9
$DIMALTRND
 40
0.0
  9
$DIMAZIN
 70
     0
  9
$DIMDSEP
 70
    46
  9
$DIMATFIT
 70
     3
  9
$DIMFRAC
 70
     0
  9
$DIMLDRBLK
  1

  9
$DIMLUNIT
 70
     2
  9
$DIMLWD
 70
    -2
  9
$DIMLWE
 70
    -2
  9
$DIMTMOVE
 70
     0
  9
$DIMFXL
 40
1.0
  9
$DIMFXLON
 70
     0
  9
$DIMJOGANG
 40
0.7853981633974483
  9
$DIMTFILL
 70
     0
  9
$DIMTFILLCLR
 70
     0
  9
$DIMARCSYM
 70
     0
  9
$DIMLTYPE
  6

  9
$DIMLTEX1
  6

  9
$DIMLTEX2
  6

  9
$LUNITS
 70
     2
  9
$LUPREC
 70
     4
  9
$SKETCHINC
 40
0.1
  9
$FILLETRAD
 40
0.0
  9
$AUNITS
 70
     0
  9
$AUPREC
 70
     0
  9
$MENU
  1
.
  9
$ELEVATION
 40
0.0
  9
$PELEVATION
 40
0.0
  9
$THICKNESS
 40
0.0
  9
$LIMCHECK
 70
     0
  9
$CHAMFERA
 40
0.0
  9
$CHAMFERB
 40
0.0
  9
$CHAMFERC
 40
0.0
  9
$CHAMFERD
 40
0.0
  9
$SKPOLY
 70
     0
  9
$TDCREATE
 40
2453353.758792488
  9
$TDUCREATE
 40
2453353.717125822
  9
$TDUPDATE
 40
2450905.581912268
  9
$TDUUPDATE
 40
2450905.540245602
  9
$TDINDWG
 40
0.0471379398
  9
$TDUSRTIMER
 40
0.0471379398
  9
$USRTIMER
 70
     1
  9
$ANGBASE
 50
0.0
  9
$ANGDIR
 70
     0
  9
$PDMODE
 70
     0
  9
$PDSIZE
 40
0.0
  9
$PLINEWID
 40
0.0
  9
$SPLFRAME
 70
     0
  9
$SPLINETYPE
 70
     6
  9
$SPLINESEGS
 70
     8
  9
$HANDSEED
  5
7B63
  9
$SURFTAB1
 70
     6
  9
$SURFTAB2
 70
     6
  9
$SURFTYPE
 70
     6
  9
$SURFU
 70
     6
  9
$SURFV
 70
     6
  9
$UCSBASE
  2

  9
$UCSNAME
  2

  9
$UCSORG
 10
0.0
 20
0.0
 30
0.0
  9
$UCSXDIR
 10
1.0
 20
0.0
 30
0.0
  9
$UCSYDIR
 10
0.0
 20
1.0
 30
0.0
  9
$UCSORTHOREF
  2

  9
$UCSORTHOVIEW
 70
     0
  9
$UCSORGTOP
 10
0.0
 20
0.0
 30
0.0
  9
$UCSORGBOTTOM
 10
0.0
 20
0.0
 30
0.0
  9
$UCSORGLEFT
 10
0.0
 20
0.0
 30
0.0
  9
$UCSORGRIGHT
 10
0.0
 20
0.0
 30
0.0
  9
$UCSORGFRONT
 10
0.0
 20
0.0
 30
0.0
  9
$UCSORGBACK
 10
0.0
 20
0.0
 30
0.0
  9
$PUCSBASE
  2

  9
$PUCSNAME
  2

  9
$PUCSORG
 10
0.0
 20
0.0
 30
0.0
  9
$PUCSXDIR
 10
1.0
 20
0.0
 30
0.0
  9
$PUCSYDIR
 10
0.0
 20
1.0
 30
0.0
  9
$PUCSORTHOREF
  2

  9
$PUCSORTHOVIEW
 70
     0
  9
$PUCSORGTOP
 10
0.0
 20
0.0
 30
0.0
  9
$PUCSORGBOTTOM
 10
0.0
 20
0.0
 30
0.0
  9
$PUCSORGLEFT
 10
0.0
 20
0.0
 30
0.0
  9
$PUCSORGRIGHT
 10
0.0
 20
0.0
 30
0.0
  9
$PUCSORGFRONT
 10
0.0
 20
0.0
 30
0.0
  9
$PUCSORGBACK
 10
0.0
 20
0.0
 30
0.0
  9
$USERI1
 70
     0
  9
$USERI2
 70
     0
  9
$USERI3
 70
     0
  9
$USERI4
 70
     0
  9
$USERI5
 70
     0
  9
$USERR1
 40
0.0
  9
$USERR2
 40
0.0
  9
$USERR3
 40
0.0
  9
$USERR4
 40
0.0
  9
$USERR5
 40
0.0
  9
$WORLDVIEW
 70
     1
  9
$SHADEDGE
 70
     3
  9
$SHADEDIF
 70
    70
  9
$TILEMODE
 70
     0
  9
$MAXACTVP
 70
    16
  9
$PINSBASE
 10
0.0
 20
0.0
 30
0.0
  9
$PLIMCHECK
 70
     0
  9
$PEXTMIN
 10
0.0
 20
0.0
 30
0.0
  9
$PEXTMAX
 10
0.0
 20
0.0
 30
0.0
  9
$PLIMMIN
 10
0.0
 20
0.0
  9
$PLIMMAX
 10
0.0
 20
0.0
  9
$UNITMODE
 70
     0
  9
$VISRETAIN
 70
     0
  9
$PLINEGEN
 70
     0
  9
$PSLTSCALE
 70
     1
  9
$TREEDEPTH
 70
  3020
  9
$CMLSTYLE
  2
Standard
  9
$CMLJUST
 70
     0
  9
$CMLSCALE
 40
1.0
  9
$PROXYGRAPHICS
 70
     1
  9
$MEASUREMENT
 70
     0
  9
$CELWEIGHT
370
    -1
  9
$ENDCAPS
280
     0
  9
$JOINSTYLE
280
     0
  9
$LWDISPLAY
290
     0
  9
$INSUNITS
 70
     0
  9
$HYPERLINKBASE
  1

  9
$STYLESHEET
  1

  9
$XEDIT
290
     0
  9
$CEPSNTYPE
380
     0
  9
$PSTYLEMODE
290
     1
  9
$FINGERPRINTGUID
  2
{6D865BA6-2F3F-4494-ABB5-5194AE2F3D25}
  9
$VERSIONGUID
  2
{FAEB1C32-E019-11D5-929B-00C0DF256EC4}
  9
$EXTNAMES
290
     1
  9
$PSVPSCALE
 40
0.0
  9
$OLESTARTUP
290
     0
  9
$SORTENTS
280
   127
  9
$INDEXCTL
280
     0
  9
$HIDETEXT
280
     1
  9
$XCLIPFRAME
290
     0
  9
$HALOGAP
280
     0
  9
$OBSCOLOR
 70
   257
  9
$OBSLTYPE
280
     0
  9
$INTERSECTIONDISPLAY
280
     0
  9
$INTERSECTIONCOLOR
 70
   257
  9
$DIMASSOC
280
     2
  9
$PROJECTNAME
  1

  9
$CAMERADISPLAY
290
     0
  9
$LENSLENGTH
 40
50.0
  9
$CAMERAHEIGHT
 40
0.0
  9
$STEPSPERSEC
 40
2.0
  9
$STEPSIZE
 40
6.0
  9
$3DDWFPREC
 40
2.0
  9
$PSOLWIDTH
 40
0.25
  9
$PSOLHEIGHT
 40
4.0
  9
$LOFTANG1
 40
1.570796326794897
  9
$LOFTANG2
 40
1.570796326794897
  9
$LOFTMAG1
 40
0.0
  9
$LOFTMAG2
 40
0.0
  9
$LOFTPARAM
 70
     7
  9
$LOFTNORMALS
280
     1
  9
$LATITUDE
 40
37.795
  9
$LONGITUDE
 40
-122.394
  9
$NORTHDIRECTION
 40
0.0
  9
$TIMEZONE
 70
 -8000
  9
$LIGHTGLYPHDISPLAY
280
     1
  9
$TILEMODELIGHTSYNCH
280
     1
  9
$SOLIDHIST
280
     1
  9
$SHOWHIST
280
     1
  9
$DWFFRAME
280
     2
  9
$DGNFRAME
280
     2
  9
$REALWORLDSCALE
290
     1
  9
$INTERFERECOLOR
 62
   256
  9
$CSHADOW
280
     0
  9
$SHADOWPLANELOCATION
 40
0.0
  0
ENDSEC
  0
SECTION
  2
CLASSES
  0
CLASS
  1
ACDBDICTIONARYWDFLT
  2
AcDbDictionaryWithDefault
  3
ObjectDBX Classes
 90
        0
 91
        3
280
     0
281
     0
  0
CLASS
  1
ACDBPLACEHOLDER
  2
AcDbPlaceHolder
  3
ObjectDBX Classes
 90
        0
 91
        1
280
     0
281
     0
  0
CLASS
  1
LAYOUT
  2
AcDbLayout
  3
ObjectDBX Classes
 90
        0
 91
        1
280
     0
281
     0
  0
CLASS
  1
DICTIONARYVAR
  2
AcDbDictionaryVar
  3
ObjectDBX Classes
 90
        0
 91
        3
280
     0
281
     0
  0
CLASS
  1
TABLESTYLE
  2
AcDbTableStyle
  3
ObjectDBX Classes
 90
     4095
 91
        3
280
     0
281
     0
  0
ENDSEC
  0
SECTION
  2
TABLES
  0
TABLE
  2
VPORT
  5
8
330
0
100
AcDbSymbolTable
 70
     1
  0
VPORT
  5
97
330
8
100
AcDbSymbolTableRecord
100
AcDbViewportTableRecord
  2
*ACTIVE
 70
     0
 10
0.0
 20
0.0
 11
1.0
 21
1.0
 12
179.0642278018169
 22
160.4118490568324
 13
0.0
 23
0.0
 14
10.0
 24
10.0
 15
10.0
 25
10.0
 16
0.0
 26
0.0
 36
1.0
 17
0.0
 27
0.0
 37
0.0
 40
396.535650413652
 41
1.752613240418119
 42
50.0
 43
0.0
 44
0.0
 50
0.0
 51
0.0
 71
    16
 72
 20000
 73
     1
 74
     1
 75
     0
 76
     1
 77
     0
 78
     0
281
     0
 65
     0
110
0.0
120
0.0
130
0.0
111
1.0
121
0.0
131
0.0
112
0.0
122
1.0
132
0.0
 79
     0
146
0.0
 60
     3
 61
     5
292
     1
282
     1
141
0.0
142
0.0
 63
   256
  0
ENDTAB
  0
TABLE
  2
LTYPE
  5
5
330
0
100
AcDbSymbolTable
 70
     3
  0
LTYPE
  5
14
330
5
100
AcDbSymbolTableRecord
100
AcDbLinetypeTableRecord
  2
ByBlock
 70
     0
  3

 72
    65
 73
     0
 40
0.0
  0
LTYPE
  5
15
330
5
100
AcDbSymbolTableRecord
100
AcDbLinetypeTableRecord
  2
ByLayer
 70
     0
  3

 72
    65
 73
     0
 40
0.0
  0
LTYPE
  5
16
330
5
100
AcDbSymbolTableRecord
100
AcDbLinetypeTableRecord
  2
Continuous
 70
     0
  3
Solid line
 72
    65
 73
     0
 40
0.0
  0
LTYPE
  5
7B40
330
5
100
AcDbSymbolTableRecord
100
AcDbLinetypeTableRecord
  2
CENTER
 70
     0
  3
____ _ ____ _ ____ _ ____ _ ____ _ ____ _ ____ 
 72
    65
 73
     4
 40
2.0
 49
1.25
 74
     4
 75
     0
340
0
 46
1.0
 50
0.0
 44
0.0
 45
0.0
 49
-0.25
 74
     4
 75
     0
340
0
 46
1.0
 50
0.0
 44
0.0
 45
0.0
 49
0.25
 74
     4
 75
     0
340
0
 46
1.0
 50
0.0
 44
0.0
 45
0.0
 49
-0.25
 74
     4
 75
     0
340
0
 46
1.0
 50
0.0
 44
0.0
 45
0.0
  0
LTYPE
  5
7B41
330
5
100
AcDbSymbolTableRecord
100
AcDbLinetypeTableRecord
  2
HIDDEN2
 70
     0
  3
_ _ _ _ _ _ _ _ _ _ _ _ _ _ _ _ _ _ _ _ _ _ _ _
 72
    65
 73
     2
 40
0.1875
 49
0.125
 74
     4
 75
     0
340
0
 46
1.0
 50
0.0
 44
0.0
 45
0.0
 49
-0.0625
 74
     4
 75
     0
340
0
 46
1.0
 50
0.0
 44
0.0
 45
0.0
  0
ENDTAB
  0
TABLE
  2
LAYER
  5
2
330
0
100
AcDbSymbolTable
 70
    14
  0
LAYER
  5
10
330
2
100
AcDbSymbolTableRecord
100
AcDbLayerTableRecord
  2
0
 70
     0
 62
     7
  6
Continuous
370
    -3
390
F
347
0
  0
LAYER
  5
F94
330
2
100
AcDbSymbolTableRecord
100
AcDbLayerTableRecord
  2
TEXT
 70
     0
 62
     4
  6
Continuous
370
    -3
390
F
347
0
  0
LAYER
  5
F97
330
2
100
AcDbSymbolTableRecord
100
AcDbLayerTableRecord
  2
MÅL
 70
     0
 62
     1
  6
Continuous
370
    -3
390
F
347
0
  0
LAYER
  5
1766
330
2
100
AcDbSymbolTableRecord
100
AcDbLayerTableRecord
  2
SKRAVERING
 70
     0
 62
     7
  6
Continuous
370
    -3
390
F
347
0
  0
LAYER
  5
1770
330
2
100
AcDbSymbolTableRecord
100
AcDbLayerTableRecord
  2
RAMME
 70
     0
 62
     7
  6
Continuous
370
    -3
390
F
347
0
  0
LAYER
  5
1771
330
2
100
AcDbSymbolTableRecord
100
AcDbLayerTableRecord
  2
KONTUR
 70
     0
 62
     2
  6
Continuous
370
    -3
390
F
347
0
  0
LAYER
  5
6D99
330
2
100
AcDbSymbolTableRecord
100
AcDbLayerTableRecord
  2
SKJUL
 70
     0
 62
     3
  6
HIDDEN2
370
    -3
390
F
347
0
  0
LAYER
  5
6D9B
330
2
100
AcDbSymbolTableRecord
100
AcDbLayerTableRecord
  2
CENTER
 70
     0
 62
     1
  6
CENTER
370
    -3
390
F
347
0
  0
LAYER
  5
6DA6
330
2
100
AcDbSymbolTableRecord
100
AcDbLayerTableRecord
  2
DEFPOINTS
 70
     0
 62
     7
  6
Continuous
290
     0
370
    -3
390
F
347
0
  0
LAYER
  5
6EF1
330
2
100
AcDbSymbolTableRecord
100
AcDbLayerTableRecord
  2
VIEWPORT
 70
     0
 62
     5
  6
Continuous
370
    -3
390
F
347
0
  0
LAYER
  5
6F86
330
2
100
AcDbSymbolTableRecord
100
AcDbLayerTableRecord
  2
SYN
 70
     0
 62
     2
  6
Continuous
370
    -3
390
F
347
0
  0
LAYER
  5
6F87
330
2
100
AcDbSymbolTableRecord
100
AcDbLayerTableRecord
  2
HJL
 70
     1
 62
     7
  6
Continuous
370
    -3
390
F
347
0
  0
LAYER
  5
6F88
330
2
100
AcDbSymbolTableRecord
100
AcDbLayerTableRecord
  2
025
 70
     0
 62
     1
  6
Continuous
370
    -3
390
F
347
0
  0
LAYER
  5
6F89
330
2
100
AcDbSymbolTableRecord
100
AcDbLayerTableRecord
  2
035
 70
     0
 62
     4
  6
Continuous
370
    -3
390
F
347
0
  0
ENDTAB
  0
TABLE
  2
STYLE
  5
3
330
0
100
AcDbSymbolTable
 70
     2
  0
STYLE
  5
11
330
3
100
AcDbSymbolTableRecord
100
AcDbTextStyleTableRecord
  2
Standard
 70
     0
 40
0.0
 41
1.0
 50
0.0
 71
     0
 42
2.25
  3
txt
  4

  0
STYLE
  5
3E31
330
3
100
AcDbSymbolTableRecord
100
AcDbTextStyleTableRecord
  2
ROMANS
 70
     0
 40
0.0
 41
1.0
 50
0.0
 71
     0
 42
3.0
  3
ROMANS.SHX
  4

  0
ENDTAB
  0
TABLE
  2
VIEW
  5
6
330
0
100
AcDbSymbolTable
 70
     0
  0
ENDTAB
  0
TABLE
  2
UCS
  5
7
330
0
100
AcDbSymbolTable
 70
     0
  0
ENDTAB
  0
TABLE
  2
APPID
  5
9
330
0
100
AcDbSymbolTable
 70
     3
  0
APPID
  5
12
330
9
100
AcDbSymbolTableRecord
100
AcDbRegAppTableRecord
  2
ACAD
 70
     0
  0
APPID
  5
7B3E
330
9
100
AcDbSymbolTableRecord
100
AcDbRegAppTableRecord
  2
AVE_RENDER
 70
     0
  0
APPID
  5
7B3F
330
9
100
AcDbSymbolTableRecord
100
AcDbRegAppTableRecord
  2
AVE_MATERIAL
 70
     0
  0
ENDTAB
  0
TABLE
  2
DIMSTYLE
  5
A
330
0
100
AcDbSymbolTable
 70
     2
100
AcDbDimStyleTable
  0
DIMSTYLE
105
27
330
A
100
AcDbSymbolTableRecord
100
AcDbDimStyleTableRecord
  2
Standard
 70
     0
340
11
  0
DIMSTYLE
105
3E32
102
{ACAD_REACTORS
330
7297
330
729F
330
72A0
330
72A1
330
735B
330
735C
330
735D
102
}
330
A
100
AcDbSymbolTableRecord
100
AcDbDimStyleTableRecord
  2
ROMANS
 70
     0
 41
3.5
 42
1.0
 43
10.0
 44
2.0
 73
     0
 74
     0
 77
     1
 78
    13
140
3.5
141
2.5
147
2.0
172
     1
271
     2
272
     2
284
    13
340
3E31
  0
ENDTAB
  0
TABLE
  2
BLOCK_RECORD
  5
1
330
0
100
AcDbSymbolTable
 70
    15
  0
BLOCK_RECORD
  5
1F
330
1
100
AcDbSymbolTableRecord
100
AcDbBlockTableRecord
  2
*Model_Space
340
22
 70
     0
280
     1
281
     0
  0
BLOCK_RECORD
  5
73
330
1
100
AcDbSymbolTableRecord
100
AcDbBlockTableRecord
  2
*Paper_Space
340
74
 70
     0
280
     1
281
     0
  0
BLOCK_RECORD
  5
ECC
330
1
100
AcDbSymbolTableRecord
100
AcDbBlockTableRecord
  2
ACADN
340
0
102
{BLKREFS
331
3DFF
331
3E0E
331
71C2
331
7810
102
}
 70
     0
280
     1
281
     0
  0
BLOCK_RECORD
  5
F8D
330
1
100
AcDbSymbolTableRecord
100
AcDbBlockTableRecord
  2
AVE_RENDER
340
0
102
{BLKREFS
331
3E10
331
3E11
331
3E12
331
3E13
331
3E14
331
3E15
331
3E16
331
3E17
102
}
 70
     0
280
     1
281
     0
  0
BLOCK_RECORD
  5
F90
330
1
100
AcDbSymbolTableRecord
100
AcDbBlockTableRecord
  2
AVE_GLOBAL
340
0
102
{BLKREFS
331
3E18
102
}
 70
     0
280
     1
281
     0
  0
BLOCK_RECORD
  5
6EFF
330
1
100
AcDbSymbolTableRecord
100
AcDbBlockTableRecord
  2
BORDER
340
0
102
{BLKREFS
331
71C3
331
7811
102
}
 70
     0
280
     1
281
     0
  0
BLOCK_RECORD
  5
6F6F
330
1
100
AcDbSymbolTableRecord
100
AcDbBlockTableRecord
  2
E10
340
0
102
{BLKREFS
331
755B
102
}
 70
     0
280
     1
281
     0
  0
BLOCK_RECORD
  5
73F6
330
1
100
AcDbSymbolTableRecord
100
AcDbBlockTableRecord
  2
*D5
340
0
 70
     0
280
     1
281
     0
  0
BLOCK_RECORD
  5
7402
330
1
100
AcDbSymbolTableRecord
100
AcDbBlockTableRecord
  2
*D6
340
0
 70
     0
280
     1
281
     0
  0
BLOCK_RECORD
  5
7410
330
1
100
AcDbSymbolTableRecord
100
AcDbBlockTableRecord
  2
*D7
340
0
 70
     0
280
     1
281
     0
  0
BLOCK_RECORD
  5
741C
330
1
100
AcDbSymbolTableRecord
100
AcDbBlockTableRecord
  2
*D8
340
0
 70
     0
280
     1
281
     0
  0
BLOCK_RECORD
  5
7428
330
1
100
AcDbSymbolTableRecord
100
AcDbBlockTableRecord
  2
*D9
340
0
 70
     0
280
     1
281
     0
  0
BLOCK_RECORD
  5
7434
330
1
100
AcDbSymbolTableRecord
100
AcDbBlockTableRecord
  2
*D10
340
0
 70
     0
280
     1
281
     0
  0
BLOCK_RECORD
  5
7440
330
1
100
AcDbSymbolTableRecord
100
AcDbBlockTableRecord
  2
*D11
340
0
 70
     0
280
     1
281
     0
  0
BLOCK_RECORD
  5
7B5A
330
1
100
AcDbSymbolTableRecord
100
AcDbBlockTableRecord
  2
K1
340
0
 70
     0
280
     1
281
     0
  0
BLOCK_RECORD
  5
7AF5
330
1
100
AcDbSymbolTableRecord
100
AcDbBlockTableRecord
  2
K4
340
0
102
{BLKREFS
331
7B1A
102
}
 70
     0
280
     1
281
     0
  0
BLOCK_RECORD
  5
7B5F
330
1
100
AcDbSymbolTableRecord
100
AcDbBlockTableRecord
  2
K3
340
0
102
{BLKREFS
331
7B17
102
}
 70
     0
280
     1
281
     0
  0
ENDTAB
  0
ENDSEC
  0
SECTION
  2
BLOCKS
  0
BLOCK
  5
20
330
1F
100
AcDbEntity
  8
0
100
AcDbBlockBegin
  2
*Model_Space
 70
     0
 71
     0
 10
0.0
 20
0.0
 30
0.0
  3
*Model_Space
  1

  0
ENDBLK
  5
21
330
1F
100
AcDbEntity
  8
0
100
AcDbBlockEnd
  0
BLOCK
  5
75
330
73
100
AcDbEntity
 67
     1
  8
0
100
AcDbBlockBegin
  2
*Paper_Space
 70
     0
 71
     0
 10
0.0
 20
0.0
 30
0.0
  3
*Paper_Space
  1

  0
ENDBLK
  5
76
330
73
100
AcDbEntity
 67
     1
  8
0
100
AcDbBlockEnd
  0
BLOCK
  5
7B42
330
ECC
100
AcDbEntity
  8
0
100
AcDbBlockBegin
  2
ACADN
 70
     0
 71
     0
 10
0.0
 20
0.0
 30
0.0
  3
ACADN
  1

  0
ENDBLK
  5
7B43
330
ECC
100
AcDbEntity
  8
0
100
AcDbBlockEnd
  0
BLOCK
  5
7B44
330
F8D
100
AcDbEntity
  8
0
100
AcDbBlockBegin
  2
AVE_RENDER
 70
     0
 71
     0
 10
0.0
 20
0.0
 30
0.0
  3
AVE_RENDER
  1
AVE_RENDER
  0
ENDBLK
  5
7B45
330
F8D
100
AcDbEntity
  8
0
100
AcDbBlockEnd
  0
BLOCK
  5
7B46
330
F90
100
AcDbEntity
  8
0
100
AcDbBlockBegin
  2
AVE_GLOBAL
 70
     0
 71
     0
 10
0.0
 20
0.0
 30
0.0
  3
AVE_GLOBAL
  1
AVE_GLOBAL
  0
ENDBLK
  5
7B47
330
F90
100
AcDbEntity
  8
0
100
AcDbBlockEnd
  0
BLOCK
  5
7B48
330
6EFF
100
AcDbEntity
  8
0
100
AcDbBlockBegin
  2
BORDER
 70
     0
 71
     0
 10
0.0
 20
0.0
 30
0.0
  3
BORDER
  1

  0
LINE
  5
6F00
330
6EFF
100
AcDbEntity
  8
0
  6
Continuous
100
AcDbLine
 10
0.0
 20
0.0
 30
0.0
 11
1.0
 21
0.0
 31
0.0
  0
LINE
  5
6F01
330
6EFF
100
AcDbEntity
  8
0
  6
Continuous
100
AcDbLine
 10
1.0
 20
0.0
 30
0.0
 11
1.0
 21
1.0
 31
0.0
  0
LINE
  5
6F02
330
6EFF
100
AcDbEntity
  8
0
  6
Continuous
100
AcDbLine
 10
1.0
 20
1.0
 30
0.0
 11
0.0
 21
1.0
 31
0.0
  0
LINE
  5
6F03
330
6EFF
100
AcDbEntity
  8
0
  6
Continuous
100
AcDbLine
 10
0.0
 20
1.0
 30
0.0
 11
0.0
 21
0.0
 31
0.0
  0
ENDBLK
  5
7B49
330
6EFF
100
AcDbEntity
  8
0
100
AcDbBlockEnd
  0
BLOCK
  5
7B4A
330
6F6F
100
AcDbEntity
  8
0
100
AcDbBlockBegin
  2
E10
 70
     0
 71
     0
 10
0.0
 20
0.0
 30
0.0
  3
E10
  1

  0
LINE
  5
6F70
330
6F6F
100
AcDbEntity
  8
RAMME
100
AcDbLine
 10
0.0
 20
0.0
 30
0.0
 11
5.0
 21
0.0
 31
0.0
  0
LINE
  5
6F71
330
6F6F
100
AcDbEntity
  8
RAMME
100
AcDbLine
 10
0.0
 20
0.0
 30
0.0
 11
0.0
 21
5.0
 31
0.0
  0
LINE
  5
6F72
330
6F6F
100
AcDbEntity
  8
RAMME
100
AcDbLine
 10
196.0
 20
283.5
 30
0.0
 11
191.0
 21
283.5
 31
0.0
  0
LINE
  5
6F73
330
6F6F
100
AcDbEntity
  8
RAMME
100
AcDbLine
 10
196.0
 20
283.5
 30
0.0
 11
196.0
 21
278.5
 31
0.0
  0
ENDBLK
  5
7B4B
330
6F6F
100
AcDbEntity
  8
0
100
AcDbBlockEnd
  0
BLOCK
  5
7B4C
330
73F6
100
AcDbEntity
  8
0
100
AcDbBlockBegin
  2
*D5
 70
     1
 71
     0
 10
0.0
 20
0.0
 30
0.0
  3
*D5
  1

  0
LINE
  5
7533
330
73F6
100
AcDbEntity
  8
0
  6
ByBlock
 62
     0
100
AcDbLine
 10
6.171318666107027
 20
259.7847584854194
 30
0.0
 11
6.171318666107027
 21
295.7847584854194
 31
0.0
  0
LINE
  5
7534
330
73F6
100
AcDbEntity
  8
0
  6
ByBlock
 62
     0
100
AcDbLine
 10
290.171318666107
 20
253.0347584854194
 30
0.0
 11
290.171318666107
 21
295.7847584854194
 31
0.0
  0
LINE
  5
7535
330
73F6
100
AcDbEntity
  8
0
  6
ByBlock
 62
     0
100
AcDbLine
 10
13.17131866610703
 20
291.7847584854194
 30
0.0
 11
283.171318666107
 21
291.7847584854194
 31
0.0
  0
SOLID
  5
7536
330
73F6
100
AcDbEntity
  8
0
  6
ByBlock
 62
     0
100
AcDbTrace
 10
13.17131866610703
 20
292.9514251520861
 30
0.0
 11
13.17131866610703
 21
290.6180918187527
 31
0.0
 12
6.171318666107027
 22
291.7847584854194
 32
0.0
 13
6.171318666107027
 23
291.7847584854194
 33
0.0
  0
SOLID
  5
7537
330
73F6
100
AcDbEntity
  8
0
  6
ByBlock
 62
     0
100
AcDbTrace
 10
283.171318666107
 20
292.9514251520861
 30
0.0
 11
283.171318666107
 21
290.6180918187527
 31
0.0
 12
290.171318666107
 22
291.7847584854194
 32
0.0
 13
290.171318666107
 23
291.7847584854194
 33
0.0
  0
MTEXT
  5
7538
330
73F6
100
AcDbEntity
  8
0
  6
ByBlock
 62
     4
100
AcDbMText
 10
148.171318666107
 20
299.2847584854194
 30
0.0
 40
7.0
 41
0.0
 46
0.0
 71
     5
 72
     1
  1
\A1;284
  7
ROMANS
 73
     1
 44
1.0
  0
POINT
  5
7539
330
73F6
100
AcDbEntity
  8
DEFPOINTS
  6
ByBlock
 62
     0
100
AcDbPoint
 10
6.171318666107027
 20
257.7847584854194
 30
0.0
  0
POINT
  5
753A
330
73F6
100
AcDbEntity
  8
DEFPOINTS
  6
ByBlock
 62
     0
100
AcDbPoint
 10
290.171318666107
 20
251.0347584854194
 30
0.0
  0
POINT
  5
753B
330
73F6
100
AcDbEntity
  8
DEFPOINTS
  6
ByBlock
 62
     0
100
AcDbPoint
 10
290.171318666107
 20
291.7847584854194
 30
0.0
  0
ENDBLK
  5
7B4D
330
73F6
100
AcDbEntity
  8
0
100
AcDbBlockEnd
  0
BLOCK
  5
7B4E
330
7402
100
AcDbEntity
  8
0
100
AcDbBlockBegin
  2
*D6
 70
     1
 71
     0
 10
0.0
 20
0.0
 30
0.0
  3
*D6
  1

  0
LINE
  5
754B
330
7402
100
AcDbEntity
  8
0
  6
ByBlock
 62
     0
100
AcDbLine
 10
11.92131866610703
 20
-54.71524151458061
 30
0.0
 11
-21.58219612951962
 21
-54.71524151458061
 31
0.0
  0
LINE
  5
754C
330
7402
100
AcDbEntity
  8
0
  6
ByBlock
 62
     0
100
AcDbLine
 10
-3.078681333892973
 20
-31.71524151458061
 30
0.0
 11
-21.58219612951962
 21
-31.71524151458061
 31
0.0
  0
LINE
  5
754D
330
7402
100
AcDbEntity
  8
0
  6
ByBlock
 62
     0
100
AcDbLine
 10
-17.58219612951962
 20
-61.71524151458061
 30
0.0
 11
-17.58219612951962
 21
-68.71524151458061
 31
0.0
  0
LINE
  5
754E
330
7402
100
AcDbEntity
  8
0
  6
ByBlock
 62
     0
100
AcDbLine
 10
-17.58219612951962
 20
-24.71524151458061
 30
0.0
 11
-17.58219612951962
 21
-17.71524151458061
 31
0.0
  0
LINE
  5
754F
330
7402
100
AcDbEntity
  8
0
  6
ByBlock
 62
     0
100
AcDbLine
 10
-17.58219612951962
 20
-54.71524151458061
 30
0.0
 11
-17.58219612951962
 21
-31.71524151458061
 31
0.0
  0
SOLID
  5
7550
330
7402
100
AcDbEntity
  8
0
  6
ByBlock
 62
     0
100
AcDbTrace
 10
-18.74886279618628
 20
-61.71524151458061
 30
0.0
 11
-16.41552946285295
 21
-61.71524151458061
 31
0.0
 12
-17.58219612951962
 22
-54.71524151458061
 32
0.0
 13
-17.58219612951962
 23
-54.71524151458061
 33
0.0
  0
SOLID
  5
7551
330
7402
100
AcDbEntity
  8
0
  6
ByBlock
 62
     0
100
AcDbTrace
 10
-18.74886279618628
 20
-24.71524151458061
 30
0.0
 11
-16.41552946285295
 21
-24.71524151458061
 31
0.0
 12
-17.58219612951962
 22
-31.71524151458061
 32
0.0
 13
-17.58219612951962
 23
-31.71524151458061
 33
0.0
  0
MTEXT
  5
7552
330
7402
100
AcDbEntity
  8
0
  6
ByBlock
 62
     4
100
AcDbMText
 10
-25.08219612951962
 20
-43.21524151458061
 30
0.0
 40
7.0
 41
0.0
 46
0.0
 71
     5
 72
     1
  1
\A1;23
  7
ROMANS
 11
0.0
 21
1.0
 31
0.0
 73
     1
 44
1.0
  0
POINT
  5
7553
330
7402
100
AcDbEntity
  8
DEFPOINTS
  6
ByBlock
 62
     0
100
AcDbPoint
 10
13.92131866610703
 20
-54.71524151458061
 30
0.0
  0
POINT
  5
7554
330
7402
100
AcDbEntity
  8
DEFPOINTS
  6
ByBlock
 62
     0
100
AcDbPoint
 10
-1.078681333892973
 20
-31.71524151458061
 30
0.0
  0
POINT
  5
7555
330
7402
100
AcDbEntity
  8
DEFPOINTS
  6
ByBlock
 62
     0
100
AcDbPoint
 10
-17.58219612951962
 20
-31.71524151458061
 30
0.0
  0
ENDBLK
  5
7B4F
330
7402
100
AcDbEntity
  8
0
100
AcDbBlockEnd
  0
BLOCK
  5
7B50
330
7410
100
AcDbEntity
  8
0
100
AcDbBlockBegin
  2
*D7
 70
     1
 71
     0
 10
0.0
 20
0.0
 30
0.0
  3
*D7
  1

  0
LINE
  5
74ED
330
7410
100
AcDbEntity
  8
0
  6
ByBlock
 62
     0
100
AcDbLine
 10
-18.57868133389297
 20
-31.71524151458061
 30
0.0
 11
-21.57868133389297
 21
-31.71524151458061
 31
0.0
  0
LINE
  5
74EE
330
7410
100
AcDbEntity
  8
0
  6
ByBlock
 62
     0
100
AcDbLine
 10
-2.578681333892973
 20
28.28475848541939
 30
0.0
 11
-21.57868133389297
 21
28.28475848541939
 31
0.0
  0
LINE
  5
74EF
330
7410
100
AcDbEntity
  8
0
  6
ByBlock
 62
     0
100
AcDbLine
 10
-17.57868133389297
 20
-24.71524151458061
 30
0.0
 11
-17.57868133389297
 21
21.28475848541939
 31
0.0
  0
SOLID
  5
74F0
330
7410
100
AcDbEntity
  8
0
  6
ByBlock
 62
     0
100
AcDbTrace
 10
-18.74534800055964
 20
-24.71524151458061
 30
0.0
 11
-16.41201466722631
 21
-24.71524151458061
 31
0.0
 12
-17.57868133389297
 22
-31.71524151458061
 32
0.0
 13
-17.57868133389297
 23
-31.71524151458061
 33
0.0
  0
SOLID
  5
74F1
330
7410
100
AcDbEntity
  8
0
  6
ByBlock
 62
     0
100
AcDbTrace
 10
-18.74534800055964
 20
21.28475848541939
 30
0.0
 11
-16.41201466722631
 21
21.28475848541939
 31
0.0
 12
-17.57868133389297
 22
28.28475848541939
 32
0.0
 13
-17.57868133389297
 23
28.28475848541939
 33
0.0
  0
MTEXT
  5
74F2
330
7410
100
AcDbEntity
  8
0
  6
ByBlock
 62
     4
100
AcDbMText
 10
-25.07868133389297
 20
-1.715241514580612
 30
0.0
 40
7.0
 41
0.0
 46
0.0
 71
     5
 72
     1
  1
\A1;60
  7
ROMANS
 11
0.0
 21
1.0
 31
0.0
 73
     1
 44
1.0
  0
POINT
  5
74F3
330
7410
100
AcDbEntity
  8
DEFPOINTS
  6
ByBlock
 62
     0
100
AcDbPoint
 10
-16.57868133389297
 20
-31.71524151458061
 30
0.0
  0
POINT
  5
74F4
330
7410
100
AcDbEntity
  8
DEFPOINTS
  6
ByBlock
 62
     0
100
AcDbPoint
 10
-0.5786813338929733
 20
28.28475848541939
 30
0.0
  0
POINT
  5
74F5
330
7410
100
AcDbEntity
  8
DEFPOINTS
  6
ByBlock
 62
     0
100
AcDbPoint
 10
-17.57868133389297
 20
28.28475848541939
 30
0.0
  0
ENDBLK
  5
7B51
330
7410
100
AcDbEntity
  8
0
100
AcDbBlockEnd
  0
BLOCK
  5
7B52
330
741C
100
AcDbEntity
  8
0
100
AcDbBlockBegin
  2
*D8
 70
     1
 71
     0
 10
0.0
 20
0.0
 30
0.0
  3
*D8
  1

  0
LINE
  5
7505
330
741C
100
AcDbEntity
  8
0
  6
ByBlock
 62
     0
100
AcDbLine
 10
-18.57868133389297
 20
28.28475848541939
 30
0.0
 11
-21.57868133389297
 21
28.28475848541939
 31
0.0
  0
LINE
  5
7506
330
741C
100
AcDbEntity
  8
0
  6
ByBlock
 62
     0
100
AcDbLine
 10
-2.578681333892973
 20
88.28475848541939
 30
0.0
 11
-21.57868133389297
 21
88.28475848541939
 31
0.0
  0
LINE
  5
7507
330
741C
100
AcDbEntity
  8
0
  6
ByBlock
 62
     0
100
AcDbLine
 10
-17.57868133389297
 20
35.28475848541939
 30
0.0
 11
-17.57868133389297
 21
81.28475848541939
 31
0.0
  0
SOLID
  5
7508
330
741C
100
AcDbEntity
  8
0
  6
ByBlock
 62
     0
100
AcDbTrace
 10
-18.74534800055964
 20
35.28475848541939
 30
0.0
 11
-16.41201466722631
 21
35.28475848541939
 31
0.0
 12
-17.57868133389297
 22
28.28475848541939
 32
0.0
 13
-17.57868133389297
 23
28.28475848541939
 33
0.0
  0
SOLID
  5
7509
330
741C
100
AcDbEntity
  8
0
  6
ByBlock
 62
     0
100
AcDbTrace
 10
-18.74534800055964
 20
81.28475848541939
 30
0.0
 11
-16.41201466722631
 21
81.28475848541939
 31
0.0
 12
-17.57868133389297
 22
88.28475848541939
 32
0.0
 13
-17.57868133389297
 23
88.28475848541939
 33
0.0
  0
MTEXT
  5
750A
330
741C
100
AcDbEntity
  8
0
  6
ByBlock
 62
     4
100
AcDbMText
 10
-25.07868133389297
 20
58.28475848541939
 30
0.0
 40
7.0
 41
0.0
 46
0.0
 71
     5
 72
     1
  1
\A1;60
  7
ROMANS
 11
0.0
 21
1.0
 31
0.0
 73
     1
 44
1.0
  0
POINT
  5
750B
330
741C
100
AcDbEntity
  8
DEFPOINTS
  6
ByBlock
 62
     0
100
AcDbPoint
 10
-16.57868133389297
 20
28.28475848541939
 30
0.0
  0
POINT
  5
750C
330
741C
100
AcDbEntity
  8
DEFPOINTS
  6
ByBlock
 62
     0
100
AcDbPoint
 10
-0.5786813338929733
 20
88.28475848541939
 30
0.0
  0
POINT
  5
750D
330
741C
100
AcDbEntity
  8
DEFPOINTS
  6
ByBlock
 62
     0
100
AcDbPoint
 10
-17.57868133389297
 20
88.28475848541939
 30
0.0
  0
ENDBLK
  5
7B53
330
741C
100
AcDbEntity
  8
0
100
AcDbBlockEnd
  0
BLOCK
  5
7B54
330
7428
100
AcDbEntity
  8
0
100
AcDbBlockBegin
  2
*D9
 70
     1
 71
     0
 10
0.0
 20
0.0
 30
0.0
  3
*D9
  1

  0
LINE
  5
7510
330
7428
100
AcDbEntity
  8
0
  6
ByBlock
 62
     0
100
AcDbLine
 10
-18.57868133389297
 20
187.7847584854194
 30
0.0
 11
-21.57868133389297
 21
187.7847584854194
 31
0.0
  0
LINE
  5
7511
330
7428
100
AcDbEntity
  8
0
  6
ByBlock
 62
     0
100
AcDbLine
 10
-2.578681333892973
 20
127.7847584854194
 30
0.0
 11
-21.57868133389297
 21
127.7847584854194
 31
0.0
  0
LINE
  5
7512
330
7428
100
AcDbEntity
  8
0
  6
ByBlock
 62
     0
100
AcDbLine
 10
-17.57868133389297
 20
180.7847584854194
 30
0.0
 11
-17.57868133389297
 21
134.7847584854194
 31
0.0
  0
SOLID
  5
7513
330
7428
100
AcDbEntity
  8
0
  6
ByBlock
 62
     0
100
AcDbTrace
 10
-18.74534800055964
 20
180.7847584854194
 30
0.0
 11
-16.41201466722631
 21
180.7847584854194
 31
0.0
 12
-17.57868133389297
 22
187.7847584854194
 32
0.0
 13
-17.57868133389297
 23
187.7847584854194
 33
0.0
  0
SOLID
  5
7514
330
7428
100
AcDbEntity
  8
0
  6
ByBlock
 62
     0
100
AcDbTrace
 10
-18.74534800055964
 20
134.7847584854194
 30
0.0
 11
-16.41201466722631
 21
134.7847584854194
 31
0.0
 12
-17.57868133389297
 22
127.7847584854194
 32
0.0
 13
-17.57868133389297
 23
127.7847584854194
 33
0.0
  0
MTEXT
  5
7515
330
7428
100
AcDbEntity
  8
0
  6
ByBlock
 62
     4
100
AcDbMText
 10
-25.07868133389297
 20
157.7847584854194
 30
0.0
 40
7.0
 41
0.0
 46
0.0
 71
     5
 72
     1
  1
\A1;60
  7
ROMANS
 11
0.0
 21
1.0
 31
0.0
 73
     1
 44
1.0
  0
POINT
  5
7516
330
7428
100
AcDbEntity
  8
DEFPOINTS
  6
ByBlock
 62
     0
100
AcDbPoint
 10
-16.57868133389297
 20
187.7847584854194
 30
0.0
  0
POINT
  5
7517
330
7428
100
AcDbEntity
  8
DEFPOINTS
  6
ByBlock
 62
     0
100
AcDbPoint
 10
-0.5786813338929733
 20
127.7847584854194
 30
0.0
  0
POINT
  5
7518
330
7428
100
AcDbEntity
  8
DEFPOINTS
  6
ByBlock
 62
     0
100
AcDbPoint
 10
-17.57868133389297
 20
127.7847584854194
 30
0.0
  0
ENDBLK
  5
7B55
330
7428
100
AcDbEntity
  8
0
100
AcDbBlockEnd
  0
BLOCK
  5
7B56
330
7434
100
AcDbEntity
  8
0
100
AcDbBlockBegin
  2
*D10
 70
     1
 71
     0
 10
0.0
 20
0.0
 30
0.0
  3
*D10
  1

  0
LINE
  5
751B
330
7434
100
AcDbEntity
  8
0
  6
ByBlock
 62
     0
100
AcDbLine
 10
-18.57868133389297
 20
247.7847584854194
 30
0.0
 11
-21.57868133389297
 21
247.7847584854194
 31
0.0
  0
LINE
  5
751C
330
7434
100
AcDbEntity
  8
0
  6
ByBlock
 62
     0
100
AcDbLine
 10
-2.578681333892973
 20
187.7847584854194
 30
0.0
 11
-21.57868133389297
 21
187.7847584854194
 31
0.0
  0
LINE
  5
751D
330
7434
100
AcDbEntity
  8
0
  6
ByBlock
 62
     0
100
AcDbLine
 10
-17.57868133389297
 20
240.7847584854194
 30
0.0
 11
-17.57868133389297
 21
194.7847584854194
 31
0.0
  0
SOLID
  5
751E
330
7434
100
AcDbEntity
  8
0
  6
ByBlock
 62
     0
100
AcDbTrace
 10
-18.74534800055964
 20
240.7847584854194
 30
0.0
 11
-16.41201466722631
 21
240.7847584854194
 31
0.0
 12
-17.57868133389297
 22
247.7847584854194
 32
0.0
 13
-17.57868133389297
 23
247.7847584854194
 33
0.0
  0
SOLID
  5
751F
330
7434
100
AcDbEntity
  8
0
  6
ByBlock
 62
     0
100
AcDbTrace
 10
-18.74534800055964
 20
194.7847584854194
 30
0.0
 11
-16.41201466722631
 21
194.7847584854194
 31
0.0
 12
-17.57868133389297
 22
187.7847584854194
 32
0.0
 13
-17.57868133389297
 23
187.7847584854194
 33
0.0
  0
MTEXT
  5
7520
330
7434
100
AcDbEntity
  8
0
  6
ByBlock
 62
     4
100
AcDbMText
 10
-25.07868133389297
 20
217.7847584854194
 30
0.0
 40
7.0
 41
0.0
 46
0.0
 71
     5
 72
     1
  1
\A1;60
  7
ROMANS
 11
0.0
 21
1.0
 31
0.0
 73
     1
 44
1.0
  0
POINT
  5
7521
330
7434
100
AcDbEntity
  8
DEFPOINTS
  6
ByBlock
 62
     0
100
AcDbPoint
 10
-16.57868133389297
 20
247.7847584854194
 30
0.0
  0
POINT
  5
7522
330
7434
100
AcDbEntity
  8
DEFPOINTS
  6
ByBlock
 62
     0
100
AcDbPoint
 10
-0.5786813338929733
 20
187.7847584854194
 30
0.0
  0
POINT
  5
7523
330
7434
100
AcDbEntity
  8
DEFPOINTS
  6
ByBlock
 62
     0
100
AcDbPoint
 10
-17.57868133389297
 20
187.7847584854194
 30
0.0
  0
ENDBLK
  5
7B57
330
7434
100
AcDbEntity
  8
0
100
AcDbBlockEnd
  0
BLOCK
  5
7B58
330
7440
100
AcDbEntity
  8
0
100
AcDbBlockBegin
  2
*D11
 70
     1
 71
     0
 10
0.0
 20
0.0
 30
0.0
  3
*D11
  1

  0
LINE
  5
753E
330
7440
100
AcDbEntity
  8
0
  6
ByBlock
 62
     0
100
AcDbLine
 10
11.92131866610703
 20
270.7847584854194
 30
0.0
 11
-21.54465287444441
 21
270.7847584854194
 31
0.0
  0
LINE
  5
753F
330
7440
100
AcDbEntity
  8
0
  6
ByBlock
 62
     0
100
AcDbLine
 10
-3.078681333892973
 20
247.7847584854194
 30
0.0
 11
-21.54465287444441
 21
247.7847584854194
 31
0.0
  0
LINE
  5
7540
330
7440
100
AcDbEntity
  8
0
  6
ByBlock
 62
     0
100
AcDbLine
 10
-17.54465287444441
 20
277.7847584854194
 30
0.0
 11
-17.54465287444441
 21
284.7847584854194
 31
0.0
  0
LINE
  5
7541
330
7440
100
AcDbEntity
  8
0
  6
ByBlock
 62
     0
100
AcDbLine
 10
-17.54465287444441
 20
240.7847584854194
 30
0.0
 11
-17.54465287444441
 21
233.7847584854194
 31
0.0
  0
LINE
  5
7542
330
7440
100
AcDbEntity
  8
0
  6
ByBlock
 62
     0
100
AcDbLine
 10
-17.54465287444441
 20
270.7847584854194
 30
0.0
 11
-17.54465287444441
 21
247.7847584854194
 31
0.0
  0
SOLID
  5
7543
330
7440
100
AcDbEntity
  8
0
  6
ByBlock
 62
     0
100
AcDbTrace
 10
-18.71131954111108
 20
277.7847584854194
 30
0.0
 11
-16.37798620777774
 21
277.7847584854194
 31
0.0
 12
-17.54465287444441
 22
270.7847584854194
 32
0.0
 13
-17.54465287444441
 23
270.7847584854194
 33
0.0
  0
SOLID
  5
7544
330
7440
100
AcDbEntity
  8
0
  6
ByBlock
 62
     0
100
AcDbTrace
 10
-18.71131954111108
 20
240.7847584854194
 30
0.0
 11
-16.37798620777774
 21
240.7847584854194
 31
0.0
 12
-17.54465287444441
 22
247.7847584854194
 32
0.0
 13
-17.54465287444441
 23
247.7847584854194
 33
0.0
  0
MTEXT
  5
7545
330
7440
100
AcDbEntity
  8
0
  6
ByBlock
 62
     4
100
AcDbMText
 10
-25.04465287444441
 20
259.2847584854194
 30
0.0
 40
7.0
 41
0.0
 46
0.0
 71
     5
 72
     1
  1
\A1;23
  7
ROMANS
 11
0.0
 21
1.0
 31
0.0
 73
     1
 44
1.0
  0
POINT
  5
7546
330
7440
100
AcDbEntity
  8
DEFPOINTS
  6
ByBlock
 62
     0
100
AcDbPoint
 10
13.92131866610703
 20
270.7847584854194
 30
0.0
  0
POINT
  5
7547
330
7440
100
AcDbEntity
  8
DEFPOINTS
  6
ByBlock
 62
     0
100
AcDbPoint
 10
-1.078681333892973
 20
247.7847584854194
 30
0.0
  0
POINT
  5
7548
330
7440
100
AcDbEntity
  8
DEFPOINTS
  6
ByBlock
 62
     0
100
AcDbPoint
 10
-17.54465287444441
 20
247.7847584854194
 30
0.0
  0
ENDBLK
  5
7B59
330
7440
100
AcDbEntity
  8
0
100
AcDbBlockEnd
  0
BLOCK
  5
7B5B
330
7B5A
100
AcDbEntity
  8
0
100
AcDbBlockBegin
  2
K1
 70
    68
 71
     1
 10
0.0
 20
0.0
 30
0.0
  3
K1
  1
T:/ALLE/TEGN/SYMB/BLOKKE/TABLET3/K1.DWG
  0
ENDBLK
  5
7B5C
330
7B5A
100
AcDbEntity
  8
0
100
AcDbBlockEnd
  0
BLOCK
  5
7B5D
330
7AF5
100
AcDbEntity
  8
0
100
AcDbBlockBegin
  2
K4
 70
     2
 71
     0
 10
0.0
 20
0.0
 30
0.0
  3
K4
  1

  0
ATTDEF
  5
7AF6
330
7AF5
100
AcDbEntity
  8
0
 62
     4
100
AcDbText
 10
-178.5
 20
-19.5
 30
0.0
 40
2.5
  1
engelsk eller dansk ved DK eller UK
  7
ROMANS
100
AcDbAttributeDefinition
  3

  2
EMNE
 70
     0
280
     0
  0
ATTDEF
  5
7AF7
330
7AF5
100
AcDbEntity
  8
0
 62
     4
100
AcDbText
 10
-178.5
 20
-24.5
 30
0.0
 40
2.5
  1

  7
ROMANS
100
AcDbAttributeDefinition
  3

  2
SUBJECT
 70
     0
280
     0
  0
ATTDEF
  5
7AF8
330
7AF5
100
AcDbEntity
  8
0
 62
     4
100
AcDbText
 10
-15.0
 20
-14.5
 30
0.0
 40
2.5
  1

  7
ROMANS
 72
     2
 11
-2.5
 21
-14.5
 31
0.0
100
AcDbAttributeDefinition
  3

  2
KAT.NR
 70
     0
280
     0
  0
ATTDEF
  5
7AF9
330
7AF5
100
AcDbEntity
  8
0
 62
     4
100
AcDbText
 10
-17.73809523809524
 20
-19.5
 30
0.0
 40
2.5
  1

  7
ROMANS
 72
     2
 11
-2.5
 21
-19.5
 31
0.0
100
AcDbAttributeDefinition
  3

  2
TEGN.NR
 70
     0
280
     0
  0
ATTDEF
  5
7AFA
330
7AF5
100
AcDbEntity
  8
0
 62
     4
100
AcDbText
 10
-11.3095238095238
 20
-24.5
 30
0.0
 40
2.5
  1

  7
ROMANS
 72
     2
 11
-2.5
 21
-24.5
 31
0.0
100
AcDbAttributeDefinition
  3

  2
DATO
 70
     0
280
     0
  0
ATTDEF
  5
7AFB
330
7AF5
100
AcDbEntity
  8
0
 62
     4
100
AcDbText
 10
-15.11904761904762
 20
-29.5
 30
0.0
 40
2.5
  1

  7
ROMANS
 72
     2
 11
-2.5
 21
-29.5
 31
0.0
100
AcDbAttributeDefinition
  3

  2
RETTET
 70
     0
280
     0
  0
ATTDEF
  5
7AFC
330
7AF5
100
AcDbEntity
  8
0
 62
     4
100
AcDbText
 10
-43.4047619047619
 20
-19.5
 30
0.0
 40
2.5
  1

  7
ROMANS
 72
     2
 11
-36.5
 21
-19.5
 31
0.0
100
AcDbAttributeDefinition
  3

  2
MÅL
 70
     0
280
     0
  0
ATTDEF
  5
7AFD
330
7AF5
100
AcDbEntity
  8
0
 62
     4
100
AcDbText
 10
-50.54761904761904
 20
-29.5
 30
0.0
 40
2.5
  1

  7
ROMANS
 72
     2
 11
-36.5
 21
-29.5
 31
0.0
100
AcDbAttributeDefinition
  3

  2
FORMAT
 70
     0
280
     0
  0
ATTDEF
  5
7AFE
330
7AF5
100
AcDbEntity
  8
0
 62
     4
100
AcDbText
 10
-44.47619047619048
 20
-24.5
 30
0.0
 40
2.5
  1

  7
ROMANS
 72
     2
 11
-36.5
 21
-24.5
 31
0.0
100
AcDbAttributeDefinition
  3

  2
SIGN
 70
     0
280
     0
  0
ENDBLK
  5
7B5E
330
7AF5
100
AcDbEntity
  8
0
100
AcDbBlockEnd
  0
BLOCK
  5
7B60
330
7B5F
100
AcDbEntity
  8
0
100
AcDbBlockBegin
  2
K3
 70
    68
 71
     1
 10
0.0
 20
0.0
 30
0.0
  3
K3
  1
T:\ALLE\TEGN\SYMB\BLOKKE\TABLET3\K3.DWG
  0
ENDBLK
  5
7B61
330
7B5F
100
AcDbEntity
  8
0
100
AcDbBlockEnd
  0
ENDSEC
  0
SECTION
  2
ENTITIES
  0
INSERT
  5
3DFF
330
1F
100
AcDbEntity
  8
TEXT
100
AcDbBlockReference
  2
ACADN
 10
0.0
 20
0.0
 30
0.0
  0
INSERT
  5
3E0E
330
1F
100
AcDbEntity
  8
TEXT
100
AcDbBlockReference
  2
ACADN
 10
0.0
 20
-36.0
 30
0.0
  0
INSERT
  5
3E10
330
1F
100
AcDbEntity
  8
MÅL
 62
     1
100
AcDbBlockReference
  2
AVE_RENDER
 10
0.0
 20
0.0
 30
0.0
1001
AVE_RENDER
1002
{
1070
     6
1000
Pref
1070
    30
1070
    20
1070
     1
1070
     0
1000

1070
    10
1070
     1
1070
    30
1040
25.4
1070
     1
1040
0.3
1040
0.7
1040
0.0
1040
10.0
1010
-1.0
1020
-1.0
1030
-1.0
1040
0.3
1070
    49
1070
     0
1070
     0
1010
1.0
1020
1.0
1030
1.0
1040
45.0
1070
     1
1070
     0
1000
WCS
1040
0.0
1002
}
  0
INSERT
  5
3E11
330
1F
100
AcDbEntity
  8
MÅL
 62
     3
100
AcDbBlockReference
  2
AVE_RENDER
 10
0.0
 20
0.0
 30
0.0
1001
AVE_RENDER
1002
{
1070
     0
1000
Full Opt
1070
     0
1070
     1
1070
     1
1070
     1
1070
     0
1070
     0
1070
     0
1070
     1
1070
     1
1040
0.0001
1040
0.0001
1002
}
  0
INSERT
  5
3E12
330
1F
100
AcDbEntity
  8
MÅL
 62
     4
100
AcDbBlockReference
  2
AVE_RENDER
 10
0.0
 20
0.0
 30
0.0
1001
AVE_RENDER
1002
{
1070
     0
1000
Quick Opt
1070
     0
1070
     1
1070
     1
1070
     1
1070
     0
1070
     0
1070
     1
1002
}
  0
INSERT
  5
3E13
330
1F
100
AcDbEntity
  8
MÅL
 62
     5
100
AcDbBlockReference
  2
AVE_RENDER
 10
0.0
 20
0.0
 30
0.0
1001
AVE_RENDER
1002
{
1070
     1
1000
Scanl Opt
1070
     2
1070
     0
1070
     2
1040
2.0
1040
4.0
1070
     0
1070
     1
1070
     0
1040
0.03
1002
}
  0
INSERT
  5
3E14
330
1F
100
AcDbEntity
  8
MÅL
 62
     6
100
AcDbBlockReference
  2
AVE_RENDER
 10
0.0
 20
0.0
 30
0.0
1001
AVE_RENDER
1002
{
1070
     2
1000
Raytr Opt
1070
     2
1070
     0
1070
     2
1040
2.0
1040
4.0
1070
     0
1070
     1
1070
     1
1040
0.03
1070
     3
1040
0.03
1002
}
  0
INSERT
  5
3E15
330
1F
100
AcDbEntity
  8
MÅL
 62
     7
100
AcDbBlockReference
  2
AVE_RENDER
 10
0.0
 20
0.0
 30
0.0
1001
AVE_RENDER
1002
{
1070
     0
1000
RFile Opt
1070
     5
1070
   640
1070
   480
1070
 10000
1070
     3
1070
    32
1070
    24
1070
     0
1070
     0
1070
     0
1070
     1
1070
     0
1070
     0
1070
     0
1002
}
  0
INSERT
  5
3E16
330
1F
100
AcDbEntity
  8
MÅL
 62
     8
100
AcDbBlockReference
  2
AVE_RENDER
 10
0.0
 20
0.0
 30
0.0
1001
AVE_RENDER
1002
{
1070
     0
1000
Fog Opt
1070
     0
1070
     0
1040
0.0
1040
1.0
1040
0.0
1040
1.0
1010
0.5
1020
0.5
1030
0.5
1002
}
  0
INSERT
  5
3E17
330
1F
100
AcDbEntity
  8
MÅL
 62
     9
100
AcDbBlockReference
  2
AVE_RENDER
 10
0.0
 20
0.0
 30
0.0
1001
AVE_RENDER
1002
{
1070
     0
1000
BG Opt
1070
     0
1070
     1
1010
0.0
1020
0.0
1030
0.0
1010
1.0
1020
0.0
1030
0.0
1010
0.0
1020
1.0
1030
0.0
1010
0.0
1020
0.0
1030
1.0
1040
0.5
1040
0.33
1040
0.0
1000

1070
     1
1000

1070
     1
1070
     1
1040
1.0
1040
1.0
1040
0.0
1040
0.0
1070
     0
1002
}
  0
INSERT
  5
3E18
330
1F
100
AcDbEntity
  8
MÅL
 62
     1
100
AcDbBlockReference
  2
AVE_GLOBAL
 10
0.0
 20
0.0
 30
0.0
1001
AVE_MATERIAL
1002
{
1000
*GLOBAL*
1000
1
1000
Global finish.
1002
{
1002
}
1002
{
1070
    63
1002
{
1002
{
1010
-1.0
1020
-1.0
1030
-1.0
1002
}
1040
0.1000000014901161
1000

1040
0.0
1002
{
1002
}
1040
0.0
1002
{
1002
}
1040
0.0
1002
}
1002
{
1002
{
1010
-1.0
1020
-1.0
1030
-1.0
1002
}
1040
0.699999988079071
1000

1040
0.0
1002
{
1002
}
1040
0.0
1002
{
1002
}
1040
0.0
1002
}
1002
{
1002
{
1010
-1.0
1020
-1.0
1030
-1.0
1002
}
1040
0.2000000029802322
1000

1040
0.0
1002
{
1002
}
1040
0.0
1002
{
1002
}
1040
0.0
1002
}
1002
{
1070
     0
1002
{
1070
     1
1002
{
1040
1.0
1040
1.0
1000

1040
0.0
1002
{
1002
}
1040
0.0
1002
{
1002
}
1040
0.0
1002
}
1002
}
1040
1.0
1040
0.0
1040
0.0
1002
}
1002
{
1040
1.0
1040
1.0
1000

1040
0.0
1002
{
1002
}
1040
0.0
1002
{
1002
}
1040
0.0
1002
}
1002
{
1040
0.5
1040
1.0
1000

1040
0.0
1002
{
1002
}
1040
0.0
1002
{
1002
}
1040
0.0
1002
}
1002
{
1070
     0
1040
0.0
1002
{
1002
}
1040
1.0
1002
{
1002
}
1040
0.0
1002
}
1002
{
1040
0.0
1002
{
1002
{
1010
0.0
1020
0.0
1030
0.0
1002
}
1040
1.0
1000

1040
0.0
1002
{
1002
}
1040
0.0
1002
{
1002
}
1040
0.0
1002
}
1002
}
1002
{
1002
{
1070
     1
1002
{
1040
0.0
1040
1.0
1000

1040
0.0
1002
{
1002
}
1040
0.0
1002
{
1002
}
1040
0.0
1002
}
1002
}
1040
0.0
1002
{
1002
}
1010
1.0
1020
0.0
1030
0.0
1010
0.0
1020
1.0
1030
0.0
1010
0.0
1020
0.0
1030
1.0
1070
     0
1002
}
1002
{
1002
{
1040
1.0
1040
1.0
1002
{
1070
     1
1002
{
1040
1.0
1040
1.0
1000

1040
0.0
1002
{
1002
}
1040
0.0
1002
{
1002
}
1040
0.0
1002
}
1002
}
1002
}
1070
     0
1040
0.0
1002
{
1002
}
1002
}
1002
{
1002
}
1002
}
1002
{
1071
        3
1070
     3
1070
     0
1002
{
1070
     2
1070
     0
1070
     0
1040
0.0
1002
}
1070
     0
1070
     2
1002
{
1002
}
1002
}
1002
{
1040
8030.0
1040
190.3000030517578
1040
0.3050000071525574
1040
228.0
1040
545.0
1040
14.0
1040
17.39999961853027
1040
0.4560000002384186
1002
}
1002
}
  0
MTEXT
  5
3E35
330
1F
100
AcDbEntity
  8
SKRAVERING
100
AcDbMText
 10
42.12371597535912
 20
113.9322613271572
 30
0.0
 40
2.25
 41
107.8582
 46
0.0
 71
     1
 72
     1
  1

  7
ROMANS
 73
     1
 44
1.0
  0
MTEXT
  5
3E36
330
1F
100
AcDbEntity
  8
SKRAVERING
100
AcDbMText
 10
26.56208822423173
 20
117.1491720104302
 30
0.0
 40
2.25
 41
101.4188845685994
 46
0.0
 71
     1
 72
     1
  1

  7
ROMANS
 73
     1
 44
1.0
  0
MTEXT
  5
6EE9
330
1F
100
AcDbEntity
  8
KONTUR
100
AcDbMText
 10
152.4285729218993
 20
143.3421055475177
 30
0.0
 40
3.5
 41
214.4276
 46
0.0
 71
     1
 72
     1
  1

  7
ROMANS
 73
     1
 44
1.0
  0
INSERT
  5
71C2
330
1F
100
AcDbEntity
  8
SYN
100
AcDbBlockReference
  2
ACADN
 10
290.3240589922409
 20
26.01336859773187
 30
0.0
  0
INSERT
  5
71C3
330
1F
100
AcDbEntity
  8
HJL
100
AcDbBlockReference
  2
BORDER
 10
290.3240589922409
 20
26.01336859773187
 30
0.0
 41
197.0
 42
282.0
 43
197.0
  0
LINE
  5
71C4
330
1F
100
AcDbEntity
  8
CENTER
100
AcDbLine
 10
272.3922441559519
 20
307.4535148098328
 30
0.0
 11
272.3922441559519
 21
-20.54648519016723
 31
0.0
  0
LINE
  5
71C5
330
1F
100
AcDbEntity
  8
CENTER
100
AcDbLine
 10
291.3922441559519
 20
-5.796485190167232
 30
0.0
 11
291.3922441559519
 21
283.9535148098328
 31
0.0
  0
LINE
  5
71C6
330
1F
100
AcDbEntity
  8
CENTER
100
AcDbLine
 10
254.3922441559519
 20
307.4535148098328
 30
0.0
 11
254.3922441559519
 21
-20.54648519016723
 31
0.0
  0
LINE
  5
71C7
330
1F
100
AcDbEntity
  8
CENTER
100
AcDbLine
 10
236.3922441559519
 20
307.4535148098328
 30
0.0
 11
236.3922441559519
 21
-20.54648519016723
 31
0.0
  0
LINE
  5
71C8
330
1F
100
AcDbEntity
  8
CENTER
100
AcDbLine
 10
200.3922441559519
 20
307.4535148098328
 30
0.0
 11
200.3922441559519
 21
-20.54648519016723
 31
0.0
  0
LINE
  5
71C9
330
1F
100
AcDbEntity
  8
CENTER
100
AcDbLine
 10
218.3922441559519
 20
307.4535148098328
 30
0.0
 11
218.3922441559519
 21
-20.54648519016723
 31
0.0
  0
LINE
  5
71CA
330
1F
100
AcDbEntity
  8
CENTER
100
AcDbLine
 10
146.3922441559519
 20
307.4535148098328
 30
0.0
 11
146.3922441559519
 21
-20.79648519016723
 31
0.0
  0
LINE
  5
71CB
330
1F
100
AcDbEntity
  8
CENTER
100
AcDbLine
 10
128.3922441559519
 20
307.4535148098328
 30
0.0
 11
128.3922441559519
 21
-20.79648519016723
 31
0.0
  0
LINE
  5
71CC
330
1F
100
AcDbEntity
  8
CENTER
100
AcDbLine
 10
182.3922441559519
 20
307.4535148098328
 30
0.0
 11
182.3922441559519
 21
-20.79648519016723
 31
0.0
  0
LINE
  5
71CD
330
1F
100
AcDbEntity
  8
CENTER
100
AcDbLine
 10
110.3922441559519
 20
307.4535148098328
 30
0.0
 11
110.3922441559519
 21
-20.79648519016723
 31
0.0
  0
LINE
  5
71CE
330
1F
100
AcDbEntity
  8
CENTER
100
AcDbLine
 10
20.39224415595186
 20
307.4535148098328
 30
0.0
 11
20.39224415595186
 21
-20.79648519016723
 31
0.0
  0
LINE
  5
71CF
330
1F
100
AcDbEntity
  8
CENTER
100
AcDbLine
 10
38.39224415595186
 20
307.4535148098328
 30
0.0
 11
38.39224415595186
 21
-20.79648519016723
 31
0.0
  0
LINE
  5
71D0
330
1F
100
AcDbEntity
  8
CENTER
100
AcDbLine
 10
56.39224415595186
 20
307.4535148098328
 30
0.0
 11
56.39224415595186
 21
-20.79648519016723
 31
0.0
  0
LINE
  5
71D1
330
1F
100
AcDbEntity
  8
CENTER
100
AcDbLine
 10
74.39224415595186
 20
307.4535148098328
 30
0.0
 11
74.39224415595186
 21
-20.79648519016723
 31
0.0
  0
LINE
  5
71D2
330
1F
100
AcDbEntity
  8
CENTER
100
AcDbLine
 10
92.39224415595186
 20
307.4535148098328
 30
0.0
 11
92.39224415595186
 21
-20.79648519016723
 31
0.0
  0
LINE
  5
71D3
330
1F
100
AcDbEntity
  8
CENTER
100
AcDbLine
 10
7.392244155951857
 20
290.7035148098328
 30
0.0
 11
7.392244155951857
 21
-3.046485190167232
 31
0.0
  0
LINE
  5
71D4
330
1F
100
AcDbEntity
  8
KONTUR
100
AcDbLine
 10
274.1422441559519
 20
-24.04648519016723
 30
0.0
 11
274.1422441559519
 21
-19.54648519016723
 31
0.0
  0
LINE
  5
71D5
330
1F
100
AcDbEntity
  8
KONTUR
100
AcDbLine
 10
18.64224415595186
 20
-24.04648519016723
 30
0.0
 11
18.64224415595186
 21
-19.54648519016723
 31
0.0
  0
ARC
  5
71D6
330
1F
100
AcDbEntity
  8
SKJUL
100
AcDbCircle
 10
20.39224415595186
 20
-17.79648519016723
 30
0.0
 40
1.75
100
AcDbArc
 50
0.0
 51
180.0
  0
ARC
  5
71D7
330
1F
100
AcDbEntity
  8
KONTUR
100
AcDbCircle
 10
20.39224415595186
 20
-17.79648519016723
 30
0.0
 40
1.75
100
AcDbArc
 50
180.0
 51
0.0
  0
ARC
  5
71D8
330
1F
100
AcDbEntity
  8
SKJUL
100
AcDbCircle
 10
38.39224415595186
 20
-17.79648519016723
 30
0.0
 40
1.75
100
AcDbArc
 50
0.0
 51
180.0
  0
ARC
  5
71D9
330
1F
100
AcDbEntity
  8
KONTUR
100
AcDbCircle
 10
38.39224415595186
 20
-17.79648519016723
 30
0.0
 40
1.75
100
AcDbArc
 50
180.0
 51
0.0
  0
ARC
  5
71DA
330
1F
100
AcDbEntity
  8
SKJUL
100
AcDbCircle
 10
56.39224415595186
 20
-17.79648519016723
 30
0.0
 40
1.75
100
AcDbArc
 50
0.0
 51
180.0
  0
ARC
  5
71DB
330
1F
100
AcDbEntity
  8
KONTUR
100
AcDbCircle
 10
56.39224415595186
 20
-17.79648519016723
 30
0.0
 40
1.75
100
AcDbArc
 50
180.0
 51
0.0
  0
ARC
  5
71DC
330
1F
100
AcDbEntity
  8
SKJUL
100
AcDbCircle
 10
74.39224415595186
 20
-17.79648519016723
 30
0.0
 40
1.75
100
AcDbArc
 50
0.0
 51
180.0
  0
ARC
  5
71DD
330
1F
100
AcDbEntity
  8
KONTUR
100
AcDbCircle
 10
74.39224415595186
 20
-17.79648519016723
 30
0.0
 40
1.75
100
AcDbArc
 50
180.0
 51
0.0
  0
ARC
  5
71DE
330
1F
100
AcDbEntity
  8
SKJUL
100
AcDbCircle
 10
92.39224415595186
 20
-17.79648519016723
 30
0.0
 40
1.75
100
AcDbArc
 50
0.0
 51
180.0
  0
ARC
  5
71DF
330
1F
100
AcDbEntity
  8
KONTUR
100
AcDbCircle
 10
92.39224415595186
 20
-17.79648519016723
 30
0.0
 40
1.75
100
AcDbArc
 50
180.0
 51
0.0
  0
ARC
  5
71E0
330
1F
100
AcDbEntity
  8
SKJUL
100
AcDbCircle
 10
110.3922441559519
 20
-17.79648519016723
 30
0.0
 40
1.75
100
AcDbArc
 50
0.0
 51
180.0
  0
ARC
  5
71E1
330
1F
100
AcDbEntity
  8
KONTUR
100
AcDbCircle
 10
110.3922441559519
 20
-17.79648519016723
 30
0.0
 40
1.75
100
AcDbArc
 50
180.0
 51
0.0
  0
ARC
  5
71E2
330
1F
100
AcDbEntity
  8
KONTUR
100
AcDbCircle
 10
128.3922441559519
 20
-17.79648519016723
 30
0.0
 40
1.75
100
AcDbArc
 50
180.0
 51
0.0
  0
ARC
  5
71E3
330
1F
100
AcDbEntity
  8
SKJUL
100
AcDbCircle
 10
128.3922441559519
 20
-17.79648519016723
 30
0.0
 40
1.75
100
AcDbArc
 50
0.0
 51
180.0
  0
ARC
  5
71E4
330
1F
100
AcDbEntity
  8
SKJUL
100
AcDbCircle
 10
146.3922441559519
 20
-17.79648519016723
 30
0.0
 40
1.75
100
AcDbArc
 50
0.0
 51
180.0
  0
ARC
  5
71E5
330
1F
100
AcDbEntity
  8
KONTUR
100
AcDbCircle
 10
146.3922441559519
 20
-17.79648519016723
 30
0.0
 40
1.75
100
AcDbArc
 50
180.0
 51
0.0
  0
ARC
  5
71E6
330
1F
100
AcDbEntity
  8
KONTUR
100
AcDbCircle
 10
164.3922441559519
 20
-17.79648519016723
 30
0.0
 40
1.75
100
AcDbArc
 50
180.0
 51
0.0
  0
ARC
  5
71E7
330
1F
100
AcDbEntity
  8
SKJUL
100
AcDbCircle
 10
164.3922441559519
 20
-17.79648519016723
 30
0.0
 40
1.75
100
AcDbArc
 50
0.0
 51
180.0
  0
ARC
  5
71E8
330
1F
100
AcDbEntity
  8
KONTUR
100
AcDbCircle
 10
182.3922441559519
 20
-17.79648519016723
 30
0.0
 40
1.75
100
AcDbArc
 50
180.0
 51
0.0
  0
ARC
  5
71E9
330
1F
100
AcDbEntity
  8
SKJUL
100
AcDbCircle
 10
182.3922441559519
 20
-17.79648519016723
 30
0.0
 40
1.75
100
AcDbArc
 50
0.0
 51
180.0
  0
ARC
  5
71EA
330
1F
100
AcDbEntity
  8
SKJUL
100
AcDbCircle
 10
200.3922441559519
 20
-17.79648519016723
 30
0.0
 40
1.75
100
AcDbArc
 50
0.0
 51
180.0
  0
ARC
  5
71EB
330
1F
100
AcDbEntity
  8
KONTUR
100
AcDbCircle
 10
200.3922441559519
 20
-17.79648519016723
 30
0.0
 40
1.75
100
AcDbArc
 50
180.0
 51
0.0
  0
ARC
  5
71EC
330
1F
100
AcDbEntity
  8
SKJUL
100
AcDbCircle
 10
236.3922441559519
 20
-17.79648519016723
 30
0.0
 40
1.75
100
AcDbArc
 50
0.0
 51
180.0
  0
ARC
  5
71ED
330
1F
100
AcDbEntity
  8
KONTUR
100
AcDbCircle
 10
236.3922441559519
 20
-17.79648519016723
 30
0.0
 40
1.75
100
AcDbArc
 50
180.0
 51
0.0
  0
ARC
  5
71EE
330
1F
100
AcDbEntity
  8
SKJUL
100
AcDbCircle
 10
218.3922441559519
 20
-17.79648519016723
 30
0.0
 40
1.75
100
AcDbArc
 50
0.0
 51
180.0
  0
ARC
  5
71EF
330
1F
100
AcDbEntity
  8
KONTUR
100
AcDbCircle
 10
218.3922441559519
 20
-17.79648519016723
 30
0.0
 40
1.75
100
AcDbArc
 50
180.0
 51
0.0
  0
ARC
  5
71F0
330
1F
100
AcDbEntity
  8
KONTUR
100
AcDbCircle
 10
254.3922441559519
 20
-17.79648519016723
 30
0.0
 40
1.75
100
AcDbArc
 50
180.0
 51
0.0
  0
ARC
  5
71F1
330
1F
100
AcDbEntity
  8
SKJUL
100
AcDbCircle
 10
254.3922441559519
 20
-17.79648519016723
 30
0.0
 40
1.75
100
AcDbArc
 50
0.0
 51
180.0
  0
ARC
  5
71F2
330
1F
100
AcDbEntity
  8
SKJUL
100
AcDbCircle
 10
272.3922441559519
 20
-17.79648519016723
 30
0.0
 40
1.75
100
AcDbArc
 50
0.0
 51
180.0
  0
ARC
  5
71F3
330
1F
100
AcDbEntity
  8
KONTUR
100
AcDbCircle
 10
272.3922441559519
 20
-17.79648519016723
 30
0.0
 40
1.75
100
AcDbArc
 50
180.0
 51
0.0
  0
LINE
  5
71F4
330
1F
100
AcDbEntity
  8
CENTER
100
AcDbLine
 10
14.89224415595186
 20
-21.79648519016723
 30
0.0
 11
277.1422441559519
 21
-21.79648519016723
 31
0.0
  0
LINE
  5
71F5
330
1F
100
AcDbEntity
  8
KONTUR
100
AcDbLine
 10
274.1422441559519
 20
-19.54648519016723
 30
0.0
 11
18.64224415595186
 21
-19.54648519016723
 31
0.0
  0
LINE
  5
71F6
330
1F
100
AcDbEntity
  8
KONTUR
100
AcDbLine
 10
274.1422441559519
 20
-24.04648519016723
 30
0.0
 11
18.64224415595186
 21
-24.04648519016723
 31
0.0
  0
LINE
  5
71F7
330
1F
100
AcDbEntity
  8
KONTUR
100
AcDbLine
 10
252.6422441559519
 20
-0.5464851901672318
 30
0.0
 11
238.1422441559519
 21
-0.5464851901672318
 31
0.0
  0
LINE
  5
71F8
330
1F
100
AcDbEntity
  8
KONTUR
100
AcDbLine
 10
252.6422441559519
 20
2.953514809832768
 30
0.0
 11
238.1422441559519
 21
2.953514809832768
 31
0.0
  0
LINE
  5
71F9
330
1F
100
AcDbEntity
  8
KONTUR
100
AcDbLine
 10
270.6422441559519
 20
2.953514809832768
 30
0.0
 11
256.1422441559519
 21
2.953514809832768
 31
0.0
  0
LINE
  5
71FA
330
1F
100
AcDbEntity
  8
KONTUR
100
AcDbLine
 10
270.6422441559519
 20
-0.5464851901672318
 30
0.0
 11
256.1422441559519
 21
-0.5464851901672318
 31
0.0
  0
LINE
  5
71FB
330
1F
100
AcDbEntity
  8
KONTUR
100
AcDbLine
 10
198.6422441559519
 20
2.953514809832768
 30
0.0
 11
184.1422441559519
 21
2.953514809832768
 31
0.0
  0
LINE
  5
71FC
330
1F
100
AcDbEntity
  8
KONTUR
100
AcDbLine
 10
198.6422441559519
 20
-0.5464851901672318
 30
0.0
 11
184.1422441559519
 21
-0.5464851901672318
 31
0.0
  0
LINE
  5
71FD
330
1F
100
AcDbEntity
  8
KONTUR
100
AcDbLine
 10
216.6422441559519
 20
-0.5464851901672318
 30
0.0
 11
202.1422441559519
 21
-0.5464851901672318
 31
0.0
  0
LINE
  5
71FE
330
1F
100
AcDbEntity
  8
KONTUR
100
AcDbLine
 10
216.6422441559519
 20
2.953514809832768
 30
0.0
 11
202.1422441559519
 21
2.953514809832768
 31
0.0
  0
LINE
  5
71FF
330
1F
100
AcDbEntity
  8
KONTUR
100
AcDbLine
 10
234.6422441559519
 20
2.953514809832768
 30
0.0
 11
220.1422441559519
 21
2.953514809832768
 31
0.0
  0
LINE
  5
7200
330
1F
100
AcDbEntity
  8
KONTUR
100
AcDbLine
 10
234.6422441559519
 20
-0.5464851901672318
 30
0.0
 11
220.1422441559519
 21
-0.5464851901672318
 31
0.0
  0
LINE
  5
7201
330
1F
100
AcDbEntity
  8
KONTUR
100
AcDbLine
 10
126.6422441559519
 20
-0.5464851901672318
 30
0.0
 11
112.1422441559519
 21
-0.5464851901672318
 31
0.0
  0
LINE
  5
7202
330
1F
100
AcDbEntity
  8
KONTUR
100
AcDbLine
 10
126.6422441559519
 20
2.953514809832768
 30
0.0
 11
112.1422441559519
 21
2.953514809832768
 31
0.0
  0
LINE
  5
7203
330
1F
100
AcDbEntity
  8
KONTUR
100
AcDbLine
 10
144.6422441559519
 20
2.953514809832768
 30
0.0
 11
130.1422441559519
 21
2.953514809832768
 31
0.0
  0
LINE
  5
7204
330
1F
100
AcDbEntity
  8
KONTUR
100
AcDbLine
 10
144.6422441559519
 20
-0.5464851901672318
 30
0.0
 11
130.1422441559519
 21
-0.5464851901672318
 31
0.0
  0
LINE
  5
7205
330
1F
100
AcDbEntity
  8
KONTUR
100
AcDbLine
 10
162.6422441559519
 20
-0.5464851901672318
 30
0.0
 11
148.1422441559519
 21
-0.5464851901672318
 31
0.0
  0
LINE
  5
7206
330
1F
100
AcDbEntity
  8
KONTUR
100
AcDbLine
 10
162.6422441559519
 20
2.953514809832768
 30
0.0
 11
148.1422441559519
 21
2.953514809832768
 31
0.0
  0
LINE
  5
7207
330
1F
100
AcDbEntity
  8
KONTUR
100
AcDbLine
 10
180.6422441559519
 20
2.953514809832768
 30
0.0
 11
166.1422441559519
 21
2.953514809832768
 31
0.0
  0
LINE
  5
7208
330
1F
100
AcDbEntity
  8
KONTUR
100
AcDbLine
 10
180.6422441559519
 20
-0.5464851901672318
 30
0.0
 11
166.1422441559519
 21
-0.5464851901672318
 31
0.0
  0
LINE
  5
7209
330
1F
100
AcDbEntity
  8
KONTUR
100
AcDbLine
 10
72.64224415595186
 20
-0.5464851901672318
 30
0.0
 11
58.14224415595186
 21
-0.5464851901672318
 31
0.0
  0
LINE
  5
720A
330
1F
100
AcDbEntity
  8
KONTUR
100
AcDbLine
 10
72.64224415595186
 20
2.953514809832768
 30
0.0
 11
58.14224415595186
 21
2.953514809832768
 31
0.0
  0
LINE
  5
720B
330
1F
100
AcDbEntity
  8
KONTUR
100
AcDbLine
 10
90.64224415595186
 20
-0.5464851901672318
 30
0.0
 11
76.14224415595186
 21
-0.5464851901672318
 31
0.0
  0
LINE
  5
720C
330
1F
100
AcDbEntity
  8
KONTUR
100
AcDbLine
 10
90.64224415595186
 20
2.953514809832768
 30
0.0
 11
76.14224415595186
 21
2.953514809832768
 31
0.0
  0
LINE
  5
720D
330
1F
100
AcDbEntity
  8
KONTUR
100
AcDbLine
 10
108.6422441559519
 20
2.953514809832768
 30
0.0
 11
94.14224415595186
 21
2.953514809832768
 31
0.0
  0
LINE
  5
720E
330
1F
100
AcDbEntity
  8
KONTUR
100
AcDbLine
 10
108.6422441559519
 20
-0.5464851901672318
 30
0.0
 11
94.14224415595186
 21
-0.5464851901672318
 31
0.0
  0
LINE
  5
720F
330
1F
100
AcDbEntity
  8
KONTUR
100
AcDbLine
 10
18.64224415595186
 20
2.953514809832768
 30
0.0
 11
9.642244155951857
 21
2.953514809832768
 31
0.0
  0
LINE
  5
7210
330
1F
100
AcDbEntity
  8
KONTUR
100
AcDbLine
 10
18.64224415595186
 20
-0.5464851901672318
 30
0.0
 11
3.392244155951857
 21
-0.5464851901672318
 31
0.0
  0
LINE
  5
7211
330
1F
100
AcDbEntity
  8
KONTUR
100
AcDbLine
 10
36.64224415595186
 20
-0.5464851901672318
 30
0.0
 11
22.14224415595186
 21
-0.5464851901672318
 31
0.0
  0
LINE
  5
7212
330
1F
100
AcDbEntity
  8
KONTUR
100
AcDbLine
 10
36.64224415595186
 20
2.953514809832768
 30
0.0
 11
22.14224415595186
 21
2.953514809832768
 31
0.0
  0
LINE
  5
7213
330
1F
100
AcDbEntity
  8
KONTUR
100
AcDbLine
 10
54.64224415595186
 20
2.953514809832768
 30
0.0
 11
40.14224415595186
 21
2.953514809832768
 31
0.0
  0
LINE
  5
7214
330
1F
100
AcDbEntity
  8
KONTUR
100
AcDbLine
 10
54.64224415595186
 20
-0.5464851901672318
 30
0.0
 11
40.14224415595186
 21
-0.5464851901672318
 31
0.0
  0
LINE
  5
7215
330
1F
100
AcDbEntity
  8
KONTUR
100
AcDbLine
 10
5.142244155951857
 20
2.953514809832768
 30
0.0
 11
3.392244155951857
 21
2.953514809832768
 31
0.0
  0
CIRCLE
  5
7216
330
1F
100
AcDbEntity
  8
KONTUR
100
AcDbCircle
 10
3.392244155951857
 20
1.203514809832768
 30
0.0
 40
1.75
  0
LINE
  5
7217
330
1F
100
AcDbEntity
  8
KONTUR
100
AcDbLine
 10
289.1422441559519
 20
-0.5464851901672318
 30
0.0
 11
293.6422441559519
 21
-0.5464851901672318
 31
0.0
  0
ARC
  5
7218
330
1F
100
AcDbEntity
  8
SKJUL
100
AcDbCircle
 10
287.3922441559519
 20
1.203514809832768
 30
0.0
 40
1.75
100
AcDbArc
 50
90.0
 51
270.0
  0
ARC
  5
7219
330
1F
100
AcDbEntity
  8
KONTUR
100
AcDbCircle
 10
287.3922441559519
 20
1.203514809832768
 30
0.0
 40
1.75
100
AcDbArc
 50
270.0
 51
90.0
  0
LINE
  5
721A
330
1F
100
AcDbEntity
  8
KONTUR
100
AcDbLine
 10
287.3922441559519
 20
2.953514809832768
 30
0.0
 11
274.1422441559519
 21
2.953514809832768
 31
0.0
  0
LINE
  5
721B
330
1F
100
AcDbEntity
  8
KONTUR
100
AcDbLine
 10
287.3922441559519
 20
-0.5464851901672318
 30
0.0
 11
274.1422441559519
 21
-0.5464851901672318
 31
0.0
  0
LINE
  5
721C
330
1F
100
AcDbEntity
  8
CENTER
100
AcDbLine
 10
296.8922441559519
 20
1.203514809832768
 30
0.0
 11
0.1422441559518575
 21
1.203514809832768
 31
0.0
  0
LINE
  5
721D
330
1F
100
AcDbEntity
  8
KONTUR
100
AcDbLine
 10
144.6422441559519
 20
62.95351480983277
 30
0.0
 11
130.1422441559519
 21
62.95351480983277
 31
0.0
  0
LINE
  5
721E
330
1F
100
AcDbEntity
  8
KONTUR
100
AcDbLine
 10
144.6422441559519
 20
59.45351480983277
 30
0.0
 11
130.1422441559519
 21
59.45351480983277
 31
0.0
  0
LINE
  5
721F
330
1F
100
AcDbEntity
  8
KONTUR
100
AcDbLine
 10
180.6422441559519
 20
62.95351480983277
 30
0.0
 11
166.1422441559519
 21
62.95351480983277
 31
0.0
  0
LINE
  5
7220
330
1F
100
AcDbEntity
  8
KONTUR
100
AcDbLine
 10
180.6422441559519
 20
59.45351480983277
 30
0.0
 11
166.1422441559519
 21
59.45351480983277
 31
0.0
  0
LINE
  5
7221
330
1F
100
AcDbEntity
  8
KONTUR
100
AcDbLine
 10
162.6422441559519
 20
59.45351480983277
 30
0.0
 11
148.1422441559519
 21
59.45351480983277
 31
0.0
  0
LINE
  5
7222
330
1F
100
AcDbEntity
  8
KONTUR
100
AcDbLine
 10
162.6422441559519
 20
62.95351480983277
 30
0.0
 11
148.1422441559519
 21
62.95351480983277
 31
0.0
  0
LINE
  5
7223
330
1F
100
AcDbEntity
  8
KONTUR
100
AcDbLine
 10
216.6422441559519
 20
59.45351480983277
 30
0.0
 11
202.1422441559519
 21
59.45351480983277
 31
0.0
  0
LINE
  5
7224
330
1F
100
AcDbEntity
  8
KONTUR
100
AcDbLine
 10
216.6422441559519
 20
62.95351480983277
 30
0.0
 11
202.1422441559519
 21
62.95351480983277
 31
0.0
  0
LINE
  5
7225
330
1F
100
AcDbEntity
  8
KONTUR
100
AcDbLine
 10
198.6422441559519
 20
62.95351480983277
 30
0.0
 11
184.1422441559519
 21
62.95351480983277
 31
0.0
  0
LINE
  5
7226
330
1F
100
AcDbEntity
  8
KONTUR
100
AcDbLine
 10
198.6422441559519
 20
59.45351480983277
 30
0.0
 11
184.1422441559519
 21
59.45351480983277
 31
0.0
  0
LINE
  5
7227
330
1F
100
AcDbEntity
  8
CENTER
100
AcDbLine
 10
296.8922441559519
 20
61.20351480983277
 30
0.0
 11
0.1422441559518575
 21
61.20351480983277
 31
0.0
  0
LINE
  5
7228
330
1F
100
AcDbEntity
  8
KONTUR
100
AcDbLine
 10
287.3922441559519
 20
62.95351480983277
 30
0.0
 11
274.1422441559519
 21
62.95351480983277
 31
0.0
  0
LINE
  5
7229
330
1F
100
AcDbEntity
  8
KONTUR
100
AcDbLine
 10
287.3922441559519
 20
59.45351480983277
 30
0.0
 11
274.1422441559519
 21
59.45351480983277
 31
0.0
  0
ARC
  5
722A
330
1F
100
AcDbEntity
  8
KONTUR
100
AcDbCircle
 10
287.3922441559519
 20
61.20351480983277
 30
0.0
 40
1.75
100
AcDbArc
 50
270.0
 51
90.0
  0
ARC
  5
722B
330
1F
100
AcDbEntity
  8
SKJUL
100
AcDbCircle
 10
287.3922441559519
 20
61.20351480983277
 30
0.0
 40
1.75
100
AcDbArc
 50
90.0
 51
270.0
  0
LINE
  5
722C
330
1F
100
AcDbEntity
  8
KONTUR
100
AcDbLine
 10
234.6422441559519
 20
62.95351480983277
 30
0.0
 11
220.1422441559519
 21
62.95351480983277
 31
0.0
  0
LINE
  5
722D
330
1F
100
AcDbEntity
  8
KONTUR
100
AcDbLine
 10
234.6422441559519
 20
59.45351480983277
 30
0.0
 11
220.1422441559519
 21
59.45351480983277
 31
0.0
  0
LINE
  5
722E
330
1F
100
AcDbEntity
  8
KONTUR
100
AcDbLine
 10
270.6422441559519
 20
62.95351480983277
 30
0.0
 11
256.1422441559519
 21
62.95351480983277
 31
0.0
  0
LINE
  5
722F
330
1F
100
AcDbEntity
  8
KONTUR
100
AcDbLine
 10
270.6422441559519
 20
59.45351480983277
 30
0.0
 11
256.1422441559519
 21
59.45351480983277
 31
0.0
  0
LINE
  5
7230
330
1F
100
AcDbEntity
  8
KONTUR
100
AcDbLine
 10
252.6422441559519
 20
59.45351480983277
 30
0.0
 11
238.1422441559519
 21
59.45351480983277
 31
0.0
  0
LINE
  5
7231
330
1F
100
AcDbEntity
  8
KONTUR
100
AcDbLine
 10
252.6422441559519
 20
62.95351480983277
 30
0.0
 11
238.1422441559519
 21
62.95351480983277
 31
0.0
  0
LINE
  5
7232
330
1F
100
AcDbEntity
  8
KONTUR
100
AcDbLine
 10
5.142244155951857
 20
62.95351480983277
 30
0.0
 11
3.392244155951857
 21
62.95351480983277
 31
0.0
  0
CIRCLE
  5
7233
330
1F
100
AcDbEntity
  8
KONTUR
100
AcDbCircle
 10
3.392244155951857
 20
61.20351480983277
 30
0.0
 40
1.75
  0
LINE
  5
7234
330
1F
100
AcDbEntity
  8
KONTUR
100
AcDbLine
 10
5.142244155951857
 20
59.45351480983277
 30
0.0
 11
3.392244155951857
 21
59.45351480983277
 31
0.0
  0
LINE
  5
7235
330
1F
100
AcDbEntity
  8
KONTUR
100
AcDbLine
 10
54.64224415595186
 20
62.95351480983277
 30
0.0
 11
40.14224415595186
 21
62.95351480983277
 31
0.0
  0
LINE
  5
7236
330
1F
100
AcDbEntity
  8
KONTUR
100
AcDbLine
 10
54.64224415595186
 20
59.45351480983277
 30
0.0
 11
40.14224415595186
 21
59.45351480983277
 31
0.0
  0
LINE
  5
7237
330
1F
100
AcDbEntity
  8
KONTUR
100
AcDbLine
 10
36.64224415595186
 20
59.45351480983277
 30
0.0
 11
22.14224415595186
 21
59.45351480983277
 31
0.0
  0
LINE
  5
7238
330
1F
100
AcDbEntity
  8
KONTUR
100
AcDbLine
 10
36.64224415595186
 20
62.95351480983277
 30
0.0
 11
22.14224415595186
 21
62.95351480983277
 31
0.0
  0
LINE
  5
7239
330
1F
100
AcDbEntity
  8
KONTUR
100
AcDbLine
 10
18.64224415595186
 20
62.95351480983277
 30
0.0
 11
9.642244155951857
 21
62.95351480983277
 31
0.0
  0
LINE
  5
723A
330
1F
100
AcDbEntity
  8
KONTUR
100
AcDbLine
 10
18.64224415595186
 20
59.45351480983277
 30
0.0
 11
9.642244155951857
 21
59.45351480983277
 31
0.0
  0
LINE
  5
723B
330
1F
100
AcDbEntity
  8
KONTUR
100
AcDbLine
 10
108.6422441559519
 20
62.95351480983277
 30
0.0
 11
94.14224415595186
 21
62.95351480983277
 31
0.0
  0
LINE
  5
723C
330
1F
100
AcDbEntity
  8
KONTUR
100
AcDbLine
 10
108.6422441559519
 20
59.45351480983277
 30
0.0
 11
94.14224415595186
 21
59.45351480983277
 31
0.0
  0
LINE
  5
723D
330
1F
100
AcDbEntity
  8
KONTUR
100
AcDbLine
 10
90.64224415595186
 20
59.45351480983277
 30
0.0
 11
76.14224415595186
 21
59.45351480983277
 31
0.0
  0
LINE
  5
723E
330
1F
100
AcDbEntity
  8
KONTUR
100
AcDbLine
 10
90.64224415595186
 20
62.95351480983277
 30
0.0
 11
76.14224415595186
 21
62.95351480983277
 31
0.0
  0
LINE
  5
723F
330
1F
100
AcDbEntity
  8
KONTUR
100
AcDbLine
 10
72.64224415595186
 20
59.45351480983277
 30
0.0
 11
58.14224415595186
 21
59.45351480983277
 31
0.0
  0
LINE
  5
7240
330
1F
100
AcDbEntity
  8
KONTUR
100
AcDbLine
 10
72.64224415595186
 20
62.95351480983277
 30
0.0
 11
58.14224415595186
 21
62.95351480983277
 31
0.0
  0
LINE
  5
7241
330
1F
100
AcDbEntity
  8
KONTUR
100
AcDbLine
 10
126.6422441559519
 20
59.45351480983277
 30
0.0
 11
112.1422441559519
 21
59.45351480983277
 31
0.0
  0
LINE
  5
7242
330
1F
100
AcDbEntity
  8
KONTUR
100
AcDbLine
 10
126.6422441559519
 20
62.95351480983277
 30
0.0
 11
112.1422441559519
 21
62.95351480983277
 31
0.0
  0
LINE
  5
7243
330
1F
100
AcDbEntity
  8
KONTUR
100
AcDbLine
 10
252.6422441559519
 20
122.9535148098328
 30
0.0
 11
238.1422441559519
 21
122.9535148098328
 31
0.0
  0
LINE
  5
7244
330
1F
100
AcDbEntity
  8
KONTUR
100
AcDbLine
 10
252.6422441559519
 20
119.4535148098328
 30
0.0
 11
238.1422441559519
 21
119.4535148098328
 31
0.0
  0
LINE
  5
7245
330
1F
100
AcDbEntity
  8
KONTUR
100
AcDbLine
 10
270.6422441559519
 20
119.4535148098328
 30
0.0
 11
256.1422441559519
 21
119.4535148098328
 31
0.0
  0
LINE
  5
7246
330
1F
100
AcDbEntity
  8
KONTUR
100
AcDbLine
 10
270.6422441559519
 20
122.9535148098328
 30
0.0
 11
256.1422441559519
 21
122.9535148098328
 31
0.0
  0
LINE
  5
7247
330
1F
100
AcDbEntity
  8
KONTUR
100
AcDbLine
 10
234.6422441559519
 20
119.4535148098328
 30
0.0
 11
220.1422441559519
 21
119.4535148098328
 31
0.0
  0
LINE
  5
7248
330
1F
100
AcDbEntity
  8
KONTUR
100
AcDbLine
 10
234.6422441559519
 20
122.9535148098328
 30
0.0
 11
220.1422441559519
 21
122.9535148098328
 31
0.0
  0
ARC
  5
7249
330
1F
100
AcDbEntity
  8
SKJUL
100
AcDbCircle
 10
287.3922441559519
 20
121.2035148098328
 30
0.0
 40
1.75
100
AcDbArc
 50
90.0
 51
270.0
  0
ARC
  5
724A
330
1F
100
AcDbEntity
  8
KONTUR
100
AcDbCircle
 10
287.3922441559519
 20
121.2035148098328
 30
0.0
 40
1.75
100
AcDbArc
 50
270.0
 51
90.0
  0
LINE
  5
724B
330
1F
100
AcDbEntity
  8
KONTUR
100
AcDbLine
 10
287.3922441559519
 20
119.4535148098328
 30
0.0
 11
274.1422441559519
 21
119.4535148098328
 31
0.0
  0
LINE
  5
724C
330
1F
100
AcDbEntity
  8
KONTUR
100
AcDbLine
 10
287.3922441559519
 20
122.9535148098328
 30
0.0
 11
274.1422441559519
 21
122.9535148098328
 31
0.0
  0
LINE
  5
724D
330
1F
100
AcDbEntity
  8
KONTUR
100
AcDbLine
 10
216.6422441559519
 20
122.9535148098328
 30
0.0
 11
202.1422441559519
 21
122.9535148098328
 31
0.0
  0
LINE
  5
724E
330
1F
100
AcDbEntity
  8
KONTUR
100
AcDbLine
 10
216.6422441559519
 20
119.4535148098328
 30
0.0
 11
202.1422441559519
 21
119.4535148098328
 31
0.0
  0
LINE
  5
724F
330
1F
100
AcDbEntity
  8
KONTUR
100
AcDbLine
 10
198.6422441559519
 20
122.9535148098328
 30
0.0
 11
184.1422441559519
 21
122.9535148098328
 31
0.0
  0
LINE
  5
7250
330
1F
100
AcDbEntity
  8
KONTUR
100
AcDbLine
 10
198.6422441559519
 20
119.4535148098328
 30
0.0
 11
184.1422441559519
 21
119.4535148098328
 31
0.0
  0
LINE
  5
7251
330
1F
100
AcDbEntity
  8
CENTER
100
AcDbLine
 10
296.8922441559519
 20
121.2035148098328
 30
0.0
 11
0.1422441559518575
 21
121.2035148098328
 31
0.0
  0
LINE
  5
7252
330
1F
100
AcDbEntity
  8
KONTUR
100
AcDbLine
 10
162.6422441559519
 20
122.9535148098328
 30
0.0
 11
148.1422441559519
 21
122.9535148098328
 31
0.0
  0
LINE
  5
7253
330
1F
100
AcDbEntity
  8
KONTUR
100
AcDbLine
 10
162.6422441559519
 20
119.4535148098328
 30
0.0
 11
148.1422441559519
 21
119.4535148098328
 31
0.0
  0
LINE
  5
7254
330
1F
100
AcDbEntity
  8
KONTUR
100
AcDbLine
 10
180.6422441559519
 20
119.4535148098328
 30
0.0
 11
166.1422441559519
 21
119.4535148098328
 31
0.0
  0
LINE
  5
7255
330
1F
100
AcDbEntity
  8
KONTUR
100
AcDbLine
 10
180.6422441559519
 20
122.9535148098328
 30
0.0
 11
166.1422441559519
 21
122.9535148098328
 31
0.0
  0
LINE
  5
7256
330
1F
100
AcDbEntity
  8
KONTUR
100
AcDbLine
 10
126.6422441559519
 20
122.9535148098328
 30
0.0
 11
112.1422441559519
 21
122.9535148098328
 31
0.0
  0
LINE
  5
7257
330
1F
100
AcDbEntity
  8
KONTUR
100
AcDbLine
 10
126.6422441559519
 20
119.4535148098328
 30
0.0
 11
112.1422441559519
 21
119.4535148098328
 31
0.0
  0
LINE
  5
7258
330
1F
100
AcDbEntity
  8
KONTUR
100
AcDbLine
 10
144.6422441559519
 20
119.4535148098328
 30
0.0
 11
130.1422441559519
 21
119.4535148098328
 31
0.0
  0
LINE
  5
7259
330
1F
100
AcDbEntity
  8
KONTUR
100
AcDbLine
 10
144.6422441559519
 20
122.9535148098328
 30
0.0
 11
130.1422441559519
 21
122.9535148098328
 31
0.0
  0
LINE
  5
725A
330
1F
100
AcDbEntity
  8
KONTUR
100
AcDbLine
 10
108.6422441559519
 20
119.4535148098328
 30
0.0
 11
94.14224415595186
 21
119.4535148098328
 31
0.0
  0
LINE
  5
725B
330
1F
100
AcDbEntity
  8
KONTUR
100
AcDbLine
 10
108.6422441559519
 20
122.9535148098328
 30
0.0
 11
94.14224415595186
 21
122.9535148098328
 31
0.0
  0
LINE
  5
725C
330
1F
100
AcDbEntity
  8
KONTUR
100
AcDbLine
 10
90.64224415595186
 20
122.9535148098328
 30
0.0
 11
76.14224415595186
 21
122.9535148098328
 31
0.0
  0
LINE
  5
725D
330
1F
100
AcDbEntity
  8
KONTUR
100
AcDbLine
 10
90.64224415595186
 20
119.4535148098328
 30
0.0
 11
76.14224415595186
 21
119.4535148098328
 31
0.0
  0
LINE
  5
725E
330
1F
100
AcDbEntity
  8
KONTUR
100
AcDbLine
 10
72.64224415595186
 20
122.9535148098328
 30
0.0
 11
58.14224415595186
 21
122.9535148098328
 31
0.0
  0
LINE
  5
725F
330
1F
100
AcDbEntity
  8
KONTUR
100
AcDbLine
 10
72.64224415595186
 20
119.4535148098328
 30
0.0
 11
58.14224415595186
 21
119.4535148098328
 31
0.0
  0
LINE
  5
7260
330
1F
100
AcDbEntity
  8
KONTUR
100
AcDbLine
 10
18.64224415595186
 20
119.4535148098328
 30
0.0
 11
9.642244155951857
 21
119.4535148098328
 31
0.0
  0
LINE
  5
7261
330
1F
100
AcDbEntity
  8
KONTUR
100
AcDbLine
 10
18.64224415595186
 20
122.9535148098328
 30
0.0
 11
9.642244155951857
 21
122.9535148098328
 31
0.0
  0
LINE
  5
7262
330
1F
100
AcDbEntity
  8
KONTUR
100
AcDbLine
 10
36.64224415595186
 20
122.9535148098328
 30
0.0
 11
22.14224415595186
 21
122.9535148098328
 31
0.0
  0
LINE
  5
7263
330
1F
100
AcDbEntity
  8
KONTUR
100
AcDbLine
 10
36.64224415595186
 20
119.4535148098328
 30
0.0
 11
22.14224415595186
 21
119.4535148098328
 31
0.0
  0
LINE
  5
7264
330
1F
100
AcDbEntity
  8
KONTUR
100
AcDbLine
 10
54.64224415595186
 20
119.4535148098328
 30
0.0
 11
40.14224415595186
 21
119.4535148098328
 31
0.0
  0
LINE
  5
7265
330
1F
100
AcDbEntity
  8
KONTUR
100
AcDbLine
 10
54.64224415595186
 20
122.9535148098328
 30
0.0
 11
40.14224415595186
 21
122.9535148098328
 31
0.0
  0
LINE
  5
7266
330
1F
100
AcDbEntity
  8
KONTUR
100
AcDbLine
 10
5.142244155951857
 20
119.4535148098328
 30
0.0
 11
3.392244155951857
 21
119.4535148098328
 31
0.0
  0
CIRCLE
  5
7267
330
1F
100
AcDbEntity
  8
KONTUR
100
AcDbCircle
 10
3.392244155951857
 20
121.2035148098328
 30
0.0
 40
1.75
  0
LINE
  5
7268
330
1F
100
AcDbEntity
  8
KONTUR
100
AcDbLine
 10
5.142244155951857
 20
122.9535148098328
 30
0.0
 11
3.392244155951857
 21
122.9535148098328
 31
0.0
  0
LINE
  5
7269
330
1F
100
AcDbEntity
  8
KONTUR
100
AcDbLine
 10
5.142244155951857
 20
134.9535148098328
 30
0.0
 11
5.142244155951857
 21
-0.5464851901672318
 31
0.0
  0
LINE
  5
726A
330
1F
100
AcDbEntity
  8
KONTUR
100
AcDbLine
 10
9.642244155951857
 20
134.9535148098328
 30
0.0
 11
9.642244155951857
 21
-0.5464851901672318
 31
0.0
  0
LINE
  5
726B
330
1F
100
AcDbEntity
  8
KONTUR
100
AcDbLine
 10
18.64224415595186
 20
134.9535148098328
 30
0.0
 11
18.64224415595186
 21
-1.796485190167232
 31
0.0
  0
LINE
  5
726C
330
1F
100
AcDbEntity
  8
KONTUR
100
AcDbLine
 10
22.14224415595186
 20
134.9535148098328
 30
0.0
 11
22.14224415595186
 21
-1.796485190167232
 31
0.0
  0
LINE
  5
726D
330
1F
100
AcDbEntity
  8
KONTUR
100
AcDbLine
 10
36.64224415595186
 20
134.9535148098328
 30
0.0
 11
36.64224415595186
 21
-1.796485190167232
 31
0.0
  0
LINE
  5
726E
330
1F
100
AcDbEntity
  8
KONTUR
100
AcDbLine
 10
40.14224415595186
 20
134.9535148098328
 30
0.0
 11
40.14224415595186
 21
-1.796485190167232
 31
0.0
  0
LINE
  5
726F
330
1F
100
AcDbEntity
  8
KONTUR
100
AcDbLine
 10
54.64224415595186
 20
134.9535148098328
 30
0.0
 11
54.64224415595186
 21
-1.796485190167232
 31
0.0
  0
LINE
  5
7270
330
1F
100
AcDbEntity
  8
KONTUR
100
AcDbLine
 10
58.14224415595186
 20
134.9535148098328
 30
0.0
 11
58.14224415595186
 21
-1.796485190167232
 31
0.0
  0
LINE
  5
7271
330
1F
100
AcDbEntity
  8
KONTUR
100
AcDbLine
 10
72.64224415595186
 20
134.9535148098328
 30
0.0
 11
72.64224415595186
 21
-1.796485190167232
 31
0.0
  0
LINE
  5
7272
330
1F
100
AcDbEntity
  8
KONTUR
100
AcDbLine
 10
76.14224415595186
 20
134.9535148098328
 30
0.0
 11
76.14224415595186
 21
-1.796485190167232
 31
0.0
  0
LINE
  5
7273
330
1F
100
AcDbEntity
  8
KONTUR
100
AcDbLine
 10
90.64224415595186
 20
134.9535148098328
 30
0.0
 11
90.64224415595186
 21
-1.796485190167232
 31
0.0
  0
LINE
  5
7274
330
1F
100
AcDbEntity
  8
KONTUR
100
AcDbLine
 10
94.14224415595186
 20
134.9535148098328
 30
0.0
 11
94.14224415595186
 21
-1.796485190167232
 31
0.0
  0
LINE
  5
7275
330
1F
100
AcDbEntity
  8
KONTUR
100
AcDbLine
 10
108.6422441559519
 20
134.9535148098328
 30
0.0
 11
108.6422441559519
 21
-1.796485190167232
 31
0.0
  0
LINE
  5
7276
330
1F
100
AcDbEntity
  8
KONTUR
100
AcDbLine
 10
112.1422441559519
 20
134.9535148098328
 30
0.0
 11
112.1422441559519
 21
-1.796485190167232
 31
0.0
  0
LINE
  5
7277
330
1F
100
AcDbEntity
  8
KONTUR
100
AcDbLine
 10
126.6422441559519
 20
134.9535148098328
 30
0.0
 11
126.6422441559519
 21
-1.796485190167232
 31
0.0
  0
LINE
  5
7278
330
1F
100
AcDbEntity
  8
KONTUR
100
AcDbLine
 10
130.1422441559519
 20
134.9535148098328
 30
0.0
 11
130.1422441559519
 21
-1.796485190167232
 31
0.0
  0
LINE
  5
7279
330
1F
100
AcDbEntity
  8
KONTUR
100
AcDbLine
 10
144.6422441559519
 20
134.9535148098328
 30
0.0
 11
144.6422441559519
 21
-1.796485190167232
 31
0.0
  0
LINE
  5
727A
330
1F
100
AcDbEntity
  8
KONTUR
100
AcDbLine
 10
148.1422441559519
 20
134.9535148098328
 30
0.0
 11
148.1422441559519
 21
-1.796485190167232
 31
0.0
  0
LINE
  5
727B
330
1F
100
AcDbEntity
  8
KONTUR
100
AcDbLine
 10
166.1422441559519
 20
134.9535148098328
 30
0.0
 11
166.1422441559519
 21
-1.796485190167232
 31
0.0
  0
LINE
  5
727C
330
1F
100
AcDbEntity
  8
KONTUR
100
AcDbLine
 10
162.6422441559519
 20
134.9535148098328
 30
0.0
 11
162.6422441559519
 21
-1.796485190167232
 31
0.0
  0
LINE
  5
727D
330
1F
100
AcDbEntity
  8
KONTUR
100
AcDbLine
 10
180.6422441559519
 20
134.9535148098328
 30
0.0
 11
180.6422441559519
 21
-1.796485190167232
 31
0.0
  0
LINE
  5
727E
330
1F
100
AcDbEntity
  8
KONTUR
100
AcDbLine
 10
184.1422441559519
 20
134.9535148098328
 30
0.0
 11
184.1422441559519
 21
-1.796485190167232
 31
0.0
  0
LINE
  5
727F
330
1F
100
AcDbEntity
  8
KONTUR
100
AcDbLine
 10
198.6422441559519
 20
134.9535148098328
 30
0.0
 11
198.6422441559519
 21
-1.796485190167232
 31
0.0
  0
LINE
  5
7280
330
1F
100
AcDbEntity
  8
KONTUR
100
AcDbLine
 10
202.1422441559519
 20
134.9535148098328
 30
0.0
 11
202.1422441559519
 21
-1.796485190167232
 31
0.0
  0
LINE
  5
7281
330
1F
100
AcDbEntity
  8
KONTUR
100
AcDbLine
 10
216.6422441559519
 20
134.9535148098328
 30
0.0
 11
216.6422441559519
 21
-1.796485190167232
 31
0.0
  0
LINE
  5
7282
330
1F
100
AcDbEntity
  8
KONTUR
100
AcDbLine
 10
220.1422441559519
 20
134.9535148098328
 30
0.0
 11
220.1422441559519
 21
-1.796485190167232
 31
0.0
  0
LINE
  5
7283
330
1F
100
AcDbEntity
  8
KONTUR
100
AcDbLine
 10
234.6422441559519
 20
134.9535148098328
 30
0.0
 11
234.6422441559519
 21
-1.796485190167232
 31
0.0
  0
LINE
  5
7284
330
1F
100
AcDbEntity
  8
KONTUR
100
AcDbLine
 10
238.1422441559519
 20
134.9535148098328
 30
0.0
 11
238.1422441559519
 21
-1.796485190167232
 31
0.0
  0
LINE
  5
7285
330
1F
100
AcDbEntity
  8
KONTUR
100
AcDbLine
 10
252.6422441559519
 20
134.9535148098328
 30
0.0
 11
252.6422441559519
 21
-1.796485190167232
 31
0.0
  0
LINE
  5
7286
330
1F
100
AcDbEntity
  8
KONTUR
100
AcDbLine
 10
256.1422441559519
 20
134.9535148098328
 30
0.0
 11
256.1422441559519
 21
-1.796485190167232
 31
0.0
  0
LINE
  5
7287
330
1F
100
AcDbEntity
  8
KONTUR
100
AcDbLine
 10
270.6422441559519
 20
134.9535148098328
 30
0.0
 11
270.6422441559519
 21
-1.796485190167232
 31
0.0
  0
LINE
  5
7288
330
1F
100
AcDbEntity
  8
KONTUR
100
AcDbLine
 10
274.1422441559519
 20
134.9535148098328
 30
0.0
 11
274.1422441559519
 21
-1.796485190167232
 31
0.0
  0
LINE
  5
7289
330
1F
100
AcDbEntity
  8
KONTUR
100
AcDbLine
 10
289.1422441559519
 20
134.9535148098328
 30
0.0
 11
289.1422441559519
 21
-0.5464851901672318
 31
0.0
  0
LINE
  5
728A
330
1F
100
AcDbEntity
  8
KONTUR
100
AcDbLine
 10
293.6422441559519
 20
134.9535148098328
 30
0.0
 11
293.6422441559519
 21
-0.5464851901672318
 31
0.0
  0
LINE
  5
728B
330
1F
100
AcDbEntity
  8
CENTER
100
AcDbLine
 10
164.3922441559519
 20
307.4535148098328
 30
0.0
 11
164.3922441559519
 21
-20.79648519016723
 31
0.0
  0
LINE
  5
728C
330
1F
100
AcDbEntity
  8
CENTER
100
AcDbLine
 10
301.3922441559519
 20
134.9535148098328
 30
0.0
 11
-2.607755844048143
 21
134.9535148098328
 31
0.0
  0
LINE
  5
728D
330
1F
100
AcDbEntity
  8
MÅL
  6
Continuous
 62
     1
100
AcDbLine
 10
-36.35775584404814
 20
-14.79648519016723
 30
0.0
 11
-36.35775584404814
 21
134.9535148098328
 31
0.0
  0
SOLID
  5
728E
330
1F
100
AcDbEntity
  8
MÅL
  6
Continuous
 62
     1
100
AcDbTrace
 10
-37.52442251071488
 20
-14.79648519016723
 30
0.0
 11
-35.1910891773814
 21
-14.79648519016723
 31
0.0
 12
-36.35775584404814
 22
-21.79648519016723
 32
0.0
 13
-36.35775584404814
 23
-21.79648519016723
 33
0.0
  0
SOLID
  5
728F
330
1F
100
AcDbEntity
  8
MÅL
  6
Continuous
 62
     1
100
AcDbTrace
 10
-37.52442251071488
 20
296.7035148098328
 30
0.0
 11
-35.1910891773814
 21
296.7035148098328
 31
0.0
 12
-36.35775584404814
 22
303.7035148098328
 32
0.0
 13
-36.35775584404814
 23
303.7035148098328
 33
0.0
  0
TEXT
  5
7290
330
1F
100
AcDbEntity
  8
035
  6
ByBlock
 62
     4
100
AcDbText
 10
-39.85775584404814
 20
108.4685148098328
 30
0.0
 40
7.0
  1
526
 50
90.0
  7
ROMANS
 72
     4
 11
-43.35775584404814
 21
117.9535148098328
 31
0.0
100
AcDbText
  0
POINT
  5
7291
330
1F
100
AcDbEntity
  8
DEFPOINTS
  6
ByBlock
 62
     0
100
AcDbPoint
 10
277.1422441559519
 20
-21.79648519016723
 30
0.0
  0
POINT
  5
7292
330
1F
100
AcDbEntity
  8
MÅL
  6
Continuous
 62
     1
100
AcDbPoint
 10
-36.35775584404814
 20
303.7035148098328
 30
0.0
  0
LINE
  5
7293
330
1F
100
AcDbEntity
  8
MÅL
  6
Continuous
 62
     1
100
AcDbLine
 10
-36.35775584404814
 20
134.9535148098328
 30
0.0
 11
-28.35775584404814
 21
134.9535148098328
 31
0.0
  0
LINE
  5
7294
330
1F
100
AcDbEntity
  8
MÅL
  6
Continuous
 62
     1
100
AcDbLine
 10
-44.35775584404814
 20
142.9535148098328
 30
0.0
 11
-28.35775584404814
 21
134.9535148098328
 31
0.0
  0
LINE
  5
7295
330
1F
100
AcDbEntity
  8
MÅL
  6
Continuous
 62
     1
100
AcDbLine
 10
-36.35775584404814
 20
142.9535148098328
 30
0.0
 11
-36.35775584404814
 21
296.7035148098328
 31
0.0
  0
LINE
  5
7296
330
1F
100
AcDbEntity
  8
MÅL
  6
Continuous
 62
     1
100
AcDbLine
 10
-36.35775584404814
 20
142.9535148098328
 30
0.0
 11
-44.35775584404814
 21
142.9535148098328
 31
0.0
  0
DIMENSION
  5
7297
330
1F
100
AcDbEntity
  8
MÅL
  6
Continuous
 62
     1
100
AcDbDimension
  2
*D5
 10
291.3922441559519
 20
324.7035148098328
 30
0.0
 11
149.3922441559519
 21
332.2035148098328
 31
0.0
 12
1.220925489844831
 22
32.91875632441338
 32
0.0
 70
    32
  1
284
 71
     5
 42
-1.0
 73
     0
 74
     0
 75
     0
  3
ROMANS
100
AcDbAlignedDimension
 13
7.392244155951857
 23
290.7035148098328
 33
0.0
 14
291.3922441559519
 24
283.9535148098328
 34
0.0
100
AcDbRotatedDimension
1001
ACAD
1000
DSTYLE
1002
{
1070
    78
1070
     8
1070
   284
1070
     0
1070
    40
1040
2.0
1070
   178
1070
     4
1070
   141
1040
-3.0
1002
}
  0
TEXT
  5
7298
330
1F
100
AcDbEntity
  8
035
100
AcDbText
 10
32.75891082261847
 20
347.2985148098328
 30
0.0
 40
7.0
  1
9 stk. ø3.5 tværpinde, centerafstand=60 mm
  7
ROMANS
 72
     4
 11
156.3089108226185
 21
351.9535148098328
 31
0.0
100
AcDbText
  0
SOLID
  5
7299
330
1F
100
AcDbEntity
  8
035
100
AcDbTrace
 10
47.76766209376137
 20
286.8989941811251
 30
0.0
 11
49.90536254186645
 21
287.8342381271711
 31
0.0
 12
51.64224415595186
 22
280.9535148098328
 32
0.0
 13
51.64224415595186
 23
280.9535148098328
 33
0.0
  0
LINE
  5
729A
330
1F
100
AcDbEntity
  8
035
100
AcDbLine
 10
48.83651231781391
 20
287.3666161541481
 30
0.0
 11
26.64224415595186
 21
344.9535148098328
 31
0.0
  0
LINE
  5
729B
330
1F
100
AcDbEntity
  8
035
100
AcDbLine
 10
26.64224415595186
 20
344.9535148098328
 30
0.0
 11
33.64224415595186
 21
344.9535148098328
 31
0.0
  0
LINE
  5
729C
330
1F
100
AcDbEntity
  8
035
100
AcDbLine
 10
33.64224415595186
 20
344.9535148098328
 30
0.0
 11
284.3089108226185
 21
344.9535148098328
 31
0.0
  0
LINE
  5
729D
330
1F
100
AcDbEntity
  8
MÅL
  6
Continuous
 62
     1
100
AcDbLine
 10
-20.35775584404814
 20
303.7035148098328
 30
0.0
 11
-40.35775584404814
 21
303.7035148098328
 31
0.0
  0
LINE
  5
729E
330
1F
100
AcDbEntity
  8
MÅL
  6
Continuous
 62
     1
100
AcDbLine
 10
-20.35775584404814
 20
-21.79648519016723
 30
0.0
 11
-40.35775584404814
 21
-21.79648519016723
 31
0.0
  0
DIMENSION
  5
729F
330
1F
100
AcDbEntity
  8
MÅL
  6
Continuous
 62
     1
100
AcDbDimension
  2
*D6
 10
-16.36127063967479
 20
1.203514809832768
 30
0.0
 11
-16.36127063967479
 21
-10.29648519016723
 31
0.0
 12
1.220925489844831
 22
32.91875632441338
 32
0.0
 70
    32
  1
23
 71
     5
 42
-1.0
 73
     0
 74
     0
 75
     0
  3
ROMANS
100
AcDbAlignedDimension
 13
15.14224415595186
 23
-21.79648519016723
 33
0.0
 14
0.1422441559518575
 24
1.203514809832768
 34
0.0
 50
90.0
100
AcDbRotatedDimension
1001
ACAD
1000
DSTYLE
1002
{
1070
    78
1070
     8
1070
   284
1070
     0
1070
    40
1040
2.0
1070
   178
1070
     4
1070
   141
1040
-3.0
1002
}
  0
DIMENSION
  5
72A0
330
1F
100
AcDbEntity
  8
MÅL
  6
Continuous
 62
     1
100
AcDbDimension
  2
*D7
 10
-16.35775584404814
 20
61.20351480983277
 30
0.0
 11
-23.85775584404814
 21
31.20351480983277
 31
0.0
 12
1.220925489844831
 22
32.91875632441338
 32
0.0
 70
    32
  1
60
 71
     5
 42
-1.0
 73
     0
 74
     0
 75
     0
  3
ROMANS
100
AcDbAlignedDimension
 13
-15.35775584404814
 23
1.203514809832768
 33
0.0
 14
0.6422441559518575
 24
61.20351480983277
 34
0.0
 50
90.0
100
AcDbRotatedDimension
1001
ACAD
1000
DSTYLE
1002
{
1070
    78
1070
     8
1070
   284
1070
     0
1070
    40
1040
2.0
1070
   178
1070
     4
1070
   141
1040
-3.0
1002
}
  0
DIMENSION
  5
72A1
330
1F
100
AcDbEntity
  8
MÅL
  6
Continuous
 62
     1
100
AcDbDimension
  2
*D8
 10
-16.35775584404814
 20
121.2035148098328
 30
0.0
 11
-23.85775584404814
 21
91.20351480983277
 31
0.0
 12
1.220925489844831
 22
32.91875632441338
 32
0.0
 70
    32
  1
60
 71
     5
 42
-1.0
 73
     0
 74
     0
 75
     0
  3
ROMANS
100
AcDbAlignedDimension
 13
-15.35775584404814
 23
61.20351480983277
 33
0.0
 14
0.6422441559518575
 24
121.2035148098328
 34
0.0
 50
90.0
100
AcDbRotatedDimension
1001
ACAD
1000
DSTYLE
1002
{
1070
    78
1070
     8
1070
   284
1070
     0
1070
    40
1040
2.0
1070
   178
1070
     4
1070
   141
1040
-3.0
1002
}
  0
POINT
  5
72A2
330
1F
100
AcDbEntity
  8
DEFPOINTS
  6
ByBlock
 62
     0
100
AcDbPoint
 10
277.1422441559519
 20
303.7035148098328
 30
0.0
  0
LINE
  5
72A3
330
1F
100
AcDbEntity
  8
CENTER
100
AcDbLine
 10
301.3922441559519
 20
146.9535148098328
 30
0.0
 11
-2.607755844048143
 21
146.9535148098328
 31
0.0
  0
LINE
  5
72A4
330
1F
100
AcDbEntity
  8
KONTUR
100
AcDbLine
 10
293.6422441559519
 20
146.9535148098328
 30
0.0
 11
293.6422441559519
 21
282.4535148098328
 31
0.0
  0
LINE
  5
72A5
330
1F
100
AcDbEntity
  8
KONTUR
100
AcDbLine
 10
289.1422441559519
 20
146.9535148098328
 30
0.0
 11
289.1422441559519
 21
282.4535148098328
 31
0.0
  0
LINE
  5
72A6
330
1F
100
AcDbEntity
  8
KONTUR
100
AcDbLine
 10
274.1422441559519
 20
146.9535148098328
 30
0.0
 11
274.1422441559519
 21
283.7035148098328
 31
0.0
  0
LINE
  5
72A7
330
1F
100
AcDbEntity
  8
KONTUR
100
AcDbLine
 10
270.6422441559519
 20
146.9535148098328
 30
0.0
 11
270.6422441559519
 21
283.7035148098328
 31
0.0
  0
LINE
  5
72A8
330
1F
100
AcDbEntity
  8
KONTUR
100
AcDbLine
 10
256.1422441559519
 20
146.9535148098328
 30
0.0
 11
256.1422441559519
 21
283.7035148098328
 31
0.0
  0
LINE
  5
72A9
330
1F
100
AcDbEntity
  8
KONTUR
100
AcDbLine
 10
252.6422441559519
 20
146.9535148098328
 30
0.0
 11
252.6422441559519
 21
283.7035148098328
 31
0.0
  0
LINE
  5
72AA
330
1F
100
AcDbEntity
  8
KONTUR
100
AcDbLine
 10
238.1422441559519
 20
146.9535148098328
 30
0.0
 11
238.1422441559519
 21
283.7035148098328
 31
0.0
  0
LINE
  5
72AB
330
1F
100
AcDbEntity
  8
KONTUR
100
AcDbLine
 10
234.6422441559519
 20
146.9535148098328
 30
0.0
 11
234.6422441559519
 21
283.7035148098328
 31
0.0
  0
LINE
  5
72AC
330
1F
100
AcDbEntity
  8
KONTUR
100
AcDbLine
 10
220.1422441559519
 20
146.9535148098328
 30
0.0
 11
220.1422441559519
 21
283.7035148098328
 31
0.0
  0
LINE
  5
72AD
330
1F
100
AcDbEntity
  8
KONTUR
100
AcDbLine
 10
216.6422441559519
 20
146.9535148098328
 30
0.0
 11
216.6422441559519
 21
283.7035148098328
 31
0.0
  0
LINE
  5
72AE
330
1F
100
AcDbEntity
  8
KONTUR
100
AcDbLine
 10
202.1422441559519
 20
146.9535148098328
 30
0.0
 11
202.1422441559519
 21
283.7035148098328
 31
0.0
  0
LINE
  5
72AF
330
1F
100
AcDbEntity
  8
KONTUR
100
AcDbLine
 10
198.6422441559519
 20
146.9535148098328
 30
0.0
 11
198.6422441559519
 21
283.7035148098328
 31
0.0
  0
LINE
  5
72B0
330
1F
100
AcDbEntity
  8
KONTUR
100
AcDbLine
 10
184.1422441559519
 20
146.9535148098328
 30
0.0
 11
184.1422441559519
 21
283.7035148098328
 31
0.0
  0
LINE
  5
72B1
330
1F
100
AcDbEntity
  8
KONTUR
100
AcDbLine
 10
180.6422441559519
 20
146.9535148098328
 30
0.0
 11
180.6422441559519
 21
283.7035148098328
 31
0.0
  0
LINE
  5
72B2
330
1F
100
AcDbEntity
  8
KONTUR
100
AcDbLine
 10
162.6422441559519
 20
146.9535148098328
 30
0.0
 11
162.6422441559519
 21
283.7035148098328
 31
0.0
  0
LINE
  5
72B3
330
1F
100
AcDbEntity
  8
KONTUR
100
AcDbLine
 10
166.1422441559519
 20
146.9535148098328
 30
0.0
 11
166.1422441559519
 21
283.7035148098328
 31
0.0
  0
LINE
  5
72B4
330
1F
100
AcDbEntity
  8
KONTUR
100
AcDbLine
 10
148.1422441559519
 20
146.9535148098328
 30
0.0
 11
148.1422441559519
 21
283.7035148098328
 31
0.0
  0
LINE
  5
72B5
330
1F
100
AcDbEntity
  8
KONTUR
100
AcDbLine
 10
144.6422441559519
 20
146.9535148098328
 30
0.0
 11
144.6422441559519
 21
283.7035148098328
 31
0.0
  0
LINE
  5
72B6
330
1F
100
AcDbEntity
  8
KONTUR
100
AcDbLine
 10
130.1422441559519
 20
146.9535148098328
 30
0.0
 11
130.1422441559519
 21
283.7035148098328
 31
0.0
  0
LINE
  5
72B7
330
1F
100
AcDbEntity
  8
KONTUR
100
AcDbLine
 10
126.6422441559519
 20
146.9535148098328
 30
0.0
 11
126.6422441559519
 21
283.7035148098328
 31
0.0
  0
LINE
  5
72B8
330
1F
100
AcDbEntity
  8
KONTUR
100
AcDbLine
 10
112.1422441559519
 20
146.9535148098328
 30
0.0
 11
112.1422441559519
 21
283.7035148098328
 31
0.0
  0
LINE
  5
72B9
330
1F
100
AcDbEntity
  8
KONTUR
100
AcDbLine
 10
108.6422441559519
 20
146.9535148098328
 30
0.0
 11
108.6422441559519
 21
283.7035148098328
 31
0.0
  0
LINE
  5
72BA
330
1F
100
AcDbEntity
  8
KONTUR
100
AcDbLine
 10
94.14224415595186
 20
146.9535148098328
 30
0.0
 11
94.14224415595186
 21
283.7035148098328
 31
0.0
  0
LINE
  5
72BB
330
1F
100
AcDbEntity
  8
KONTUR
100
AcDbLine
 10
90.64224415595186
 20
146.9535148098328
 30
0.0
 11
90.64224415595186
 21
283.7035148098328
 31
0.0
  0
LINE
  5
72BC
330
1F
100
AcDbEntity
  8
KONTUR
  6
Continuous
100
AcDbLine
 10
76.14224415595186
 20
146.9535148098328
 30
0.0
 11
76.14224415595186
 21
283.7035148098328
 31
0.0
  0
LINE
  5
72BD
330
1F
100
AcDbEntity
  8
KONTUR
100
AcDbLine
 10
72.64224415595186
 20
146.9535148098328
 30
0.0
 11
72.64224415595186
 21
283.7035148098328
 31
0.0
  0
LINE
  5
72BE
330
1F
100
AcDbEntity
  8
KONTUR
100
AcDbLine
 10
58.14224415595186
 20
146.9535148098328
 30
0.0
 11
58.14224415595186
 21
283.7035148098328
 31
0.0
  0
LINE
  5
72BF
330
1F
100
AcDbEntity
  8
KONTUR
100
AcDbLine
 10
54.64224415595186
 20
146.9535148098328
 30
0.0
 11
54.64224415595186
 21
283.7035148098328
 31
0.0
  0
LINE
  5
72C0
330
1F
100
AcDbEntity
  8
KONTUR
100
AcDbLine
 10
40.14224415595186
 20
146.9535148098328
 30
0.0
 11
40.14224415595186
 21
283.7035148098328
 31
0.0
  0
LINE
  5
72C1
330
1F
100
AcDbEntity
  8
KONTUR
100
AcDbLine
 10
36.64224415595186
 20
146.9535148098328
 30
0.0
 11
36.64224415595186
 21
283.7035148098328
 31
0.0
  0
LINE
  5
72C2
330
1F
100
AcDbEntity
  8
KONTUR
100
AcDbLine
 10
22.14224415595186
 20
146.9535148098328
 30
0.0
 11
22.14224415595186
 21
283.7035148098328
 31
0.0
  0
LINE
  5
72C3
330
1F
100
AcDbEntity
  8
KONTUR
100
AcDbLine
 10
18.64224415595186
 20
146.9535148098328
 30
0.0
 11
18.64224415595186
 21
283.7035148098328
 31
0.0
  0
LINE
  5
72C4
330
1F
100
AcDbEntity
  8
KONTUR
100
AcDbLine
 10
9.642244155951857
 20
146.9535148098328
 30
0.0
 11
9.642244155951857
 21
282.4535148098328
 31
0.0
  0
LINE
  5
72C5
330
1F
100
AcDbEntity
  8
KONTUR
100
AcDbLine
 10
5.142244155951857
 20
146.9535148098328
 30
0.0
 11
5.142244155951857
 21
282.4535148098328
 31
0.0
  0
LINE
  5
72C6
330
1F
100
AcDbEntity
  8
KONTUR
100
AcDbLine
 10
5.142244155951857
 20
158.9535148098328
 30
0.0
 11
3.392244155951857
 21
158.9535148098328
 31
0.0
  0
CIRCLE
  5
72C7
330
1F
100
AcDbEntity
  8
KONTUR
100
AcDbCircle
 10
3.392244155951857
 20
160.7035148098328
 30
0.0
 40
1.75
  0
LINE
  5
72C8
330
1F
100
AcDbEntity
  8
KONTUR
100
AcDbLine
 10
5.142244155951857
 20
162.4535148098328
 30
0.0
 11
3.392244155951857
 21
162.4535148098328
 31
0.0
  0
LINE
  5
72C9
330
1F
100
AcDbEntity
  8
KONTUR
100
AcDbLine
 10
54.64224415595186
 20
158.9535148098328
 30
0.0
 11
40.14224415595186
 21
158.9535148098328
 31
0.0
  0
LINE
  5
72CA
330
1F
100
AcDbEntity
  8
KONTUR
100
AcDbLine
 10
54.64224415595186
 20
162.4535148098328
 30
0.0
 11
40.14224415595186
 21
162.4535148098328
 31
0.0
  0
LINE
  5
72CB
330
1F
100
AcDbEntity
  8
KONTUR
100
AcDbLine
 10
36.64224415595186
 20
162.4535148098328
 30
0.0
 11
22.14224415595186
 21
162.4535148098328
 31
0.0
  0
LINE
  5
72CC
330
1F
100
AcDbEntity
  8
KONTUR
100
AcDbLine
 10
36.64224415595186
 20
158.9535148098328
 30
0.0
 11
22.14224415595186
 21
158.9535148098328
 31
0.0
  0
LINE
  5
72CD
330
1F
100
AcDbEntity
  8
KONTUR
100
AcDbLine
 10
18.64224415595186
 20
158.9535148098328
 30
0.0
 11
9.642244155951857
 21
158.9535148098328
 31
0.0
  0
LINE
  5
72CE
330
1F
100
AcDbEntity
  8
KONTUR
100
AcDbLine
 10
18.64224415595186
 20
162.4535148098328
 30
0.0
 11
9.642244155951857
 21
162.4535148098328
 31
0.0
  0
LINE
  5
72CF
330
1F
100
AcDbEntity
  8
KONTUR
100
AcDbLine
 10
72.64224415595186
 20
162.4535148098328
 30
0.0
 11
58.14224415595186
 21
162.4535148098328
 31
0.0
  0
LINE
  5
72D0
330
1F
100
AcDbEntity
  8
KONTUR
100
AcDbLine
 10
72.64224415595186
 20
158.9535148098328
 30
0.0
 11
58.14224415595186
 21
158.9535148098328
 31
0.0
  0
LINE
  5
72D1
330
1F
100
AcDbEntity
  8
KONTUR
100
AcDbLine
 10
90.64224415595186
 20
162.4535148098328
 30
0.0
 11
76.14224415595186
 21
162.4535148098328
 31
0.0
  0
LINE
  5
72D2
330
1F
100
AcDbEntity
  8
KONTUR
100
AcDbLine
 10
90.64224415595186
 20
158.9535148098328
 30
0.0
 11
76.14224415595186
 21
158.9535148098328
 31
0.0
  0
LINE
  5
72D3
330
1F
100
AcDbEntity
  8
KONTUR
100
AcDbLine
 10
108.6422441559519
 20
158.9535148098328
 30
0.0
 11
94.14224415595186
 21
158.9535148098328
 31
0.0
  0
LINE
  5
72D4
330
1F
100
AcDbEntity
  8
KONTUR
100
AcDbLine
 10
108.6422441559519
 20
162.4535148098328
 30
0.0
 11
94.14224415595186
 21
162.4535148098328
 31
0.0
  0
LINE
  5
72D5
330
1F
100
AcDbEntity
  8
KONTUR
100
AcDbLine
 10
144.6422441559519
 20
158.9535148098328
 30
0.0
 11
130.1422441559519
 21
158.9535148098328
 31
0.0
  0
LINE
  5
72D6
330
1F
100
AcDbEntity
  8
KONTUR
100
AcDbLine
 10
144.6422441559519
 20
162.4535148098328
 30
0.0
 11
130.1422441559519
 21
162.4535148098328
 31
0.0
  0
LINE
  5
72D7
330
1F
100
AcDbEntity
  8
KONTUR
100
AcDbLine
 10
126.6422441559519
 20
162.4535148098328
 30
0.0
 11
112.1422441559519
 21
162.4535148098328
 31
0.0
  0
LINE
  5
72D8
330
1F
100
AcDbEntity
  8
KONTUR
100
AcDbLine
 10
126.6422441559519
 20
158.9535148098328
 30
0.0
 11
112.1422441559519
 21
158.9535148098328
 31
0.0
  0
LINE
  5
72D9
330
1F
100
AcDbEntity
  8
KONTUR
100
AcDbLine
 10
180.6422441559519
 20
158.9535148098328
 30
0.0
 11
166.1422441559519
 21
158.9535148098328
 31
0.0
  0
LINE
  5
72DA
330
1F
100
AcDbEntity
  8
KONTUR
100
AcDbLine
 10
180.6422441559519
 20
162.4535148098328
 30
0.0
 11
166.1422441559519
 21
162.4535148098328
 31
0.0
  0
LINE
  5
72DB
330
1F
100
AcDbEntity
  8
KONTUR
100
AcDbLine
 10
162.6422441559519
 20
162.4535148098328
 30
0.0
 11
148.1422441559519
 21
162.4535148098328
 31
0.0
  0
LINE
  5
72DC
330
1F
100
AcDbEntity
  8
KONTUR
100
AcDbLine
 10
162.6422441559519
 20
158.9535148098328
 30
0.0
 11
148.1422441559519
 21
158.9535148098328
 31
0.0
  0
LINE
  5
72DD
330
1F
100
AcDbEntity
  8
CENTER
100
AcDbLine
 10
296.8922441559519
 20
160.7035148098328
 30
0.0
 11
0.1422441559518575
 21
160.7035148098328
 31
0.0
  0
LINE
  5
72DE
330
1F
100
AcDbEntity
  8
KONTUR
100
AcDbLine
 10
198.6422441559519
 20
162.4535148098328
 30
0.0
 11
184.1422441559519
 21
162.4535148098328
 31
0.0
  0
LINE
  5
72DF
330
1F
100
AcDbEntity
  8
KONTUR
100
AcDbLine
 10
198.6422441559519
 20
158.9535148098328
 30
0.0
 11
184.1422441559519
 21
158.9535148098328
 31
0.0
  0
LINE
  5
72E0
330
1F
100
AcDbEntity
  8
KONTUR
100
AcDbLine
 10
216.6422441559519
 20
162.4535148098328
 30
0.0
 11
202.1422441559519
 21
162.4535148098328
 31
0.0
  0
LINE
  5
72E1
330
1F
100
AcDbEntity
  8
KONTUR
100
AcDbLine
 10
216.6422441559519
 20
158.9535148098328
 30
0.0
 11
202.1422441559519
 21
158.9535148098328
 31
0.0
  0
LINE
  5
72E2
330
1F
100
AcDbEntity
  8
KONTUR
100
AcDbLine
 10
287.3922441559519
 20
158.9535148098328
 30
0.0
 11
274.1422441559519
 21
158.9535148098328
 31
0.0
  0
LINE
  5
72E3
330
1F
100
AcDbEntity
  8
KONTUR
100
AcDbLine
 10
287.3922441559519
 20
162.4535148098328
 30
0.0
 11
274.1422441559519
 21
162.4535148098328
 31
0.0
  0
ARC
  5
72E4
330
1F
100
AcDbEntity
  8
KONTUR
100
AcDbCircle
 10
287.3922441559519
 20
160.7035148098328
 30
0.0
 40
1.75
100
AcDbArc
 50
270.0
 51
90.0
  0
ARC
  5
72E5
330
1F
100
AcDbEntity
  8
SKJUL
100
AcDbCircle
 10
287.3922441559519
 20
160.7035148098328
 30
0.0
 40
1.75
100
AcDbArc
 50
90.0
 51
270.0
  0
LINE
  5
72E6
330
1F
100
AcDbEntity
  8
KONTUR
100
AcDbLine
 10
234.6422441559519
 20
158.9535148098328
 30
0.0
 11
220.1422441559519
 21
158.9535148098328
 31
0.0
  0
LINE
  5
72E7
330
1F
100
AcDbEntity
  8
KONTUR
100
AcDbLine
 10
234.6422441559519
 20
162.4535148098328
 30
0.0
 11
220.1422441559519
 21
162.4535148098328
 31
0.0
  0
LINE
  5
72E8
330
1F
100
AcDbEntity
  8
KONTUR
100
AcDbLine
 10
270.6422441559519
 20
158.9535148098328
 30
0.0
 11
256.1422441559519
 21
158.9535148098328
 31
0.0
  0
LINE
  5
72E9
330
1F
100
AcDbEntity
  8
KONTUR
100
AcDbLine
 10
270.6422441559519
 20
162.4535148098328
 30
0.0
 11
256.1422441559519
 21
162.4535148098328
 31
0.0
  0
LINE
  5
72EA
330
1F
100
AcDbEntity
  8
KONTUR
100
AcDbLine
 10
252.6422441559519
 20
162.4535148098328
 30
0.0
 11
238.1422441559519
 21
162.4535148098328
 31
0.0
  0
LINE
  5
72EB
330
1F
100
AcDbEntity
  8
KONTUR
100
AcDbLine
 10
252.6422441559519
 20
158.9535148098328
 30
0.0
 11
238.1422441559519
 21
158.9535148098328
 31
0.0
  0
LINE
  5
72EC
330
1F
100
AcDbEntity
  8
KONTUR
100
AcDbLine
 10
126.6422441559519
 20
218.9535148098328
 30
0.0
 11
112.1422441559519
 21
218.9535148098328
 31
0.0
  0
LINE
  5
72ED
330
1F
100
AcDbEntity
  8
KONTUR
100
AcDbLine
 10
126.6422441559519
 20
222.4535148098328
 30
0.0
 11
112.1422441559519
 21
222.4535148098328
 31
0.0
  0
LINE
  5
72EE
330
1F
100
AcDbEntity
  8
KONTUR
100
AcDbLine
 10
72.64224415595186
 20
218.9535148098328
 30
0.0
 11
58.14224415595186
 21
218.9535148098328
 31
0.0
  0
LINE
  5
72EF
330
1F
100
AcDbEntity
  8
KONTUR
100
AcDbLine
 10
72.64224415595186
 20
222.4535148098328
 30
0.0
 11
58.14224415595186
 21
222.4535148098328
 31
0.0
  0
LINE
  5
72F0
330
1F
100
AcDbEntity
  8
KONTUR
100
AcDbLine
 10
90.64224415595186
 20
218.9535148098328
 30
0.0
 11
76.14224415595186
 21
218.9535148098328
 31
0.0
  0
LINE
  5
72F1
330
1F
100
AcDbEntity
  8
KONTUR
100
AcDbLine
 10
90.64224415595186
 20
222.4535148098328
 30
0.0
 11
76.14224415595186
 21
222.4535148098328
 31
0.0
  0
LINE
  5
72F2
330
1F
100
AcDbEntity
  8
KONTUR
100
AcDbLine
 10
108.6422441559519
 20
222.4535148098328
 30
0.0
 11
94.14224415595186
 21
222.4535148098328
 31
0.0
  0
LINE
  5
72F3
330
1F
100
AcDbEntity
  8
KONTUR
100
AcDbLine
 10
108.6422441559519
 20
218.9535148098328
 30
0.0
 11
94.14224415595186
 21
218.9535148098328
 31
0.0
  0
LINE
  5
72F4
330
1F
100
AcDbEntity
  8
KONTUR
100
AcDbLine
 10
18.64224415595186
 20
222.4535148098328
 30
0.0
 11
9.642244155951857
 21
222.4535148098328
 31
0.0
  0
LINE
  5
72F5
330
1F
100
AcDbEntity
  8
KONTUR
100
AcDbLine
 10
18.64224415595186
 20
218.9535148098328
 30
0.0
 11
9.642244155951857
 21
218.9535148098328
 31
0.0
  0
LINE
  5
72F6
330
1F
100
AcDbEntity
  8
KONTUR
100
AcDbLine
 10
36.64224415595186
 20
218.9535148098328
 30
0.0
 11
22.14224415595186
 21
218.9535148098328
 31
0.0
  0
LINE
  5
72F7
330
1F
100
AcDbEntity
  8
KONTUR
100
AcDbLine
 10
36.64224415595186
 20
222.4535148098328
 30
0.0
 11
22.14224415595186
 21
222.4535148098328
 31
0.0
  0
LINE
  5
72F8
330
1F
100
AcDbEntity
  8
KONTUR
100
AcDbLine
 10
54.64224415595186
 20
222.4535148098328
 30
0.0
 11
40.14224415595186
 21
222.4535148098328
 31
0.0
  0
LINE
  5
72F9
330
1F
100
AcDbEntity
  8
KONTUR
100
AcDbLine
 10
54.64224415595186
 20
218.9535148098328
 30
0.0
 11
40.14224415595186
 21
218.9535148098328
 31
0.0
  0
LINE
  5
72FA
330
1F
100
AcDbEntity
  8
KONTUR
100
AcDbLine
 10
5.142244155951857
 20
222.4535148098328
 30
0.0
 11
3.392244155951857
 21
222.4535148098328
 31
0.0
  0
CIRCLE
  5
72FB
330
1F
100
AcDbEntity
  8
KONTUR
100
AcDbCircle
 10
3.392244155951857
 20
220.7035148098328
 30
0.0
 40
1.75
  0
LINE
  5
72FC
330
1F
100
AcDbEntity
  8
KONTUR
100
AcDbLine
 10
5.142244155951857
 20
218.9535148098328
 30
0.0
 11
3.392244155951857
 21
218.9535148098328
 31
0.0
  0
LINE
  5
72FD
330
1F
100
AcDbEntity
  8
KONTUR
100
AcDbLine
 10
252.6422441559519
 20
218.9535148098328
 30
0.0
 11
238.1422441559519
 21
218.9535148098328
 31
0.0
  0
LINE
  5
72FE
330
1F
100
AcDbEntity
  8
KONTUR
100
AcDbLine
 10
252.6422441559519
 20
222.4535148098328
 30
0.0
 11
238.1422441559519
 21
222.4535148098328
 31
0.0
  0
LINE
  5
72FF
330
1F
100
AcDbEntity
  8
KONTUR
100
AcDbLine
 10
270.6422441559519
 20
222.4535148098328
 30
0.0
 11
256.1422441559519
 21
222.4535148098328
 31
0.0
  0
LINE
  5
7300
330
1F
100
AcDbEntity
  8
KONTUR
100
AcDbLine
 10
270.6422441559519
 20
218.9535148098328
 30
0.0
 11
256.1422441559519
 21
218.9535148098328
 31
0.0
  0
LINE
  5
7301
330
1F
100
AcDbEntity
  8
KONTUR
100
AcDbLine
 10
234.6422441559519
 20
222.4535148098328
 30
0.0
 11
220.1422441559519
 21
222.4535148098328
 31
0.0
  0
LINE
  5
7302
330
1F
100
AcDbEntity
  8
KONTUR
100
AcDbLine
 10
234.6422441559519
 20
218.9535148098328
 30
0.0
 11
220.1422441559519
 21
218.9535148098328
 31
0.0
  0
ARC
  5
7303
330
1F
100
AcDbEntity
  8
SKJUL
100
AcDbCircle
 10
287.3922441559519
 20
220.7035148098328
 30
0.0
 40
1.75
100
AcDbArc
 50
90.0
 51
270.0
  0
ARC
  5
7304
330
1F
100
AcDbEntity
  8
KONTUR
100
AcDbCircle
 10
287.3922441559519
 20
220.7035148098328
 30
0.0
 40
1.75
100
AcDbArc
 50
270.0
 51
90.0
  0
LINE
  5
7305
330
1F
100
AcDbEntity
  8
KONTUR
100
AcDbLine
 10
287.3922441559519
 20
222.4535148098328
 30
0.0
 11
274.1422441559519
 21
222.4535148098328
 31
0.0
  0
LINE
  5
7306
330
1F
100
AcDbEntity
  8
KONTUR
100
AcDbLine
 10
287.3922441559519
 20
218.9535148098328
 30
0.0
 11
274.1422441559519
 21
218.9535148098328
 31
0.0
  0
LINE
  5
7307
330
1F
100
AcDbEntity
  8
CENTER
100
AcDbLine
 10
296.8922441559519
 20
220.7035148098328
 30
0.0
 11
0.1422441559518575
 21
220.7035148098328
 31
0.0
  0
LINE
  5
7308
330
1F
100
AcDbEntity
  8
KONTUR
100
AcDbLine
 10
198.6422441559519
 20
222.4535148098328
 30
0.0
 11
184.1422441559519
 21
222.4535148098328
 31
0.0
  0
LINE
  5
7309
330
1F
100
AcDbEntity
  8
KONTUR
100
AcDbLine
 10
198.6422441559519
 20
218.9535148098328
 30
0.0
 11
184.1422441559519
 21
218.9535148098328
 31
0.0
  0
LINE
  5
730A
330
1F
100
AcDbEntity
  8
KONTUR
100
AcDbLine
 10
216.6422441559519
 20
218.9535148098328
 30
0.0
 11
202.1422441559519
 21
218.9535148098328
 31
0.0
  0
LINE
  5
730B
330
1F
100
AcDbEntity
  8
KONTUR
100
AcDbLine
 10
216.6422441559519
 20
222.4535148098328
 30
0.0
 11
202.1422441559519
 21
222.4535148098328
 31
0.0
  0
LINE
  5
730C
330
1F
100
AcDbEntity
  8
KONTUR
100
AcDbLine
 10
162.6422441559519
 20
218.9535148098328
 30
0.0
 11
148.1422441559519
 21
218.9535148098328
 31
0.0
  0
LINE
  5
730D
330
1F
100
AcDbEntity
  8
KONTUR
100
AcDbLine
 10
162.6422441559519
 20
222.4535148098328
 30
0.0
 11
148.1422441559519
 21
222.4535148098328
 31
0.0
  0
LINE
  5
730E
330
1F
100
AcDbEntity
  8
KONTUR
100
AcDbLine
 10
180.6422441559519
 20
222.4535148098328
 30
0.0
 11
166.1422441559519
 21
222.4535148098328
 31
0.0
  0
LINE
  5
730F
330
1F
100
AcDbEntity
  8
KONTUR
100
AcDbLine
 10
180.6422441559519
 20
218.9535148098328
 30
0.0
 11
166.1422441559519
 21
218.9535148098328
 31
0.0
  0
LINE
  5
7310
330
1F
100
AcDbEntity
  8
KONTUR
100
AcDbLine
 10
144.6422441559519
 20
222.4535148098328
 30
0.0
 11
130.1422441559519
 21
222.4535148098328
 31
0.0
  0
LINE
  5
7311
330
1F
100
AcDbEntity
  8
KONTUR
100
AcDbLine
 10
144.6422441559519
 20
218.9535148098328
 30
0.0
 11
130.1422441559519
 21
218.9535148098328
 31
0.0
  0
LINE
  5
7312
330
1F
100
AcDbEntity
  8
CENTER
100
AcDbLine
 10
296.8922441559519
 20
280.7035148098328
 30
0.0
 11
0.1422441559518575
 21
280.7035148098328
 31
0.0
  0
LINE
  5
7313
330
1F
100
AcDbEntity
  8
KONTUR
100
AcDbLine
 10
287.3922441559519
 20
282.4535148098328
 30
0.0
 11
274.1422441559519
 21
282.4535148098328
 31
0.0
  0
LINE
  5
7314
330
1F
100
AcDbEntity
  8
KONTUR
100
AcDbLine
 10
287.3922441559519
 20
278.9535148098328
 30
0.0
 11
274.1422441559519
 21
278.9535148098328
 31
0.0
  0
ARC
  5
7315
330
1F
100
AcDbEntity
  8
KONTUR
100
AcDbCircle
 10
287.3922441559519
 20
280.7035148098328
 30
0.0
 40
1.75
100
AcDbArc
 50
270.0
 51
90.0
  0
ARC
  5
7316
330
1F
100
AcDbEntity
  8
SKJUL
100
AcDbCircle
 10
287.3922441559519
 20
280.7035148098328
 30
0.0
 40
1.75
100
AcDbArc
 50
90.0
 51
270.0
  0
LINE
  5
7317
330
1F
100
AcDbEntity
  8
KONTUR
100
AcDbLine
 10
289.1422441559519
 20
282.4535148098328
 30
0.0
 11
293.6422441559519
 21
282.4535148098328
 31
0.0
  0
CIRCLE
  5
7318
330
1F
100
AcDbEntity
  8
KONTUR
100
AcDbCircle
 10
3.392244155951857
 20
280.7035148098328
 30
0.0
 40
1.75
  0
LINE
  5
7319
330
1F
100
AcDbEntity
  8
KONTUR
100
AcDbLine
 10
5.142244155951857
 20
278.9535148098328
 30
0.0
 11
3.392244155951857
 21
278.9535148098328
 31
0.0
  0
LINE
  5
731A
330
1F
100
AcDbEntity
  8
KONTUR
100
AcDbLine
 10
54.64224415595186
 20
282.4535148098328
 30
0.0
 11
40.14224415595186
 21
282.4535148098328
 31
0.0
  0
LINE
  5
731B
330
1F
100
AcDbEntity
  8
KONTUR
100
AcDbLine
 10
54.64224415595186
 20
278.9535148098328
 30
0.0
 11
40.14224415595186
 21
278.9535148098328
 31
0.0
  0
LINE
  5
731C
330
1F
100
AcDbEntity
  8
KONTUR
100
AcDbLine
 10
36.64224415595186
 20
278.9535148098328
 30
0.0
 11
22.14224415595186
 21
278.9535148098328
 31
0.0
  0
LINE
  5
731D
330
1F
100
AcDbEntity
  8
KONTUR
100
AcDbLine
 10
36.64224415595186
 20
282.4535148098328
 30
0.0
 11
22.14224415595186
 21
282.4535148098328
 31
0.0
  0
LINE
  5
731E
330
1F
100
AcDbEntity
  8
KONTUR
100
AcDbLine
 10
18.64224415595186
 20
282.4535148098328
 30
0.0
 11
3.392244155951857
 21
282.4535148098328
 31
0.0
  0
LINE
  5
731F
330
1F
100
AcDbEntity
  8
KONTUR
100
AcDbLine
 10
18.64224415595186
 20
278.9535148098328
 30
0.0
 11
9.642244155951857
 21
278.9535148098328
 31
0.0
  0
LINE
  5
7320
330
1F
100
AcDbEntity
  8
KONTUR
100
AcDbLine
 10
108.6422441559519
 20
282.4535148098328
 30
0.0
 11
94.14224415595186
 21
282.4535148098328
 31
0.0
  0
LINE
  5
7321
330
1F
100
AcDbEntity
  8
KONTUR
100
AcDbLine
 10
108.6422441559519
 20
278.9535148098328
 30
0.0
 11
94.14224415595186
 21
278.9535148098328
 31
0.0
  0
LINE
  5
7322
330
1F
100
AcDbEntity
  8
KONTUR
100
AcDbLine
 10
90.64224415595186
 20
278.9535148098328
 30
0.0
 11
76.14224415595186
 21
278.9535148098328
 31
0.0
  0
LINE
  5
7323
330
1F
100
AcDbEntity
  8
KONTUR
100
AcDbLine
 10
90.64224415595186
 20
282.4535148098328
 30
0.0
 11
76.14224415595186
 21
282.4535148098328
 31
0.0
  0
LINE
  5
7324
330
1F
100
AcDbEntity
  8
KONTUR
100
AcDbLine
 10
72.64224415595186
 20
278.9535148098328
 30
0.0
 11
58.14224415595186
 21
278.9535148098328
 31
0.0
  0
LINE
  5
7325
330
1F
100
AcDbEntity
  8
KONTUR
100
AcDbLine
 10
72.64224415595186
 20
282.4535148098328
 30
0.0
 11
58.14224415595186
 21
282.4535148098328
 31
0.0
  0
LINE
  5
7326
330
1F
100
AcDbEntity
  8
KONTUR
100
AcDbLine
 10
180.6422441559519
 20
282.4535148098328
 30
0.0
 11
166.1422441559519
 21
282.4535148098328
 31
0.0
  0
LINE
  5
7327
330
1F
100
AcDbEntity
  8
KONTUR
100
AcDbLine
 10
180.6422441559519
 20
278.9535148098328
 30
0.0
 11
166.1422441559519
 21
278.9535148098328
 31
0.0
  0
LINE
  5
7328
330
1F
100
AcDbEntity
  8
KONTUR
100
AcDbLine
 10
162.6422441559519
 20
278.9535148098328
 30
0.0
 11
148.1422441559519
 21
278.9535148098328
 31
0.0
  0
LINE
  5
7329
330
1F
100
AcDbEntity
  8
KONTUR
100
AcDbLine
 10
162.6422441559519
 20
282.4535148098328
 30
0.0
 11
148.1422441559519
 21
282.4535148098328
 31
0.0
  0
LINE
  5
732A
330
1F
100
AcDbEntity
  8
KONTUR
100
AcDbLine
 10
144.6422441559519
 20
282.4535148098328
 30
0.0
 11
130.1422441559519
 21
282.4535148098328
 31
0.0
  0
LINE
  5
732B
330
1F
100
AcDbEntity
  8
KONTUR
100
AcDbLine
 10
144.6422441559519
 20
278.9535148098328
 30
0.0
 11
130.1422441559519
 21
278.9535148098328
 31
0.0
  0
LINE
  5
732C
330
1F
100
AcDbEntity
  8
KONTUR
100
AcDbLine
 10
126.6422441559519
 20
278.9535148098328
 30
0.0
 11
112.1422441559519
 21
278.9535148098328
 31
0.0
  0
LINE
  5
732D
330
1F
100
AcDbEntity
  8
KONTUR
100
AcDbLine
 10
126.6422441559519
 20
282.4535148098328
 30
0.0
 11
112.1422441559519
 21
282.4535148098328
 31
0.0
  0
LINE
  5
732E
330
1F
100
AcDbEntity
  8
KONTUR
100
AcDbLine
 10
234.6422441559519
 20
282.4535148098328
 30
0.0
 11
220.1422441559519
 21
282.4535148098328
 31
0.0
  0
LINE
  5
732F
330
1F
100
AcDbEntity
  8
KONTUR
100
AcDbLine
 10
234.6422441559519
 20
278.9535148098328
 30
0.0
 11
220.1422441559519
 21
278.9535148098328
 31
0.0
  0
LINE
  5
7330
330
1F
100
AcDbEntity
  8
KONTUR
100
AcDbLine
 10
216.6422441559519
 20
278.9535148098328
 30
0.0
 11
202.1422441559519
 21
278.9535148098328
 31
0.0
  0
LINE
  5
7331
330
1F
100
AcDbEntity
  8
KONTUR
100
AcDbLine
 10
216.6422441559519
 20
282.4535148098328
 30
0.0
 11
202.1422441559519
 21
282.4535148098328
 31
0.0
  0
LINE
  5
7332
330
1F
100
AcDbEntity
  8
KONTUR
100
AcDbLine
 10
198.6422441559519
 20
282.4535148098328
 30
0.0
 11
184.1422441559519
 21
282.4535148098328
 31
0.0
  0
LINE
  5
7333
330
1F
100
AcDbEntity
  8
KONTUR
100
AcDbLine
 10
198.6422441559519
 20
278.9535148098328
 30
0.0
 11
184.1422441559519
 21
278.9535148098328
 31
0.0
  0
LINE
  5
7334
330
1F
100
AcDbEntity
  8
KONTUR
100
AcDbLine
 10
270.6422441559519
 20
282.4535148098328
 30
0.0
 11
256.1422441559519
 21
282.4535148098328
 31
0.0
  0
LINE
  5
7335
330
1F
100
AcDbEntity
  8
KONTUR
100
AcDbLine
 10
270.6422441559519
 20
278.9535148098328
 30
0.0
 11
256.1422441559519
 21
278.9535148098328
 31
0.0
  0
LINE
  5
7336
330
1F
100
AcDbEntity
  8
KONTUR
100
AcDbLine
 10
252.6422441559519
 20
278.9535148098328
 30
0.0
 11
238.1422441559519
 21
278.9535148098328
 31
0.0
  0
LINE
  5
7337
330
1F
100
AcDbEntity
  8
KONTUR
100
AcDbLine
 10
252.6422441559519
 20
282.4535148098328
 30
0.0
 11
238.1422441559519
 21
282.4535148098328
 31
0.0
  0
LINE
  5
7338
330
1F
100
AcDbEntity
  8
KONTUR
100
AcDbLine
 10
274.1422441559519
 20
305.9535148098328
 30
0.0
 11
18.64224415595186
 21
305.9535148098328
 31
0.0
  0
LINE
  5
7339
330
1F
100
AcDbEntity
  8
KONTUR
100
AcDbLine
 10
274.1422441559519
 20
301.4535148098328
 30
0.0
 11
18.64224415595186
 21
301.4535148098328
 31
0.0
  0
LINE
  5
733A
330
1F
100
AcDbEntity
  8
CENTER
100
AcDbLine
 10
14.89224415595186
 20
303.7035148098328
 30
0.0
 11
277.1422441559519
 21
303.7035148098328
 31
0.0
  0
ARC
  5
733B
330
1F
100
AcDbEntity
  8
KONTUR
100
AcDbCircle
 10
272.3922441559519
 20
299.7035148098328
 30
0.0
 40
1.75
100
AcDbArc
 50
0.0
 51
180.0
  0
ARC
  5
733C
330
1F
100
AcDbEntity
  8
SKJUL
100
AcDbCircle
 10
272.3922441559519
 20
299.7035148098328
 30
0.0
 40
1.75
100
AcDbArc
 50
180.0
 51
0.0
  0
ARC
  5
733D
330
1F
100
AcDbEntity
  8
SKJUL
100
AcDbCircle
 10
254.3922441559519
 20
299.7035148098328
 30
0.0
 40
1.75
100
AcDbArc
 50
180.0
 51
0.0
  0
ARC
  5
733E
330
1F
100
AcDbEntity
  8
KONTUR
100
AcDbCircle
 10
254.3922441559519
 20
299.7035148098328
 30
0.0
 40
1.75
100
AcDbArc
 50
0.0
 51
180.0
  0
ARC
  5
733F
330
1F
100
AcDbEntity
  8
KONTUR
100
AcDbCircle
 10
218.3922441559519
 20
299.7035148098328
 30
0.0
 40
1.75
100
AcDbArc
 50
0.0
 51
180.0
  0
ARC
  5
7340
330
1F
100
AcDbEntity
  8
SKJUL
100
AcDbCircle
 10
218.3922441559519
 20
299.7035148098328
 30
0.0
 40
1.75
100
AcDbArc
 50
180.0
 51
0.0
  0
ARC
  5
7341
330
1F
100
AcDbEntity
  8
KONTUR
100
AcDbCircle
 10
236.3922441559519
 20
299.7035148098328
 30
0.0
 40
1.75
100
AcDbArc
 50
0.0
 51
180.0
  0
ARC
  5
7342
330
1F
100
AcDbEntity
  8
SKJUL
100
AcDbCircle
 10
236.3922441559519
 20
299.7035148098328
 30
0.0
 40
1.75
100
AcDbArc
 50
180.0
 51
0.0
  0
ARC
  5
7343
330
1F
100
AcDbEntity
  8
KONTUR
100
AcDbCircle
 10
200.3922441559519
 20
299.7035148098328
 30
0.0
 40
1.75
100
AcDbArc
 50
0.0
 51
180.0
  0
ARC
  5
7344
330
1F
100
AcDbEntity
  8
SKJUL
100
AcDbCircle
 10
200.3922441559519
 20
299.7035148098328
 30
0.0
 40
1.75
100
AcDbArc
 50
180.0
 51
0.0
  0
ARC
  5
7345
330
1F
100
AcDbEntity
  8
SKJUL
100
AcDbCircle
 10
182.3922441559519
 20
299.7035148098328
 30
0.0
 40
1.75
100
AcDbArc
 50
180.0
 51
0.0
  0
ARC
  5
7346
330
1F
100
AcDbEntity
  8
KONTUR
100
AcDbCircle
 10
182.3922441559519
 20
299.7035148098328
 30
0.0
 40
1.75
100
AcDbArc
 50
0.0
 51
180.0
  0
ARC
  5
7347
330
1F
100
AcDbEntity
  8
SKJUL
100
AcDbCircle
 10
164.3922441559519
 20
299.7035148098328
 30
0.0
 40
1.75
100
AcDbArc
 50
180.0
 51
0.0
  0
ARC
  5
7348
330
1F
100
AcDbEntity
  8
KONTUR
100
AcDbCircle
 10
164.3922441559519
 20
299.7035148098328
 30
0.0
 40
1.75
100
AcDbArc
 50
0.0
 51
180.0
  0
ARC
  5
7349
330
1F
100
AcDbEntity
  8
KONTUR
100
AcDbCircle
 10
146.3922441559519
 20
299.7035148098328
 30
0.0
 40
1.75
100
AcDbArc
 50
0.0
 51
180.0
  0
ARC
  5
734A
330
1F
100
AcDbEntity
  8
SKJUL
100
AcDbCircle
 10
146.3922441559519
 20
299.7035148098328
 30
0.0
 40
1.75
100
AcDbArc
 50
180.0
 51
0.0
  0
ARC
  5
734B
330
1F
100
AcDbEntity
  8
SKJUL
100
AcDbCircle
 10
128.3922441559519
 20
299.7035148098328
 30
0.0
 40
1.75
100
AcDbArc
 50
180.0
 51
0.0
  0
ARC
  5
734C
330
1F
100
AcDbEntity
  8
KONTUR
100
AcDbCircle
 10
128.3922441559519
 20
299.7035148098328
 30
0.0
 40
1.75
100
AcDbArc
 50
0.0
 51
180.0
  0
ARC
  5
734D
330
1F
100
AcDbEntity
  8
KONTUR
100
AcDbCircle
 10
110.3922441559519
 20
299.7035148098328
 30
0.0
 40
1.75
100
AcDbArc
 50
0.0
 51
180.0
  0
ARC
  5
734E
330
1F
100
AcDbEntity
  8
SKJUL
100
AcDbCircle
 10
110.3922441559519
 20
299.7035148098328
 30
0.0
 40
1.75
100
AcDbArc
 50
180.0
 51
0.0
  0
ARC
  5
734F
330
1F
100
AcDbEntity
  8
KONTUR
100
AcDbCircle
 10
92.39224415595186
 20
299.7035148098328
 30
0.0
 40
1.75
100
AcDbArc
 50
0.0
 51
180.0
  0
ARC
  5
7350
330
1F
100
AcDbEntity
  8
SKJUL
100
AcDbCircle
 10
92.39224415595186
 20
299.7035148098328
 30
0.0
 40
1.75
100
AcDbArc
 50
180.0
 51
0.0
  0
ARC
  5
7351
330
1F
100
AcDbEntity
  8
KONTUR
100
AcDbCircle
 10
74.39224415595186
 20
299.7035148098328
 30
0.0
 40
1.75
100
AcDbArc
 50
0.0
 51
180.0
  0
ARC
  5
7352
330
1F
100
AcDbEntity
  8
SKJUL
100
AcDbCircle
 10
74.39224415595186
 20
299.7035148098328
 30
0.0
 40
1.75
100
AcDbArc
 50
180.0
 51
0.0
  0
ARC
  5
7353
330
1F
100
AcDbEntity
  8
KONTUR
100
AcDbCircle
 10
56.39224415595186
 20
299.7035148098328
 30
0.0
 40
1.75
100
AcDbArc
 50
0.0
 51
180.0
  0
ARC
  5
7354
330
1F
100
AcDbEntity
  8
SKJUL
100
AcDbCircle
 10
56.39224415595186
 20
299.7035148098328
 30
0.0
 40
1.75
100
AcDbArc
 50
180.0
 51
0.0
  0
ARC
  5
7355
330
1F
100
AcDbEntity
  8
KONTUR
100
AcDbCircle
 10
38.39224415595186
 20
299.7035148098328
 30
0.0
 40
1.75
100
AcDbArc
 50
0.0
 51
180.0
  0
ARC
  5
7356
330
1F
100
AcDbEntity
  8
SKJUL
100
AcDbCircle
 10
38.39224415595186
 20
299.7035148098328
 30
0.0
 40
1.75
100
AcDbArc
 50
180.0
 51
0.0
  0
ARC
  5
7357
330
1F
100
AcDbEntity
  8
KONTUR
100
AcDbCircle
 10
20.39224415595186
 20
299.7035148098328
 30
0.0
 40
1.75
100
AcDbArc
 50
0.0
 51
180.0
  0
ARC
  5
7358
330
1F
100
AcDbEntity
  8
SKJUL
100
AcDbCircle
 10
20.39224415595186
 20
299.7035148098328
 30
0.0
 40
1.75
100
AcDbArc
 50
180.0
 51
0.0
  0
LINE
  5
7359
330
1F
100
AcDbEntity
  8
KONTUR
100
AcDbLine
 10
18.64224415595186
 20
305.9535148098328
 30
0.0
 11
18.64224415595186
 21
301.4535148098328
 31
0.0
  0
LINE
  5
735A
330
1F
100
AcDbEntity
  8
KONTUR
100
AcDbLine
 10
274.1422441559519
 20
305.9535148098328
 30
0.0
 11
274.1422441559519
 21
301.4535148098328
 31
0.0
  0
DIMENSION
  5
735B
330
1F
100
AcDbEntity
  8
MÅL
  6
Continuous
 62
     1
100
AcDbDimension
  2
*D9
 10
-16.35775584404814
 20
160.7035148098328
 30
0.0
 11
-23.85775584404814
 21
190.7035148098328
 31
0.0
 12
1.220925489844831
 22
32.91875632441338
 32
0.0
 70
    32
  1
60
 71
     5
 42
-1.0
 73
     0
 74
     0
 75
     0
  3
ROMANS
100
AcDbAlignedDimension
 13
-15.35775584404814
 23
220.7035148098328
 33
0.0
 14
0.6422441559518575
 24
160.7035148098328
 34
0.0
 50
90.0
100
AcDbRotatedDimension
1001
ACAD
1000
DSTYLE
1002
{
1070
    78
1070
     8
1070
   284
1070
     0
1070
    40
1040
2.0
1070
   178
1070
     4
1070
   141
1040
-3.0
1002
}
  0
DIMENSION
  5
735C
330
1F
100
AcDbEntity
  8
MÅL
  6
Continuous
 62
     1
100
AcDbDimension
  2
*D10
 10
-16.35775584404814
 20
220.7035148098328
 30
0.0
 11
-23.85775584404814
 21
250.7035148098328
 31
0.0
 12
1.220925489844831
 22
32.91875632441338
 32
0.0
 70
    32
  1
60
 71
     5
 42
-1.0
 73
     0
 74
     0
 75
     0
  3
ROMANS
100
AcDbAlignedDimension
 13
-15.35775584404814
 23
280.7035148098328
 33
0.0
 14
0.6422441559518575
 24
220.7035148098328
 34
0.0
 50
90.0
100
AcDbRotatedDimension
1001
ACAD
1000
DSTYLE
1002
{
1070
    78
1070
     8
1070
   284
1070
     0
1070
    40
1040
2.0
1070
   178
1070
     4
1070
   141
1040
-3.0
1002
}
  0
DIMENSION
  5
735D
330
1F
100
AcDbEntity
  8
MÅL
  6
Continuous
 62
     1
100
AcDbDimension
  2
*D11
 10
-16.32372738459958
 20
280.7035148098328
 30
0.0
 11
-16.32372738459958
 21
292.2035148098328
 31
0.0
 12
1.220925489844831
 22
32.91875632441338
 32
0.0
 70
    32
  1
23
 71
     5
 42
-1.0
 73
     0
 74
     0
 75
     0
  3
ROMANS
100
AcDbAlignedDimension
 13
15.14224415595186
 23
303.7035148098328
 33
0.0
 14
0.1422441559518575
 24
280.7035148098328
 34
0.0
 50
90.0
100
AcDbRotatedDimension
1001
ACAD
1000
DSTYLE
1002
{
1070
    78
1070
     8
1070
   284
1070
     0
1070
    40
1040
2.0
1070
   178
1070
     4
1070
   141
1040
-3.0
1002
}
  0
LINE
  5
735E
330
1F
100
AcDbEntity
  8
KONTUR
100
AcDbLine
 10
-3.357755844048143
 20
-1.796485190167232
 30
0.0
 11
297.6422441559519
 21
-1.796485190167232
 31
0.0
  0
LINE
  5
735F
330
1F
100
AcDbEntity
  8
KONTUR
100
AcDbLine
 10
297.6422441559519
 20
-15.79648519016723
 30
0.0
 11
-3.357755844048143
 21
-15.79648519016723
 31
0.0
  0
LINE
  5
7360
330
1F
100
AcDbEntity
  8
KONTUR
100
AcDbLine
 10
-3.357755844048143
 20
-1.796485190167232
 30
0.0
 11
-3.357755844048143
 21
-15.79648519016723
 31
0.0
  0
ARC
  5
7361
330
1F
100
AcDbEntity
  8
KONTUR
100
AcDbCircle
 10
297.6422441559519
 20
-8.796485190167232
 30
0.0
 40
7.0
100
AcDbArc
 50
270.0
 51
90.0
  0
ARC
  5
7362
330
1F
100
AcDbEntity
  8
025
100
AcDbCircle
 10
5.642244155951857
 20
-8.796485190167232
 30
0.0
 40
2.0
100
AcDbArc
 50
248.1985905136482
 51
116.565051177078
  0
CIRCLE
  5
7363
330
1F
100
AcDbEntity
  8
KONTUR
100
AcDbCircle
 10
5.642244155951857
 20
-8.796485190167232
 30
0.0
 40
1.5
  0
LINE
  5
7364
330
1F
100
AcDbEntity
  8
CENTER
100
AcDbLine
 10
5.642244155951857
 20
-11.79648519016723
 30
0.0
 11
5.642244155951857
 21
-5.796485190167232
 31
0.0
  0
LINE
  5
7365
330
1F
100
AcDbEntity
  8
CENTER
100
AcDbLine
 10
2.642244155951857
 20
-8.796485190167232
 30
0.0
 11
9.142244155951857
 21
-8.796485190167232
 31
0.0
  0
ARC
  5
7366
330
1F
100
AcDbEntity
  8
SKJUL
100
AcDbCircle
 10
297.6422441559519
 20
-8.796485190167232
 30
0.0
 40
7.0
100
AcDbArc
 50
90.0
 51
270.0
  0
LINE
  5
7367
330
1F
100
AcDbEntity
  8
KONTUR
100
AcDbLine
 10
-3.357755844048143
 20
297.7035148098328
 30
0.0
 11
297.6422441559519
 21
297.7035148098328
 31
0.0
  0
LINE
  5
7368
330
1F
100
AcDbEntity
  8
KONTUR
  6
Continuous
 62
     2
100
AcDbLine
 10
-3.357755844048143
 20
297.7035148098328
 30
0.0
 11
-3.357755844048143
 21
283.7035148098328
 31
0.0
  0
LINE
  5
7369
330
1F
100
AcDbEntity
  8
CENTER
100
AcDbLine
 10
2.642244155951857
 20
290.7035148098328
 30
0.0
 11
9.142244155951857
 21
290.7035148098328
 31
0.0
  0
LINE
  5
736A
330
1F
100
AcDbEntity
  8
KONTUR
100
AcDbLine
 10
297.6422441559519
 20
283.7035148098328
 30
0.0
 11
-3.357755844048143
 21
283.7035148098328
 31
0.0
  0
LINE
  5
736B
330
1F
100
AcDbEntity
  8
CENTER
100
AcDbLine
 10
5.642244155951857
 20
287.7035148098328
 30
0.0
 11
5.642244155951857
 21
293.7035148098328
 31
0.0
  0
CIRCLE
  5
736C
330
1F
100
AcDbEntity
  8
KONTUR
100
AcDbCircle
 10
5.642244155951857
 20
290.7035148098328
 30
0.0
 40
1.5
  0
ARC
  5
736D
330
1F
100
AcDbEntity
  8
025
100
AcDbCircle
 10
5.642244155951857
 20
290.7035148098328
 30
0.0
 40
2.0
100
AcDbArc
 50
248.1985905136482
 51
116.565051177078
  0
ARC
  5
736E
330
1F
100
AcDbEntity
  8
KONTUR
100
AcDbCircle
 10
297.6422441559519
 20
290.7035148098328
 30
0.0
 40
7.0
100
AcDbArc
 50
270.0
 51
90.0
  0
ARC
  5
736F
330
1F
100
AcDbEntity
  8
SKJUL
100
AcDbCircle
 10
297.6422441559519
 20
290.7035148098328
 30
0.0
 40
7.0
100
AcDbArc
 50
90.0
 51
270.0
  0
LINE
  5
7370
330
1F
100
AcDbEntity
  8
KONTUR
100
AcDbLine
 10
22.14224415595186
 20
-15.79648519016723
 30
0.0
 11
22.14224415595186
 21
-17.79648519016723
 31
0.0
  0
LINE
  5
7371
330
1F
100
AcDbEntity
  8
KONTUR
100
AcDbLine
 10
18.64224415595186
 20
-15.79648519016723
 30
0.0
 11
18.64224415595186
 21
-17.79648519016723
 31
0.0
  0
LINE
  5
7372
330
1F
100
AcDbEntity
  8
SKJUL
100
AcDbLine
 10
18.64224415595186
 20
-1.796485190167232
 30
0.0
 11
18.64224415595186
 21
-15.79648519016723
 31
0.0
  0
LINE
  5
7373
330
1F
100
AcDbEntity
  8
SKJUL
100
AcDbLine
 10
22.14224415595186
 20
-1.796485190167232
 30
0.0
 11
22.14224415595186
 21
-15.79648519016723
 31
0.0
  0
LINE
  5
7374
330
1F
100
AcDbEntity
  8
KONTUR
100
AcDbLine
 10
36.64224415595186
 20
-15.79648519016723
 30
0.0
 11
36.64224415595186
 21
-17.79648519016723
 31
0.0
  0
LINE
  5
7375
330
1F
100
AcDbEntity
  8
KONTUR
100
AcDbLine
 10
40.14224415595186
 20
-15.79648519016723
 30
0.0
 11
40.14224415595186
 21
-17.79648519016723
 31
0.0
  0
LINE
  5
7376
330
1F
100
AcDbEntity
  8
SKJUL
100
AcDbLine
 10
40.14224415595186
 20
-1.796485190167232
 30
0.0
 11
40.14224415595186
 21
-15.79648519016723
 31
0.0
  0
LINE
  5
7377
330
1F
100
AcDbEntity
  8
SKJUL
100
AcDbLine
 10
36.64224415595186
 20
-1.796485190167232
 30
0.0
 11
36.64224415595186
 21
-15.79648519016723
 31
0.0
  0
LINE
  5
7378
330
1F
100
AcDbEntity
  8
KONTUR
100
AcDbLine
 10
54.64224415595186
 20
-15.79648519016723
 30
0.0
 11
54.64224415595186
 21
-17.79648519016723
 31
0.0
  0
LINE
  5
7379
330
1F
100
AcDbEntity
  8
KONTUR
100
AcDbLine
 10
58.14224415595186
 20
-15.79648519016723
 30
0.0
 11
58.14224415595186
 21
-17.79648519016723
 31
0.0
  0
LINE
  5
737A
330
1F
100
AcDbEntity
  8
KONTUR
100
AcDbLine
 10
72.64224415595186
 20
-15.79648519016723
 30
0.0
 11
72.64224415595186
 21
-17.79648519016723
 31
0.0
  0
LINE
  5
737B
330
1F
100
AcDbEntity
  8
KONTUR
100
AcDbLine
 10
76.14224415595186
 20
-15.79648519016723
 30
0.0
 11
76.14224415595186
 21
-17.79648519016723
 31
0.0
  0
LINE
  5
737C
330
1F
100
AcDbEntity
  8
SKJUL
100
AcDbLine
 10
54.64224415595186
 20
-1.796485190167232
 30
0.0
 11
54.64224415595186
 21
-15.79648519016723
 31
0.0
  0
LINE
  5
737D
330
1F
100
AcDbEntity
  8
SKJUL
100
AcDbLine
 10
58.14224415595186
 20
-1.796485190167232
 30
0.0
 11
58.14224415595186
 21
-15.79648519016723
 31
0.0
  0
LINE
  5
737E
330
1F
100
AcDbEntity
  8
SKJUL
100
AcDbLine
 10
72.64224415595186
 20
-1.796485190167232
 30
0.0
 11
72.64224415595186
 21
-15.79648519016723
 31
0.0
  0
LINE
  5
737F
330
1F
100
AcDbEntity
  8
SKJUL
100
AcDbLine
 10
76.14224415595186
 20
-1.796485190167232
 30
0.0
 11
76.14224415595186
 21
-15.79648519016723
 31
0.0
  0
LINE
  5
7380
330
1F
100
AcDbEntity
  8
KONTUR
100
AcDbLine
 10
90.64224415595186
 20
-15.79648519016723
 30
0.0
 11
90.64224415595186
 21
-17.79648519016723
 31
0.0
  0
LINE
  5
7381
330
1F
100
AcDbEntity
  8
KONTUR
100
AcDbLine
 10
94.14224415595186
 20
-15.79648519016723
 30
0.0
 11
94.14224415595186
 21
-17.79648519016723
 31
0.0
  0
LINE
  5
7382
330
1F
100
AcDbEntity
  8
KONTUR
100
AcDbLine
 10
108.6422441559519
 20
-15.79648519016723
 30
0.0
 11
108.6422441559519
 21
-17.79648519016723
 31
0.0
  0
LINE
  5
7383
330
1F
100
AcDbEntity
  8
KONTUR
100
AcDbLine
 10
112.1422441559519
 20
-15.79648519016723
 30
0.0
 11
112.1422441559519
 21
-17.79648519016723
 31
0.0
  0
LINE
  5
7384
330
1F
100
AcDbEntity
  8
SKJUL
100
AcDbLine
 10
90.64224415595186
 20
-1.796485190167232
 30
0.0
 11
90.64224415595186
 21
-15.79648519016723
 31
0.0
  0
LINE
  5
7385
330
1F
100
AcDbEntity
  8
SKJUL
100
AcDbLine
 10
94.14224415595186
 20
-1.796485190167232
 30
0.0
 11
94.14224415595186
 21
-15.79648519016723
 31
0.0
  0
LINE
  5
7386
330
1F
100
AcDbEntity
  8
SKJUL
100
AcDbLine
 10
108.6422441559519
 20
-1.796485190167232
 30
0.0
 11
108.6422441559519
 21
-15.79648519016723
 31
0.0
  0
LINE
  5
7387
330
1F
100
AcDbEntity
  8
SKJUL
100
AcDbLine
 10
112.1422441559519
 20
-1.796485190167232
 30
0.0
 11
112.1422441559519
 21
-15.79648519016723
 31
0.0
  0
LINE
  5
7388
330
1F
100
AcDbEntity
  8
KONTUR
100
AcDbLine
 10
126.6422441559519
 20
-15.79648519016723
 30
0.0
 11
126.6422441559519
 21
-17.79648519016723
 31
0.0
  0
LINE
  5
7389
330
1F
100
AcDbEntity
  8
KONTUR
100
AcDbLine
 10
130.1422441559519
 20
-15.79648519016723
 30
0.0
 11
130.1422441559519
 21
-17.79648519016723
 31
0.0
  0
LINE
  5
738A
330
1F
100
AcDbEntity
  8
KONTUR
100
AcDbLine
 10
144.6422441559519
 20
-15.79648519016723
 30
0.0
 11
144.6422441559519
 21
-17.79648519016723
 31
0.0
  0
LINE
  5
738B
330
1F
100
AcDbEntity
  8
KONTUR
100
AcDbLine
 10
148.1422441559519
 20
-15.79648519016723
 30
0.0
 11
148.1422441559519
 21
-17.79648519016723
 31
0.0
  0
LINE
  5
738C
330
1F
100
AcDbEntity
  8
KONTUR
100
AcDbLine
 10
162.6422441559519
 20
-15.79648519016723
 30
0.0
 11
162.6422441559519
 21
-17.79648519016723
 31
0.0
  0
LINE
  5
738D
330
1F
100
AcDbEntity
  8
KONTUR
100
AcDbLine
 10
166.1422441559519
 20
-15.79648519016723
 30
0.0
 11
166.1422441559519
 21
-17.79648519016723
 31
0.0
  0
LINE
  5
738E
330
1F
100
AcDbEntity
  8
KONTUR
100
AcDbLine
 10
180.6422441559519
 20
-15.79648519016723
 30
0.0
 11
180.6422441559519
 21
-17.79648519016723
 31
0.0
  0
LINE
  5
738F
330
1F
100
AcDbEntity
  8
KONTUR
100
AcDbLine
 10
184.1422441559519
 20
-15.79648519016723
 30
0.0
 11
184.1422441559519
 21
-17.79648519016723
 31
0.0
  0
LINE
  5
7390
330
1F
100
AcDbEntity
  8
SKJUL
100
AcDbLine
 10
126.6422441559519
 20
-1.796485190167232
 30
0.0
 11
126.6422441559519
 21
-15.79648519016723
 31
0.0
  0
LINE
  5
7391
330
1F
100
AcDbEntity
  8
SKJUL
100
AcDbLine
 10
130.1422441559519
 20
-1.796485190167232
 30
0.0
 11
130.1422441559519
 21
-15.79648519016723
 31
0.0
  0
LINE
  5
7392
330
1F
100
AcDbEntity
  8
SKJUL
100
AcDbLine
 10
144.6422441559519
 20
-1.796485190167232
 30
0.0
 11
144.6422441559519
 21
-15.79648519016723
 31
0.0
  0
LINE
  5
7393
330
1F
100
AcDbEntity
  8
SKJUL
100
AcDbLine
 10
148.1422441559519
 20
-1.796485190167232
 30
0.0
 11
148.1422441559519
 21
-15.79648519016723
 31
0.0
  0
LINE
  5
7394
330
1F
100
AcDbEntity
  8
SKJUL
100
AcDbLine
 10
162.6422441559519
 20
-1.796485190167232
 30
0.0
 11
162.6422441559519
 21
-15.79648519016723
 31
0.0
  0
LINE
  5
7395
330
1F
100
AcDbEntity
  8
SKJUL
100
AcDbLine
 10
166.1422441559519
 20
-1.796485190167232
 30
0.0
 11
166.1422441559519
 21
-15.79648519016723
 31
0.0
  0
LINE
  5
7396
330
1F
100
AcDbEntity
  8
SKJUL
100
AcDbLine
 10
180.6422441559519
 20
-1.796485190167232
 30
0.0
 11
180.6422441559519
 21
-15.79648519016723
 31
0.0
  0
LINE
  5
7397
330
1F
100
AcDbEntity
  8
SKJUL
100
AcDbLine
 10
184.1422441559519
 20
-1.796485190167232
 30
0.0
 11
184.1422441559519
 21
-15.79648519016723
 31
0.0
  0
LINE
  5
7398
330
1F
100
AcDbEntity
  8
KONTUR
100
AcDbLine
 10
198.6422441559519
 20
-15.79648519016723
 30
0.0
 11
198.6422441559519
 21
-17.79648519016723
 31
0.0
  0
LINE
  5
7399
330
1F
100
AcDbEntity
  8
KONTUR
100
AcDbLine
 10
202.1422441559519
 20
-15.79648519016723
 30
0.0
 11
202.1422441559519
 21
-17.79648519016723
 31
0.0
  0
LINE
  5
739A
330
1F
100
AcDbEntity
  8
KONTUR
100
AcDbLine
 10
216.6422441559519
 20
-15.79648519016723
 30
0.0
 11
216.6422441559519
 21
-17.79648519016723
 31
0.0
  0
LINE
  5
739B
330
1F
100
AcDbEntity
  8
KONTUR
100
AcDbLine
 10
220.1422441559519
 20
-15.79648519016723
 30
0.0
 11
220.1422441559519
 21
-17.79648519016723
 31
0.0
  0
LINE
  5
739C
330
1F
100
AcDbEntity
  8
KONTUR
100
AcDbLine
 10
234.6422441559519
 20
-15.79648519016723
 30
0.0
 11
234.6422441559519
 21
-17.79648519016723
 31
0.0
  0
LINE
  5
739D
330
1F
100
AcDbEntity
  8
KONTUR
100
AcDbLine
 10
238.1422441559519
 20
-15.79648519016723
 30
0.0
 11
238.1422441559519
 21
-17.79648519016723
 31
0.0
  0
LINE
  5
739E
330
1F
100
AcDbEntity
  8
KONTUR
100
AcDbLine
 10
252.6422441559519
 20
-15.79648519016723
 30
0.0
 11
252.6422441559519
 21
-17.79648519016723
 31
0.0
  0
LINE
  5
739F
330
1F
100
AcDbEntity
  8
KONTUR
100
AcDbLine
 10
256.1422441559519
 20
-15.79648519016723
 30
0.0
 11
256.1422441559519
 21
-17.79648519016723
 31
0.0
  0
LINE
  5
73A0
330
1F
100
AcDbEntity
  8
KONTUR
100
AcDbLine
 10
270.6422441559519
 20
-15.79648519016723
 30
0.0
 11
270.6422441559519
 21
-17.79648519016723
 31
0.0
  0
LINE
  5
73A1
330
1F
100
AcDbEntity
  8
KONTUR
100
AcDbLine
 10
274.1422441559519
 20
-15.79648519016723
 30
0.0
 11
274.1422441559519
 21
-17.79648519016723
 31
0.0
  0
LINE
  5
73A2
330
1F
100
AcDbEntity
  8
SKJUL
100
AcDbLine
 10
198.6422441559519
 20
-1.796485190167232
 30
0.0
 11
198.6422441559519
 21
-15.79648519016723
 31
0.0
  0
LINE
  5
73A3
330
1F
100
AcDbEntity
  8
SKJUL
100
AcDbLine
 10
202.1422441559519
 20
-1.796485190167232
 30
0.0
 11
202.1422441559519
 21
-15.79648519016723
 31
0.0
  0
LINE
  5
73A4
330
1F
100
AcDbEntity
  8
SKJUL
100
AcDbLine
 10
216.6422441559519
 20
-1.796485190167232
 30
0.0
 11
216.6422441559519
 21
-15.79648519016723
 31
0.0
  0
LINE
  5
73A5
330
1F
100
AcDbEntity
  8
SKJUL
100
AcDbLine
 10
220.1422441559519
 20
-1.796485190167232
 30
0.0
 11
220.1422441559519
 21
-15.79648519016723
 31
0.0
  0
LINE
  5
73A6
330
1F
100
AcDbEntity
  8
SKJUL
100
AcDbLine
 10
234.6422441559519
 20
-1.796485190167232
 30
0.0
 11
234.6422441559519
 21
-15.79648519016723
 31
0.0
  0
LINE
  5
73A7
330
1F
100
AcDbEntity
  8
SKJUL
100
AcDbLine
 10
238.1422441559519
 20
-1.796485190167232
 30
0.0
 11
238.1422441559519
 21
-15.79648519016723
 31
0.0
  0
LINE
  5
73A8
330
1F
100
AcDbEntity
  8
SKJUL
100
AcDbLine
 10
252.6422441559519
 20
-1.796485190167232
 30
0.0
 11
252.6422441559519
 21
-15.79648519016723
 31
0.0
  0
LINE
  5
73A9
330
1F
100
AcDbEntity
  8
SKJUL
100
AcDbLine
 10
256.1422441559519
 20
-1.796485190167232
 30
0.0
 11
256.1422441559519
 21
-15.79648519016723
 31
0.0
  0
LINE
  5
73AA
330
1F
100
AcDbEntity
  8
SKJUL
100
AcDbLine
 10
270.6422441559519
 20
-1.796485190167232
 30
0.0
 11
270.6422441559519
 21
-15.79648519016723
 31
0.0
  0
LINE
  5
73AB
330
1F
100
AcDbEntity
  8
SKJUL
100
AcDbLine
 10
274.1422441559519
 20
-1.796485190167232
 30
0.0
 11
274.1422441559519
 21
-15.79648519016723
 31
0.0
  0
LINE
  5
73AC
330
1F
100
AcDbEntity
  8
KONTUR
100
AcDbLine
 10
256.1422441559519
 20
297.7035148098328
 30
0.0
 11
256.1422441559519
 21
299.7035148098328
 31
0.0
  0
LINE
  5
73AD
330
1F
100
AcDbEntity
  8
KONTUR
100
AcDbLine
 10
252.6422441559519
 20
297.7035148098328
 30
0.0
 11
252.6422441559519
 21
299.7035148098328
 31
0.0
  0
LINE
  5
73AE
330
1F
100
AcDbEntity
  8
KONTUR
100
AcDbLine
 10
270.6422441559519
 20
297.7035148098328
 30
0.0
 11
270.6422441559519
 21
299.7035148098328
 31
0.0
  0
LINE
  5
73AF
330
1F
100
AcDbEntity
  8
KONTUR
100
AcDbLine
 10
274.1422441559519
 20
297.7035148098328
 30
0.0
 11
274.1422441559519
 21
299.7035148098328
 31
0.0
  0
LINE
  5
73B0
330
1F
100
AcDbEntity
  8
SKJUL
100
AcDbLine
 10
274.1422441559519
 20
297.7035148098328
 30
0.0
 11
274.1422441559519
 21
283.7035148098328
 31
0.0
  0
LINE
  5
73B1
330
1F
100
AcDbEntity
  8
SKJUL
100
AcDbLine
 10
270.6422441559519
 20
297.7035148098328
 30
0.0
 11
270.6422441559519
 21
283.7035148098328
 31
0.0
  0
LINE
  5
73B2
330
1F
100
AcDbEntity
  8
SKJUL
100
AcDbLine
 10
252.6422441559519
 20
297.7035148098328
 30
0.0
 11
252.6422441559519
 21
283.7035148098328
 31
0.0
  0
LINE
  5
73B3
330
1F
100
AcDbEntity
  8
SKJUL
100
AcDbLine
 10
256.1422441559519
 20
297.7035148098328
 30
0.0
 11
256.1422441559519
 21
283.7035148098328
 31
0.0
  0
LINE
  5
73B4
330
1F
100
AcDbEntity
  8
KONTUR
100
AcDbLine
 10
238.1422441559519
 20
297.7035148098328
 30
0.0
 11
238.1422441559519
 21
299.7035148098328
 31
0.0
  0
LINE
  5
73B5
330
1F
100
AcDbEntity
  8
KONTUR
100
AcDbLine
 10
234.6422441559519
 20
297.7035148098328
 30
0.0
 11
234.6422441559519
 21
299.7035148098328
 31
0.0
  0
LINE
  5
73B6
330
1F
100
AcDbEntity
  8
KONTUR
100
AcDbLine
 10
220.1422441559519
 20
297.7035148098328
 30
0.0
 11
220.1422441559519
 21
299.7035148098328
 31
0.0
  0
LINE
  5
73B7
330
1F
100
AcDbEntity
  8
KONTUR
100
AcDbLine
 10
216.6422441559519
 20
297.7035148098328
 30
0.0
 11
216.6422441559519
 21
299.7035148098328
 31
0.0
  0
LINE
  5
73B8
330
1F
100
AcDbEntity
  8
SKJUL
100
AcDbLine
 10
216.6422441559519
 20
297.7035148098328
 30
0.0
 11
216.6422441559519
 21
283.7035148098328
 31
0.0
  0
LINE
  5
73B9
330
1F
100
AcDbEntity
  8
SKJUL
100
AcDbLine
 10
220.1422441559519
 20
297.7035148098328
 30
0.0
 11
220.1422441559519
 21
283.7035148098328
 31
0.0
  0
LINE
  5
73BA
330
1F
100
AcDbEntity
  8
SKJUL
100
AcDbLine
 10
238.1422441559519
 20
297.7035148098328
 30
0.0
 11
238.1422441559519
 21
283.7035148098328
 31
0.0
  0
LINE
  5
73BB
330
1F
100
AcDbEntity
  8
SKJUL
100
AcDbLine
 10
234.6422441559519
 20
297.7035148098328
 30
0.0
 11
234.6422441559519
 21
283.7035148098328
 31
0.0
  0
LINE
  5
73BC
330
1F
100
AcDbEntity
  8
KONTUR
100
AcDbLine
 10
202.1422441559519
 20
297.7035148098328
 30
0.0
 11
202.1422441559519
 21
299.7035148098328
 31
0.0
  0
LINE
  5
73BD
330
1F
100
AcDbEntity
  8
KONTUR
100
AcDbLine
 10
198.6422441559519
 20
297.7035148098328
 30
0.0
 11
198.6422441559519
 21
299.7035148098328
 31
0.0
  0
LINE
  5
73BE
330
1F
100
AcDbEntity
  8
KONTUR
100
AcDbLine
 10
180.6422441559519
 20
297.7035148098328
 30
0.0
 11
180.6422441559519
 21
299.7035148098328
 31
0.0
  0
LINE
  5
73BF
330
1F
100
AcDbEntity
  8
KONTUR
100
AcDbLine
 10
184.1422441559519
 20
297.7035148098328
 30
0.0
 11
184.1422441559519
 21
299.7035148098328
 31
0.0
  0
LINE
  5
73C0
330
1F
100
AcDbEntity
  8
KONTUR
100
AcDbLine
 10
166.1422441559519
 20
297.7035148098328
 30
0.0
 11
166.1422441559519
 21
299.7035148098328
 31
0.0
  0
LINE
  5
73C1
330
1F
100
AcDbEntity
  8
KONTUR
100
AcDbLine
 10
162.6422441559519
 20
297.7035148098328
 30
0.0
 11
162.6422441559519
 21
299.7035148098328
 31
0.0
  0
LINE
  5
73C2
330
1F
100
AcDbEntity
  8
KONTUR
100
AcDbLine
 10
148.1422441559519
 20
297.7035148098328
 30
0.0
 11
148.1422441559519
 21
299.7035148098328
 31
0.0
  0
LINE
  5
73C3
330
1F
100
AcDbEntity
  8
KONTUR
100
AcDbLine
 10
144.6422441559519
 20
297.7035148098328
 30
0.0
 11
144.6422441559519
 21
299.7035148098328
 31
0.0
  0
LINE
  5
73C4
330
1F
100
AcDbEntity
  8
SKJUL
100
AcDbLine
 10
144.6422441559519
 20
297.7035148098328
 30
0.0
 11
144.6422441559519
 21
283.7035148098328
 31
0.0
  0
LINE
  5
73C5
330
1F
100
AcDbEntity
  8
SKJUL
100
AcDbLine
 10
148.1422441559519
 20
297.7035148098328
 30
0.0
 11
148.1422441559519
 21
283.7035148098328
 31
0.0
  0
LINE
  5
73C6
330
1F
100
AcDbEntity
  8
SKJUL
100
AcDbLine
 10
166.1422441559519
 20
297.7035148098328
 30
0.0
 11
166.1422441559519
 21
283.7035148098328
 31
0.0
  0
LINE
  5
73C7
330
1F
100
AcDbEntity
  8
SKJUL
100
AcDbLine
 10
162.6422441559519
 20
297.7035148098328
 30
0.0
 11
162.6422441559519
 21
283.7035148098328
 31
0.0
  0
LINE
  5
73C8
330
1F
100
AcDbEntity
  8
SKJUL
100
AcDbLine
 10
180.6422441559519
 20
297.7035148098328
 30
0.0
 11
180.6422441559519
 21
283.7035148098328
 31
0.0
  0
LINE
  5
73C9
330
1F
100
AcDbEntity
  8
SKJUL
100
AcDbLine
 10
184.1422441559519
 20
297.7035148098328
 30
0.0
 11
184.1422441559519
 21
283.7035148098328
 31
0.0
  0
LINE
  5
73CA
330
1F
100
AcDbEntity
  8
SKJUL
100
AcDbLine
 10
198.6422441559519
 20
297.7035148098328
 30
0.0
 11
198.6422441559519
 21
283.7035148098328
 31
0.0
  0
LINE
  5
73CB
330
1F
100
AcDbEntity
  8
SKJUL
100
AcDbLine
 10
202.1422441559519
 20
297.7035148098328
 30
0.0
 11
202.1422441559519
 21
283.7035148098328
 31
0.0
  0
LINE
  5
73CC
330
1F
100
AcDbEntity
  8
KONTUR
100
AcDbLine
 10
126.6422441559519
 20
297.7035148098328
 30
0.0
 11
126.6422441559519
 21
299.7035148098328
 31
0.0
  0
LINE
  5
73CD
330
1F
100
AcDbEntity
  8
KONTUR
100
AcDbLine
 10
130.1422441559519
 20
297.7035148098328
 30
0.0
 11
130.1422441559519
 21
299.7035148098328
 31
0.0
  0
LINE
  5
73CE
330
1F
100
AcDbEntity
  8
KONTUR
100
AcDbLine
 10
112.1422441559519
 20
297.7035148098328
 30
0.0
 11
112.1422441559519
 21
299.7035148098328
 31
0.0
  0
LINE
  5
73CF
330
1F
100
AcDbEntity
  8
KONTUR
100
AcDbLine
 10
108.6422441559519
 20
297.7035148098328
 30
0.0
 11
108.6422441559519
 21
299.7035148098328
 31
0.0
  0
LINE
  5
73D0
330
1F
100
AcDbEntity
  8
KONTUR
100
AcDbLine
 10
94.14224415595186
 20
297.7035148098328
 30
0.0
 11
94.14224415595186
 21
299.7035148098328
 31
0.0
  0
LINE
  5
73D1
330
1F
100
AcDbEntity
  8
KONTUR
100
AcDbLine
 10
90.64224415595186
 20
297.7035148098328
 30
0.0
 11
90.64224415595186
 21
299.7035148098328
 31
0.0
  0
LINE
  5
73D2
330
1F
100
AcDbEntity
  8
KONTUR
100
AcDbLine
 10
76.14224415595186
 20
297.7035148098328
 30
0.0
 11
76.14224415595186
 21
299.7035148098328
 31
0.0
  0
LINE
  5
73D3
330
1F
100
AcDbEntity
  8
KONTUR
100
AcDbLine
 10
72.64224415595186
 20
297.7035148098328
 30
0.0
 11
72.64224415595186
 21
299.7035148098328
 31
0.0
  0
LINE
  5
73D4
330
1F
100
AcDbEntity
  8
KONTUR
100
AcDbLine
 10
58.14224415595186
 20
297.7035148098328
 30
0.0
 11
58.14224415595186
 21
299.7035148098328
 31
0.0
  0
LINE
  5
73D5
330
1F
100
AcDbEntity
  8
KONTUR
100
AcDbLine
 10
54.64224415595186
 20
297.7035148098328
 30
0.0
 11
54.64224415595186
 21
299.7035148098328
 31
0.0
  0
LINE
  5
73D6
330
1F
100
AcDbEntity
  8
KONTUR
100
AcDbLine
 10
40.14224415595186
 20
297.7035148098328
 30
0.0
 11
40.14224415595186
 21
299.7035148098328
 31
0.0
  0
LINE
  5
73D7
330
1F
100
AcDbEntity
  8
KONTUR
100
AcDbLine
 10
36.64224415595186
 20
297.7035148098328
 30
0.0
 11
36.64224415595186
 21
299.7035148098328
 31
0.0
  0
LINE
  5
73D8
330
1F
100
AcDbEntity
  8
KONTUR
100
AcDbLine
 10
22.14224415595186
 20
297.7035148098328
 30
0.0
 11
22.14224415595186
 21
299.7035148098328
 31
0.0
  0
LINE
  5
73D9
330
1F
100
AcDbEntity
  8
KONTUR
100
AcDbLine
 10
18.64224415595186
 20
297.7035148098328
 30
0.0
 11
18.64224415595186
 21
299.7035148098328
 31
0.0
  0
LINE
  5
73DA
330
1F
100
AcDbEntity
  8
SKJUL
100
AcDbLine
 10
126.6422441559519
 20
297.7035148098328
 30
0.0
 11
126.6422441559519
 21
283.7035148098328
 31
0.0
  0
LINE
  5
73DB
330
1F
100
AcDbEntity
  8
SKJUL
100
AcDbLine
 10
130.1422441559519
 20
297.7035148098328
 30
0.0
 11
130.1422441559519
 21
283.7035148098328
 31
0.0
  0
LINE
  5
73DC
330
1F
100
AcDbEntity
  8
SKJUL
100
AcDbLine
 10
90.64224415595186
 20
297.7035148098328
 30
0.0
 11
90.64224415595186
 21
283.7035148098328
 31
0.0
  0
LINE
  5
73DD
330
1F
100
AcDbEntity
  8
SKJUL
100
AcDbLine
 10
94.14224415595186
 20
297.7035148098328
 30
0.0
 11
94.14224415595186
 21
283.7035148098328
 31
0.0
  0
LINE
  5
73DE
330
1F
100
AcDbEntity
  8
SKJUL
100
AcDbLine
 10
108.6422441559519
 20
297.7035148098328
 30
0.0
 11
108.6422441559519
 21
283.7035148098328
 31
0.0
  0
LINE
  5
73DF
330
1F
100
AcDbEntity
  8
SKJUL
100
AcDbLine
 10
112.1422441559519
 20
297.7035148098328
 30
0.0
 11
112.1422441559519
 21
283.7035148098328
 31
0.0
  0
LINE
  5
73E0
330
1F
100
AcDbEntity
  8
SKJUL
100
AcDbLine
 10
54.64224415595186
 20
297.7035148098328
 30
0.0
 11
54.64224415595186
 21
283.7035148098328
 31
0.0
  0
LINE
  5
73E1
330
1F
100
AcDbEntity
  8
SKJUL
100
AcDbLine
 10
58.14224415595186
 20
297.7035148098328
 30
0.0
 11
58.14224415595186
 21
283.7035148098328
 31
0.0
  0
LINE
  5
73E2
330
1F
100
AcDbEntity
  8
SKJUL
100
AcDbLine
 10
72.64224415595186
 20
297.7035148098328
 30
0.0
 11
72.64224415595186
 21
283.7035148098328
 31
0.0
  0
LINE
  5
73E3
330
1F
100
AcDbEntity
  8
SKJUL
100
AcDbLine
 10
76.14224415595186
 20
297.7035148098328
 30
0.0
 11
76.14224415595186
 21
283.7035148098328
 31
0.0
  0
LINE
  5
73E4
330
1F
100
AcDbEntity
  8
SKJUL
100
AcDbLine
 10
18.64224415595186
 20
297.7035148098328
 30
0.0
 11
18.64224415595186
 21
283.7035148098328
 31
0.0
  0
LINE
  5
73E5
330
1F
100
AcDbEntity
  8
SKJUL
100
AcDbLine
 10
22.14224415595186
 20
297.7035148098328
 30
0.0
 11
22.14224415595186
 21
283.7035148098328
 31
0.0
  0
LINE
  5
73E6
330
1F
100
AcDbEntity
  8
SKJUL
100
AcDbLine
 10
36.64224415595186
 20
297.7035148098328
 30
0.0
 11
36.64224415595186
 21
283.7035148098328
 31
0.0
  0
LINE
  5
73E7
330
1F
100
AcDbEntity
  8
SKJUL
100
AcDbLine
 10
40.14224415595186
 20
297.7035148098328
 30
0.0
 11
40.14224415595186
 21
283.7035148098328
 31
0.0
  0
VIEWPORT
  5
755A
330
73
100
AcDbEntity
 67
     1
  8
0
100
AcDbViewport
 10
98.1273091160667
 20
142.6108713616211
 30
0.0
 40
514.0990340483298
 41
293.3328484530232
 68
     1
 69
     1
 12
98.1273091160667
 22
142.6108713616211
 13
0.0
 23
0.0
 14
10.0
 24
10.0
 15
10.0
 25
10.0
 16
0.0
 26
0.0
 36
1.0
 17
0.0
 27
0.0
 37
0.0
 42
50.0
 43
0.0
 44
0.0
 45
293.3328484530232
 50
0.0
 51
0.0
 72
 20000
 90
    32992
  1

281
     0
 71
     1
 74
     0
110
0.0
120
0.0
130
0.0
111
1.0
121
0.0
131
0.0
112
0.0
122
1.0
132
0.0
 79
     0
146
0.0
170
     0
 61
     5
292
     1
282
     1
141
0.0
142
0.0
 63
   256
  0
INSERT
  5
755B
330
73
100
AcDbEntity
 67
     1
  8
KONTUR
100
AcDbBlockReference
  2
E10
 10
0.0
 20
0.0
 30
0.0
  0
VIEWPORT
  5
755D
330
73
100
AcDbEntity
 67
     1
  8
VIEWPORT
100
AcDbViewport
 10
98.12957851364865
 20
142.6147929542856
 30
0.0
 40
207.9633344659048
 41
290.2894266906128
 68
     2
 69
     2
 12
130.879673635614
 22
173.1205547571921
 13
0.0
 23
0.0
 14
10.0
 24
10.0
 15
10.0
 25
10.0
 16
0.0
 26
0.0
 36
1.0
 17
0.0
 27
0.0
 37
0.0
 42
50.0
 43
0.0
 44
0.0
 45
580.5788533812256
 50
0.0
 51
0.0
 72
 20000
 90
    33440
  1

281
     0
 71
     1
 74
     0
110
0.0
120
0.0
130
0.0
111
1.0
121
0.0
131
0.0
112
0.0
122
1.0
132
0.0
 79
     0
146
0.0
170
     0
 61
     5
292
     1
282
     1
141
0.0
142
0.0
 63
   256
  0
INSERT
  5
7810
330
73
100
AcDbEntity
 67
     1
  8
SYN
100
AcDbBlockReference
  2
ACADN
 10
274.7300545607764
 20
5.39127512939552
 30
0.0
  0
INSERT
  5
7811
330
73
100
AcDbEntity
 67
     1
  8
HJL
100
AcDbBlockReference
  2
BORDER
 10
274.7300545607764
 20
5.39127512939552
 30
0.0
 41
197.0
 42
282.0
 43
197.0
  0
INSERT
  5
7B17
330
73
100
AcDbEntity
 67
     1
  8
VIEWPORT
100
AcDbBlockReference
  2
K3
 10
196.0
 20
283.5
 30
0.0
  0
INSERT
  5
7B1A
330
73
100
AcDbEntity
 67
     1
  8
VIEWPORT
100
AcDbBlockReference
 66
     1
  2
K4
 10
196.0
 20
283.5
 30
0.0
  0
ATTRIB
  5
7B1B
330
7B1A
100
AcDbEntity
 67
     1
  8
0
 62
     4
100
AcDbText
 10
17.5
 20
264.0
 30
0.0
 40
2.5
  1
TOWEL SHELF - 500mm
  7
ROMANS
100
AcDbAttribute
  2
EMNE
 70
     0
280
     0
  0
ATTRIB
  5
7B1C
330
7B1A
100
AcDbEntity
 67
     1
  8
0
 62
     4
100
AcDbText
 10
17.5
 20
259.0
 30
0.0
 40
2.5
  1

  7
ROMANS
100
AcDbAttribute
  2
SUBJECT
 70
     0
280
     0
  0
ATTRIB
  5
7B1D
330
7B1A
100
AcDbEntity
 67
     1
  8
0
 62
     4
100
AcDbText
 10
163.775
 20
269.0
 30
0.0
 40
2.5
  1
14.7025.02.501
  7
ROMANS
 72
     2
 11
193.5
 21
269.0
 31
0.0
100
AcDbAttribute
  2
KAT.NR
 70
     0
280
     0
  0
ATTRIB
  5
7B1E
330
7B1A
100
AcDbEntity
 67
     1
  8
0
 62
     4
100
AcDbText
 10
193.5
 20
264.0
 30
0.0
 40
2.5
  1

  7
ROMANS
 72
     2
 11
193.5
 21
264.0
 31
0.0
100
AcDbAttribute
  2
TEGN.NR
 70
     0
280
     0
  0
ATTRIB
  5
7B1F
330
7B1A
100
AcDbEntity
 67
     1
  8
0
 62
     4
100
AcDbText
 10
176.85
 20
259.0
 30
0.0
 40
2.5
  1
01.02.94
  7
ROMANS
 72
     2
 11
193.5
 21
259.0
 31
0.0
100
AcDbAttribute
  2
DATO
 70
     0
280
     0
  0
ATTRIB
  5
7B20
330
7B1A
100
AcDbEntity
 67
     1
  8
0
 62
     4
100
AcDbText
 10
176.85
 20
254.0
 30
0.0
 40
2.5
  1
01.04.98
  7
ROMANS
 72
     2
 11
193.5
 21
254.0
 31
0.0
100
AcDbAttribute
  2
RETTET
 70
     0
280
     0
  0
ATTRIB
  5
7B21
330
7B1A
100
AcDbEntity
 67
     1
  8
0
 62
     4
100
AcDbText
 10
153.55
 20
264.0
 30
0.0
 40
2.5
  1
1:2
  7
ROMANS
 72
     2
 11
159.5
 21
264.0
 31
0.0
100
AcDbAttribute
  2
MÅL
 70
     0
280
     0
  0
ATTRIB
  5
7B22
330
7B1A
100
AcDbEntity
 67
     1
  8
0
 62
     4
100
AcDbText
 10
154.975
 20
254.0
 30
0.0
 40
2.5
  1
A4
  7
ROMANS
 72
     2
 11
159.5
 21
254.0
 31
0.0
100
AcDbAttribute
  2
FORMAT
 70
     0
280
     0
  0
ATTRIB
  5
7B23
330
7B1A
100
AcDbEntity
 67
     1
  8
0
 62
     4
100
AcDbText
 10
151.875
 20
259.0
 30
0.0
 40
2.5
  1
MAN
  7
ROMANS
 72
     2
 11
159.5
 21
259.0
 31
0.0
100
AcDbAttribute
  2
SIGN
 70
     0
280
     0
  0
SEQEND
  5
7B62
330
7B1A
100
AcDbEntity
 67
     1
  8
VIEWPORT
  0
ENDSEC
  0
SECTION
  2
OBJECTS
  0
DICTIONARY
  5
C
330
0
100
AcDbDictionary
281
     1
  3
ACAD_COLOR
350
6C
  3
ACAD_GROUP
350
D
  3
ACAD_LAYOUT
350
1A
  3
ACAD_MATERIAL
350
6B
  3
ACAD_MLINESTYLE
350
17
  3
ACAD_PLOTSETTINGS
350
19
  3
ACAD_PLOTSTYLENAME
350
E
  3
ACAD_TABLESTYLE
350
92
  3
AcDbVariableDictionary
350
59
  0
DICTIONARY
  5
6C
102
{ACAD_REACTORS
330
C
102
}
330
C
100
AcDbDictionary
281
     1
  0
DICTIONARY
  5
D
102
{ACAD_REACTORS
330
C
102
}
330
C
100
AcDbDictionary
281
     1
  0
DICTIONARY
  5
1A
102
{ACAD_REACTORS
330
C
102
}
330
C
100
AcDbDictionary
281
     1
  3
Layout1
350
74
  3
Model
350
22
  0
DICTIONARY
  5
6B
102
{ACAD_REACTORS
330
C
102
}
330
C
100
AcDbDictionary
281
     1
  0
DICTIONARY
  5
17
102
{ACAD_REACTORS
330
C
102
}
330
C
100
AcDbDictionary
281
     1
  3
ROMANS
350
3E33
  3
Standard
350
18
  0
DICTIONARY
  5
19
102
{ACAD_REACTORS
330
C
102
}
330
C
100
AcDbDictionary
281
     1
  0
ACDBDICTIONARYWDFLT
  5
E
102
{ACAD_REACTORS
330
C
102
}
330
C
100
AcDbDictionary
281
     1
  3
Normal
350
F
100
AcDbDictionaryWithDefault
340
F
  0
DICTIONARY
  5
92
102
{ACAD_REACTORS
330
C
102
}
330
C
100
AcDbDictionary
281
     1
  3
Standard
350
93
  0
DICTIONARY
  5
59
102
{ACAD_REACTORS
330
C
102
}
330
C
100
AcDbDictionary
281
     1
  3
CTABLESTYLE
350
98
  3
HIDETEXT
350
7B3A
  0
LAYOUT
  5
74
102
{ACAD_REACTORS
330
1A
102
}
330
1A
100
AcDbPlotSettings
  1

  2
None
  4

  6

 40
0.0
 41
0.0
 42
0.0
 43
0.0
 44
0.0
 45
0.0
 46
0.0
 47
0.0
 48
0.0
 49
0.0
140
0.0
141
0.0
142
1.0
143
1.0
 70
   688
 72
     0
 73
     0
 74
     5
  7

 75
    16
 76
     0
 77
     2
 78
   300
147
1.0
148
0.0
149
0.0
100
AcDbLayout
  1
Layout1
 70
     1
 71
     1
 10
0.0
 20
0.0
 11
0.0
 21
0.0
 12
0.0
 22
0.0
 32
0.0
 14
0.0
 24
0.0
 34
0.0
 15
0.0
 25
0.0
 35
0.0
146
0.0
 13
0.0
 23
0.0
 33
0.0
 16
1.0
 26
0.0
 36
0.0
 17
0.0
 27
1.0
 37
0.0
 76
     0
330
73
331
755A
  0
LAYOUT
  5
22
102
{ACAD_REACTORS
330
1A
102
}
330
1A
100
AcDbPlotSettings
  1

  2
None
  4

  6

 40
0.0
 41
0.0
 42
0.0
 43
0.0
 44
0.0
 45
0.0
 46
0.0
 47
0.0
 48
0.0
 49
0.0
140
0.0
141
0.0
142
1.0
143
1.0
 70
 11952
 72
     0
 73
     0
 74
     5
  7

 75
    16
 76
     0
 77
     2
 78
   300
147
1.0
148
0.0
149
0.0
100
AcDbLayout
  1
Model
 70
     1
 71
     0
 10
0.0
 20
0.0
 11
12.0
 21
9.0
 12
0.0
 22
0.0
 32
0.0
 14
-5.852088719303765
 24
-2.529920391020823
 34
0.0
 15
202.1112457466011
 25
287.759506299592
 35
0.0
146
0.0
 13
0.0
 23
0.0
 33
0.0
 16
1.0
 26
0.0
 36
0.0
 17
0.0
 27
1.0
 37
0.0
 76
     0
330
1F
  0
MLINESTYLE
  5
3E33
102
{ACAD_REACTORS
330
17
102
}
330
17
100
AcDbMlineStyle
  2
ROMANS
 70
     0
  3

 62
     0
 51
90.0
 52
90.0
 71
     2
 49
0.5
 62
   256
  6
BYLAYER
 49
-0.5
 62
   256
  6
BYLAYER
  0
MLINESTYLE
  5
18
102
{ACAD_REACTORS
330
17
102
}
330
17
100
AcDbMlineStyle
  2
STANDARD
 70
     0
  3

 62
     0
 51
90.0
 52
90.0
 71
     2
 49
0.5
 62
   256
  6
BYLAYER
 49
-0.5
 62
   256
  6
BYLAYER
  0
ACDBPLACEHOLDER
  5
F
102
{ACAD_REACTORS
330
E
102
}
330
E
  0
TABLESTYLE
  5
93
102
{ACAD_REACTORS
330
92
102
}
330
92
100
AcDbTableStyle
  3
Standard
 70
     0
 71
     0
 40
0.06
 41
0.06
280
     0
281
     0
  7
Standard
140
0.18
170
     2
 62
     0
 63
     7
283
     0
 90
      512
 91
        0
  1

274
    -2
284
     1
 64
     0
275
    -2
285
     1
 65
     0
276
    -2
286
     1
 66
     0
277
    -2
287
     1
 67
     0
278
    -2
288
     1
 68
     0
279
    -2
289
     1
 69
     0
  7
Standard
140
0.25
170
     5
 62
     0
 63
     7
283
     0
 90
      512
 91
        0
  1

274
    -2
284
     1
 64
     0
275
    -2
285
     1
 65
     0
276
    -2
286
     1
 66
     0
277
    -2
287
     1
 67
     0
278
    -2
288
     1
 68
     0
279
    -2
289
     1
 69
     0
  7
Standard
140
0.18
170
     5
 62
     0
 63
     7
283
     0
 90
      512
 91
        0
  1

274
    -2
284
     1
 64
     0
275
    -2
285
     1
 65
     0
276
    -2
286
     1
 66
     0
277
    -2
287
     1
 67
     0
278
    -2
288
     1
 68
     0
279
    -2
289
     1
 69
     0
  0
DICTIONARYVAR
  5
98
102
{ACAD_REACTORS
330
59
102
}
330
59
100
DictionaryVariables
280
     0
  1
STANDARD
  0
DICTIONARYVAR
  5
7B3A
102
{ACAD_REACTORS
330
59
102
}
330
59
100
DictionaryVariables
280
     0
  1
2
  0
ENDSEC
  0
EOF
