  0
SECTION
  2
HEADER
  9
$ACADVER
  1
AC1015
  9
$ACADMAINTVER
 70
     6
  9
$DWGCODEPAGE
  3
ANSI_1252
  9
$INSBASE
 10
0.0
 20
0.0
 30
0.0
  9
$EXTMIN
 10
0.0
 20
0.0
 30
0.0
  9
$EXTMAX
 10
210.0
 20
297.0
 30
0.0
  9
$LIMMIN
 10
0.0
 20
0.0
  9
$LIMMAX
 10
210.0
 20
297.0
  9
$ORTHOMODE
 70
     0
  9
$REGENMODE
 70
     1
  9
$FILLMODE
 70
     1
  9
$QTEXTMODE
 70
     0
  9
$MIRRTEXT
 70
     1
  9
$LTSCALE
 40
1.0
  9
$ATTMODE
 70
     1
  9
$TEXTSIZE
 40
3.5
  9
$TRACEWID
 40
1.0
  9
$TEXTSTYLE
  7
Standard
  9
$CLAYER
  8
0
  9
$CELTYPE
  6
ByLayer
  9
$CECOLOR
 62
   256
  9
$CELTSCALE
 40
1.0
  9
$DISPSILH
 70
     0
  9
$DIMSCALE
 40
1.0
  9
$DIMASZ
 40
2.5
  9
$DIMEXO
 40
1.0
  9
$DIMDLI
 40
3.75
  9
$DIMRND
 40
0.0
  9
$DIMDLE
 40
0.0
  9
$DIMEXE
 40
1.0
  9
$DIMTP
 40
0.0
  9
$DIMTM
 40
0.0
  9
$DIMTXT
 40
3.5
  9
$DIMCEN
 40
2.5
  9
$DIMTSZ
 40
0.0
  9
$DIMTOL
 70
     0
  9
$DIMLIM
 70
     0
  9
$DIMTIH
 70
     1
  9
$DIMTOH
 70
     1
  9
$DIMSE1
 70
     0
  9
$DIMSE2
 70
     0
  9
$DIMTAD
 70
     1
  9
$DIMZIN
 70
     0
  9
$DIMBLK
  1

  9
$DIMASO
 70
     1
  9
$DIMSHO
 70
     1
  9
$DIMPOST
  1

  9
$DIMAPOST
  1

  9
$DIMALT
 70
     0
  9
$DIMALTD
 70
     3
  9
$DIMALTF
 40
0.0393700787
  9
$DIMLFAC
 40
1.0
  9
$DIMTOFL
 70
     1
  9
$DIMTVP
 40
0.0
  9
$DIMTIX
 70
     0
  9
$DIMSOXD
 70
     0
  9
$DIMSAH
 70
     0
  9
$DIMBLK1
  1

  9
$DIMBLK2
  1

  9
$DIMSTYLE
  2
ISO-25
  9
$DIMCLRD
 70
     0
  9
$DIMCLRE
 70
     0
  9
$DIMCLRT
 70
     0
  9
$DIMTFAC
 40
1.0
  9
$DIMGAP
 40
1.524
  9
$DIMJUST
 70
     0
  9
$DIMSD1
 70
     0
  9
$DIMSD2
 70
     0
  9
$DIMTOLJ
 70
     0
  9
$DIMTZIN
 70
     0
  9
$DIMALTZ
 70
     0
  9
$DIMALTTZ
 70
     0
  9
$DIMUPT
 70
     0
  9
$DIMDEC
 70
     4
  9
$DIMTDEC
 70
     2
  9
$DIMALTU
 70
     2
  9
$DIMALTTD
 70
     3
  9
$DIMTXSTY
  7
Standard
  9
$DIMAUNIT
 70
     0
  9
$DIMADEC
 70
     4
  9
$DIMALTRND
 40
0.0
  9
$DIMAZIN
 70
     0
  9
$DIMDSEP
 70
    44
  9
$DIMATFIT
 70
     3
  9
$DIMFRAC
 70
     0
  9
$DIMLDRBLK
  1

  9
$DIMLUNIT
 70
     2
  9
$DIMLWD
 70
    -2
  9
$DIMLWE
 70
    -2
  9
$DIMTMOVE
 70
     0
  9
$LUNITS
 70
     2
  9
$LUPREC
 70
     4
  9
$SKETCHINC
 40
1.0
  9
$FILLETRAD
 40
10.0
  9
$AUNITS
 70
     0
  9
$AUPREC
 70
     4
  9
$MENU
  1
.
  9
$ELEVATION
 40
0.0
  9
$PELEVATION
 40
0.0
  9
$THICKNESS
 40
0.0
  9
$LIMCHECK
 70
     0
  9
$CHAMFERA
 40
10.0
  9
$CHAMFERB
 40
10.0
  9
$CHAMFERC
 40
20.0
  9
$CHAMFERD
 40
0.0
  9
$SKPOLY
 70
     0
  9
$TDCREATE
 40
2455799.598371181
  9
$TDUCREATE
 40
2455799.515037847
  9
$TDUPDATE
 40
2455799.598371192
  9
$TDUUPDATE
 40
2455799.515037859
  9
$TDINDWG
 40
0.0000000116
  9
$TDUSRTIMER
 40
0.0000000116
  9
$USRTIMER
 70
     1
  9
$ANGBASE
 50
0.0
  9
$ANGDIR
 70
     0
  9
$PDMODE
 70
     0
  9
$PDSIZE
 40
-1.0
  9
$PLINEWID
 40
0.0
  9
$SPLFRAME
 70
     0
  9
$SPLINETYPE
 70
     6
  9
$SPLINESEGS
 70
     8
  9
$HANDSEED
  5
2BA
  9
$SURFTAB1
 70
     6
  9
$SURFTAB2
 70
     6
  9
$SURFTYPE
 70
     6
  9
$SURFU
 70
     6
  9
$SURFV
 70
     6
  9
$UCSBASE
  2

  9
$UCSNAME
  2

  9
$UCSORG
 10
0.0
 20
0.0
 30
0.0
  9
$UCSXDIR
 10
1.0
 20
0.0
 30
0.0
  9
$UCSYDIR
 10
0.0
 20
1.0
 30
0.0
  9
$UCSORTHOREF
  2

  9
$UCSORTHOVIEW
 70
     0
  9
$UCSORGTOP
 10
0.0
 20
0.0
 30
0.0
  9
$UCSORGBOTTOM
 10
0.0
 20
0.0
 30
0.0
  9
$UCSORGLEFT
 10
0.0
 20
0.0
 30
0.0
  9
$UCSORGRIGHT
 10
0.0
 20
0.0
 30
0.0
  9
$UCSORGFRONT
 10
0.0
 20
0.0
 30
0.0
  9
$UCSORGBACK
 10
0.0
 20
0.0
 30
0.0
  9
$PUCSBASE
  2

  9
$PUCSNAME
  2

  9
$PUCSORG
 10
0.0
 20
0.0
 30
0.0
  9
$PUCSXDIR
 10
1.0
 20
0.0
 30
0.0
  9
$PUCSYDIR
 10
0.0
 20
1.0
 30
0.0
  9
$PUCSORTHOREF
  2

  9
$PUCSORTHOVIEW
 70
     0
  9
$PUCSORGTOP
 10
0.0
 20
0.0
 30
0.0
  9
$PUCSORGBOTTOM
 10
0.0
 20
0.0
 30
0.0
  9
$PUCSORGLEFT
 10
0.0
 20
0.0
 30
0.0
  9
$PUCSORGRIGHT
 10
0.0
 20
0.0
 30
0.0
  9
$PUCSORGFRONT
 10
0.0
 20
0.0
 30
0.0
  9
$PUCSORGBACK
 10
0.0
 20
0.0
 30
0.0
  9
$USERI1
 70
     0
  9
$USERI2
 70
     0
  9
$USERI3
 70
     0
  9
$USERI4
 70
     0
  9
$USERI5
 70
     0
  9
$USERR1
 40
0.0
  9
$USERR2
 40
0.0
  9
$USERR3
 40
0.0
  9
$USERR4
 40
0.0
  9
$USERR5
 40
0.0
  9
$WORLDVIEW
 70
     1
  9
$SHADEDGE
 70
     3
  9
$SHADEDIF
 70
    70
  9
$TILEMODE
 70
     1
  9
$MAXACTVP
 70
    64
  9
$PINSBASE
 10
0.0
 20
0.0
 30
0.0
  9
$PLIMCHECK
 70
     0
  9
$PEXTMIN
 10
1.0000000000E+20
 20
1.0000000000E+20
 30
1.0000000000E+20
  9
$PEXTMAX
 10
-1.0000000000E+20
 20
-1.0000000000E+20
 30
-1.0000000000E+20
  9
$PLIMMIN
 10
0.0
 20
0.0
  9
$PLIMMAX
 10
420.0
 20
297.0
  9
$UNITMODE
 70
     0
  9
$VISRETAIN
 70
     1
  9
$PLINEGEN
 70
     0
  9
$PSLTSCALE
 70
     1
  9
$TREEDEPTH
 70
  3020
  9
$CMLSTYLE
  2
Standard
  9
$CMLJUST
 70
     0
  9
$CMLSCALE
 40
20.0
  9
$PROXYGRAPHICS
 70
     1
  9
$MEASUREMENT
 70
     1
  9
$CELWEIGHT
370
    -1
  9
$ENDCAPS
280
     0
  9
$JOINSTYLE
280
     0
  9
$LWDISPLAY
290
     1
  9
$INSUNITS
 70
     4
  9
$HYPERLINKBASE
  1

  9
$STYLESHEET
  1

  9
$XEDIT
290
     1
  9
$CEPSNTYPE
380
     0
  9
$PSTYLEMODE
290
     1
  9
$FINGERPRINTGUID
  2
{4D28673F-A9A7-47E6-B529-462C177ED197}
  9
$VERSIONGUID
  2
{FAEB1C32-E019-11D5-929B-00C0DF256EC4}
  9
$EXTNAMES
290
     1
  9
$PSVPSCALE
 40
0.0
  9
$OLESTARTUP
290
     0
  0
ENDSEC
  0
SECTION
  2
CLASSES
  0
CLASS
  1
ACDBDICTIONARYWDFLT
  2
AcDbDictionaryWithDefault
  3
ObjectDBX Classes
 90
        0
280
     0
281
     0
  0
CLASS
  1
VISUALSTYLE
  2
AcDbVisualStyle
  3
ObjectDBX Classes
 90
     4095
280
     0
281
     0
  0
CLASS
  1
MATERIAL
  2
AcDbMaterial
  3
ObjectDBX Classes
 90
     1153
280
     0
281
     0
  0
CLASS
  1
SCALE
  2
AcDbScale
  3
ObjectDBX Classes
 90
     1153
280
     0
281
     0
  0
CLASS
  1
IMAGEDEF
  2
AcDbRasterImageDef
  3
ISM
 90
        0
280
     0
281
     0
  0
CLASS
  1
IMAGE
  2
AcDbRasterImage
  3
ISM
 90
      127
280
     0
281
     1
  0
CLASS
  1
IMAGEDEF_REACTOR
  2
AcDbRasterImageDefReactor
  3
ISM
 90
        1
280
     0
281
     0
  0
CLASS
  1
DICTIONARYVAR
  2
AcDbDictionaryVar
  3
ObjectDBX Classes
 90
        0
280
     0
281
     0
  0
CLASS
  1
ACDBPLACEHOLDER
  2
AcDbPlaceHolder
  3
ObjectDBX Classes
 90
        0
280
     0
281
     0
  0
CLASS
  1
LAYOUT
  2
AcDbLayout
  3
ObjectDBX Classes
 90
        0
280
     0
281
     0
  0
ENDSEC
  0
SECTION
  2
TABLES
  0
TABLE
  2
VPORT
  5
8
330
0
100
AcDbSymbolTable
 70
     1
  0
VPORT
  5
29
330
8
100
AcDbSymbolTableRecord
100
AcDbViewportTableRecord
  2
*Active
 70
     0
 10
0.0
 20
0.0
 11
1.0
 21
1.0
 12
105.0
 22
148.5
 13
0.0
 23
0.0
 14
10.0
 24
10.0
 15
10.0
 25
10.0
 16
0.0
 26
0.0
 36
1.0
 17
0.0
 27
0.0
 37
0.0
 40
297.0
 41
0.7070707071
 42
50.0
 43
0.0
 44
0.0
 50
0.0
 51
0.0
 71
     0
 72
  2000
 73
     1
 74
     3
 75
     0
 76
     0
 77
     0
 78
     0
281
     0
 65
     1
110
0.0
120
0.0
130
0.0
111
1.0
121
0.0
131
0.0
112
0.0
122
1.0
132
0.0
 79
     0
146
0.0
  0
ENDTAB
  0
TABLE
  2
LTYPE
  5
5
330
0
100
AcDbSymbolTable
 70
     6
  0
LTYPE
  5
14
330
5
100
AcDbSymbolTableRecord
100
AcDbLinetypeTableRecord
  2
ByBlock
 70
     0
  3

 72
    65
 73
     0
 40
0.0
  0
LTYPE
  5
15
330
5
100
AcDbSymbolTableRecord
100
AcDbLinetypeTableRecord
  2
ByLayer
 70
     0
  3

 72
    65
 73
     0
 40
0.0
  0
LTYPE
  5
16
330
5
100
AcDbSymbolTableRecord
100
AcDbLinetypeTableRecord
  2
Continuous
 70
     0
  3
Solid line
 72
    65
 73
     0
 40
0.0
  0
LTYPE
  5
3F
330
5
100
AcDbSymbolTableRecord
100
AcDbLinetypeTableRecord
  2
HIDDEN
 70
     0
  3
Hidden __ __ __ __ __ __ __ __ __ __ __ __ __ __
 72
    65
 73
     2
 40
1.905
 49
1.27
 74
     0
 49
-0.635
 74
     0
  0
LTYPE
  5
40
330
5
100
AcDbSymbolTableRecord
100
AcDbLinetypeTableRecord
  2
PHANTOM
 70
     0
  3
Phantom ______  __  __  ______  __  __  ______
 72
    65
 73
     6
 40
12.7
 49
6.35
 74
     0
 49
-1.27
 74
     0
 49
1.27
 74
     0
 49
-1.27
 74
     0
 49
1.27
 74
     0
 49
-1.27
 74
     0
  0
LTYPE
  5
41
330
5
100
AcDbSymbolTableRecord
100
AcDbLinetypeTableRecord
  2
CENTER
 70
     0
  3
Center ____ _ ____ _ ____ _ ____ _ ____ _ ____
 72
    65
 73
     4
 40
10.16
 49
6.35
 74
     0
 49
-1.27
 74
     0
 49
1.27
 74
     0
 49
-1.27
 74
     0
  0
LTYPE
  5
42
330
5
100
AcDbSymbolTableRecord
100
AcDbLinetypeTableRecord
  2
CENTERX2
 70
     0
  3
Center (2x) ________  __  ________  __  _____
 72
    65
 73
     4
 40
20.32
 49
12.7
 74
     0
 49
-2.54
 74
     0
 49
2.54
 74
     0
 49
-2.54
 74
     0
  0
LTYPE
  5
43
330
5
100
AcDbSymbolTableRecord
100
AcDbLinetypeTableRecord
  2
DOT2
 70
     0
  3
Dot (.5x) ........................................
 72
    65
 73
     2
 40
0.635
 49
0.0
 74
     0
 49
-0.635
 74
     0
  0
ENDTAB
  0
TABLE
  2
LAYER
  5
2
330
0
100
AcDbSymbolTable
 70
     1
  0
LAYER
  5
10
330
2
100
AcDbSymbolTableRecord
100
AcDbLayerTableRecord
  2
0
 70
     0
 62
     7
  6
Continuous
370
    -3
390
F
  0
ENDTAB
  0
TABLE
  2
STYLE
  5
3
330
0
100
AcDbSymbolTable
 70
     3
  0
STYLE
  5
11
330
3
100
AcDbSymbolTableRecord
100
AcDbTextStyleTableRecord
  2
Standard
 70
     0
 40
0.0
 41
1.0
 50
0.0
 71
     0
 42
2.5
  3
txt
  4

  0
STYLE
  5
47
330
3
100
AcDbSymbolTableRecord
100
AcDbTextStyleTableRecord
  2
SLDTEXTSTYLE0
 70
     0
 40
0.0
 41
0.605
 50
0.0
 71
     0
 42
0.2
  3
TXT
  4

  0
STYLE
  5
7C
330
3
100
AcDbSymbolTableRecord
100
AcDbTextStyleTableRecord
  2
SLDTEXTSTYLE1
 70
     0
 40
0.0
 41
0.75
 50
0.0
 71
     0
 42
0.2
  3
TXT
  4

  0
ENDTAB
  0
TABLE
  2
VIEW
  5
6
330
0
100
AcDbSymbolTable
 70
     0
  0
ENDTAB
  0
TABLE
  2
UCS
  5
7
330
0
100
AcDbSymbolTable
 70
     0
  0
ENDTAB
  0
TABLE
  2
APPID
  5
9
330
0
100
AcDbSymbolTable
 70
     1
  0
APPID
  5
12
330
9
100
AcDbSymbolTableRecord
100
AcDbRegAppTableRecord
  2
ACAD
 70
     0
  0
ENDTAB
  0
TABLE
  2
DIMSTYLE
  5
A
330
0
100
AcDbSymbolTable
 70
     4
100
AcDbDimStyleTable
  0
DIMSTYLE
105
27
330
A
100
AcDbSymbolTableRecord
100
AcDbDimStyleTableRecord
  2
ISO-25
 70
     0
 41
2.5
 42
0.625
 43
3.75
 44
1.25
 73
     0
 74
     0
 77
     1
 78
     8
140
2.5
141
2.5
143
0.0393700787
147
0.625
171
     3
172
     1
271
     2
272
     2
274
     3
278
    44
283
     0
284
     8
340
11
  0
DIMSTYLE
105
103
102
{ACAD_REACTORS
330
102
330
10D
330
117
330
122
330
12C
330
136
330
140
102
}
330
A
100
AcDbSymbolTableRecord
100
AcDbDimStyleTableRecord
  2
SLDDIMSTYLE0
 70
     0
 41
2.5
 44
0.0
 45
0.000000001
 73
     0
 74
     0
 77
     1
 78
    12
140
3.5
147
0.875
173
     1
272
     2
276
     2
284
    12
340
47
  0
DIMSTYLE
105
298
330
A
100
AcDbSymbolTableRecord
100
AcDbDimStyleTableRecord
  2
SLDDIMSTYLE1
 70
     0
 41
2.5
 44
0.0
 45
0.000000001
140
0.0
146
2.5
147
0.0
173
     1
271
     0
272
     0
276
     2
340
11
  0
DIMSTYLE
105
2A0
330
A
100
AcDbSymbolTableRecord
100
AcDbDimStyleTableRecord
  2
SLDDIMSTYLE2
 70
     0
 41
0.65
 44
0.0
 45
0.000000001
140
0.0
146
0.65
147
0.0
173
     1
271
     0
272
     0
276
     2
340
11
341
2A1
343
2A1
344
2A1
  0
ENDTAB
  0
TABLE
  2
BLOCK_RECORD
  5
1
330
0
100
AcDbSymbolTable
 70
    16
  0
BLOCK_RECORD
  5
1F
330
1
100
AcDbSymbolTableRecord
100
AcDbBlockTableRecord
  2
*Model_Space
340
22
  0
BLOCK_RECORD
  5
1B
330
1
100
AcDbSymbolTableRecord
100
AcDbBlockTableRecord
  2
*Paper_Space
340
1E
  0
BLOCK_RECORD
  5
23
330
1
100
AcDbSymbolTableRecord
100
AcDbBlockTableRecord
  2
*Paper_Space0
340
26
  0
BLOCK_RECORD
  5
44
330
1
100
AcDbSymbolTableRecord
100
AcDbBlockTableRecord
  2
tegningshovd
340
0
102
{BLKREFS
331
92
102
}
  0
BLOCK_RECORD
  5
73
330
1
100
AcDbSymbolTableRecord
100
AcDbBlockTableRecord
  2
SW_NOTE_0
340
0
102
{BLKREFS
331
78
102
}
  0
BLOCK_RECORD
  5
A2
330
1
100
AcDbSymbolTableRecord
100
AcDbBlockTableRecord
  2
SW_TABLEANNOTATION_0
340
0
102
{BLKREFS
331
CC
102
}
  0
BLOCK_RECORD
  5
104
330
1
100
AcDbSymbolTableRecord
100
AcDbBlockTableRecord
  2
*D4
340
0
  0
BLOCK_RECORD
  5
10E
330
1
100
AcDbSymbolTableRecord
100
AcDbBlockTableRecord
  2
*D5
340
0
  0
BLOCK_RECORD
  5
118
330
1
100
AcDbSymbolTableRecord
100
AcDbBlockTableRecord
  2
*D6
340
0
  0
BLOCK_RECORD
  5
123
330
1
100
AcDbSymbolTableRecord
100
AcDbBlockTableRecord
  2
*D7
340
0
  0
BLOCK_RECORD
  5
12D
330
1
100
AcDbSymbolTableRecord
100
AcDbBlockTableRecord
  2
*D8
340
0
  0
BLOCK_RECORD
  5
137
330
1
100
AcDbSymbolTableRecord
100
AcDbBlockTableRecord
  2
*D9
340
0
  0
BLOCK_RECORD
  5
141
330
1
100
AcDbSymbolTableRecord
100
AcDbBlockTableRecord
  2
*D10
340
0
  0
BLOCK_RECORD
  5
292
330
1
100
AcDbSymbolTableRecord
100
AcDbBlockTableRecord
  2
SW_NOTE_1
340
0
102
{BLKREFS
331
297
102
}
  0
BLOCK_RECORD
  5
29A
330
1
100
AcDbSymbolTableRecord
100
AcDbBlockTableRecord
  2
SW_NOTE_2
340
0
102
{BLKREFS
331
29F
102
}
  0
BLOCK_RECORD
  5
2A1
330
1
100
AcDbSymbolTableRecord
100
AcDbBlockTableRecord
  2
_DOT
340
0
  0
BLOCK_RECORD
  5
2AA
330
1
100
AcDbSymbolTableRecord
100
AcDbBlockTableRecord
  2
SW_NOTE_3
340
0
102
{BLKREFS
331
2AF
102
}
  0
BLOCK_RECORD
  5
2B1
330
1
100
AcDbSymbolTableRecord
100
AcDbBlockTableRecord
  2
SW_NOTE_4
340
0
102
{BLKREFS
331
2B6
102
}
  0
ENDTAB
  0
ENDSEC
  0
SECTION
  2
BLOCKS
  0
BLOCK
  5
20
330
1F
100
AcDbEntity
  8
0
100
AcDbBlockBegin
  2
*Model_Space
 70
     0
 10
0.0
 20
0.0
 30
0.0
  3
*Model_Space
  1

  0
ENDBLK
  5
21
330
1F
100
AcDbEntity
  8
0
100
AcDbBlockEnd
  0
BLOCK
  5
1C
330
1B
100
AcDbEntity
 67
     1
  8
0
100
AcDbBlockBegin
  2
*Paper_Space
 70
     0
 10
0.0
 20
0.0
 30
0.0
  3
*Paper_Space
  1

  0
ENDBLK
  5
1D
330
1B
100
AcDbEntity
 67
     1
  8
0
100
AcDbBlockEnd
  0
BLOCK
  5
24
330
23
100
AcDbEntity
  8
0
100
AcDbBlockBegin
  2
*Paper_Space0
 70
     0
 10
0.0
 20
0.0
 30
0.0
  3
*Paper_Space0
  1

  0
ENDBLK
  5
25
330
23
100
AcDbEntity
  8
0
100
AcDbBlockEnd
  0
BLOCK
  5
45
330
44
100
AcDbEntity
  8
0
100
AcDbBlockBegin
  2
tegningshovd
 70
     2
 10
0.0
 20
0.0
 30
0.0
  3
tegningshovd
  1

  0
MTEXT
  5
6A
330
44
100
AcDbEntity
  8
0
  6
Continuous
 62
     7
370
     0
100
AcDbMText
 10
2.5894912534
 20
20.3876192813
 30
0.0
 40
1.5875
 41
0.0
 71
     1
 72
     1
  1
category:
  7
SLDTEXTSTYLE0
 73
     1
 44
1.0
  0
MTEXT
  5
6B
330
44
100
AcDbEntity
  8
0
  6
Continuous
 62
     7
370
     0
100
AcDbMText
 10
49.7673983699
 20
8.9982843649
 30
0.0
 40
1.5875
 41
0.0
 71
     1
 72
     1
  1
Appr. date:
  7
SLDTEXTSTYLE0
 73
     1
 44
1.0
  0
MTEXT
  5
6C
330
44
100
AcDbEntity
  8
0
  6
Continuous
 62
     7
370
     0
100
AcDbMText
 10
49.852625747
 20
14.8626402695
 30
0.0
 40
1.5875
 41
0.0
 71
     1
 72
     1
  1
Date:
  7
SLDTEXTSTYLE0
 73
     1
 44
1.0
  0
MTEXT
  5
6D
330
44
100
AcDbEntity
  8
0
  6
Continuous
 62
     7
370
     0
100
AcDbMText
 10
2.673447253
 20
8.9368704104
 30
0.0
 40
1.5875
 41
0.0
 71
     1
 72
     1
  1
Approved by:
  7
SLDTEXTSTYLE0
 73
     1
 44
1.0
  0
MTEXT
  5
6E
330
44
100
AcDbEntity
  8
0
  6
Continuous
 62
     7
370
     0
100
AcDbMText
 10
159.8669736768
 20
36.2423325143
 30
0.0
 40
1.5875
 41
0.0
 71
     1
 72
     1
  1
Status:
  7
SLDTEXTSTYLE0
 73
     1
 44
1.0
  0
MTEXT
  5
6F
330
44
100
AcDbEntity
  8
0
  6
Continuous
 62
     7
370
     0
100
AcDbMText
 10
94.3569115953
 20
25.6806220053
 30
0.0
 40
1.5875
 41
0.0
 71
     1
 72
     1
  1
Material:
  7
SLDTEXTSTYLE0
 73
     1
 44
1.0
  0
MTEXT
  5
70
330
44
100
AcDbEntity
  8
0
  6
Continuous
 62
     7
370
     0
100
AcDbMText
 10
2.5897518339
 20
36.6139828266
 30
0.0
 40
1.5875
 41
0.0
 71
     1
 72
     1
  1
Subject:
  7
SLDTEXTSTYLE0
 73
     1
 44
1.0
  0
MTEXT
  5
71
330
44
100
AcDbEntity
  8
0
  6
Continuous
 62
     7
370
     0
100
AcDbMText
 10
2.5808851503
 20
14.8626402695
 30
0.0
 40
1.5875
 41
0.0
 71
     1
 72
     1
  1
Sign.:
  7
SLDTEXTSTYLE0
 73
     1
 44
1.0
  0
MTEXT
  5
72
330
44
100
AcDbEntity
  8
0
  6
Continuous
 62
     7
370
     0
100
AcDbMText
 10
94.3498398416
 20
14.9111303223
 30
0.0
 40
1.5875
 41
0.0
 71
     1
 72
     1
  1
Drawing no.:
  7
SLDTEXTSTYLE0
 73
     1
 44
1.0
  0
INSERT
  5
78
330
44
100
AcDbEntity
  8
0
  6
Continuous
 62
     7
370
     0
100
AcDbBlockReference
  2
SW_NOTE_0
 10
2.4976736831
 20
2.5965046327
 30
0.0
  0
MTEXT
  5
79
330
44
100
AcDbEntity
  8
0
  6
Continuous
 62
     7
370
     0
100
AcDbMText
 10
94.3569115953
 20
36.643292524
 30
0.0
 40
1.5875
 41
0.0
 71
     1
 72
     1
  1
Latest release.:
  7
SLDTEXTSTYLE0
 73
     1
 44
1.0
  0
ATTDEF
  5
7A
330
44
100
AcDbEntity
  8
0
  6
Continuous
 62
     7
370
     0
100
AcDbText
 10
0.0
 20
0.0
 30
0.0
 40
1.0
  1

100
AcDbAttributeDefinition
  3

  2
AUTOATTR0
 70
     0
  0
ATTDEF
  5
7B
330
44
100
AcDbEntity
  8
0
  6
Continuous
 62
     7
370
     0
100
AcDbText
 10
0.0
 20
0.0
 30
0.0
 40
1.0
  1

100
AcDbAttributeDefinition
  3

  2
AUTOATTR1
 70
     0
  0
ATTDEF
  5
7D
330
44
100
AcDbEntity
  8
0
  6
Continuous
 62
     7
370
     0
100
AcDbText
 10
105.5954816055
 20
23.2565239864
 30
0.0
 40
3.175
  1
Stainless Steel
 41
0.75
  7
SLDTEXTSTYLE1
 11
105.5954816055
 21
22.1349232898
 31
0.0
100
AcDbAttributeDefinition
  3

  2
AUTOATTR2
 70
     0
 74
     1
  0
ATTDEF
  5
7E
330
44
100
AcDbEntity
  8
0
  6
Continuous
 62
     7
370
     0
100
AcDbText
 10
105.5954816055
 20
17.3783850536
 30
0.0
 40
3.175
  1
Brushed
 41
0.75
  7
SLDTEXTSTYLE1
 11
105.5954816055
 21
16.256784357
 31
0.0
100
AcDbAttributeDefinition
  3

  2
AUTOATTR3
 70
     0
 74
     1
  0
ATTDEF
  5
7F
330
44
100
AcDbEntity
  8
0
  6
Continuous
 62
     7
370
     0
100
AcDbText
 10
159.8669736768
 20
29.5422866706
 30
0.0
 40
3.175
  1
Cat 5
 41
0.75
  7
SLDTEXTSTYLE1
 11
159.8669736768
 21
28.420685974
 31
0.0
100
AcDbAttributeDefinition
  3

  2
AUTOATTR4
 70
     0
 74
     1
  0
ATTDEF
  5
80
330
44
100
AcDbEntity
  8
0
  6
Continuous
 62
     7
370
     0
100
AcDbText
 10
0.0
 20
0.0
 30
0.0
 40
1.0
  1

100
AcDbAttributeDefinition
  3

  2
AUTOATTR5
 70
     0
  0
ATTDEF
  5
81
330
44
100
AcDbEntity
  8
0
  6
Continuous
 62
     7
370
     0
100
AcDbText
 10
19.9606883202
 20
17.3783850536
 30
0.0
 40
3.175
  1
Bathroom Fittings
 41
0.75
  7
SLDTEXTSTYLE1
 11
19.9606883202
 21
16.256784357
 31
0.0
100
AcDbAttributeDefinition
  3

  2
AUTOATTR6
 70
     0
 74
     1
  0
ATTDEF
  5
82
330
44
100
AcDbEntity
  8
0
  6
Continuous
 62
     7
370
     0
100
AcDbText
 10
0.0
 20
0.0
 30
0.0
 40
1.0
  1

100
AcDbAttributeDefinition
  3

  2
AUTOATTR7
 70
     0
  0
ATTDEF
  5
83
330
44
100
AcDbEntity
  8
0
  6
Continuous
 62
     7
370
     0
100
AcDbText
 10
0.0
 20
0.0
 30
0.0
 40
1.0
  1

100
AcDbAttributeDefinition
  3

  2
AUTOATTR8
 70
     0
  0
ATTDEF
  5
84
330
44
100
AcDbEntity
  8
0
  6
Continuous
 62
     7
370
     0
100
AcDbText
 10
104.9926365029
 20
4.1188582658
 30
0.0
 40
4.4979166667
  1
14.7056.02.243
 41
0.75
  7
SLDTEXTSTYLE1
 11
104.9926365029
 21
2.5299239456
 31
0.0
100
AcDbAttributeDefinition
  3

  2
AUTOATTR9
 70
     0
 74
     1
  0
ATTDEF
  5
85
330
44
100
AcDbEntity
  8
0
  6
Continuous
 62
     7
370
     0
100
AcDbText
 10
2.2354521863
 20
23.5325028214
 30
0.0
 40
4.2333333333
  1
brushed bracket
 41
0.75
  7
SLDTEXTSTYLE1
 11
2.2354521863
 21
22.0370352259
 31
0.0
100
AcDbAttributeDefinition
  3

  2
AUTOATTR10
 70
     0
 74
     1
  0
ATTDEF
  5
86
330
44
100
AcDbEntity
  8
0
  6
Continuous
 62
     7
370
     0
100
AcDbText
 10
67.3805191936
 20
13.4081689964
 30
0.0
 40
2.1166666667
  1
25/08-2011
 41
0.75
  7
SLDTEXTSTYLE1
 11
67.3805191936
 21
12.6604351987
 31
0.0
100
AcDbAttributeDefinition
  3

  2
AUTOATTR11
 70
     0
 74
     1
  0
ATTDEF
  5
87
330
44
100
AcDbEntity
  8
0
  6
Continuous
 62
     7
370
     0
100
AcDbText
 10
19.9606883202
 20
13.4081689964
 30
0.0
 40
2.1166666667
  1
tgr
 41
0.75
  7
SLDTEXTSTYLE1
 11
19.9606883202
 21
12.6604351987
 31
0.0
100
AcDbAttributeDefinition
  3

  2
AUTOATTR12
 70
     0
 74
     1
  0
ATTDEF
  5
88
330
44
100
AcDbEntity
  8
0
  6
Continuous
 62
     7
370
     0
100
AcDbText
 10
2.328914132
 20
29.9104538356
 30
0.0
 40
4.2333333333
  1
Toilet roll holder.
 41
0.605
  7
SLDTEXTSTYLE0
 11
2.328914132
 21
28.4149862402
 31
0.0
100
AcDbAttributeDefinition
  3

  2
AUTOATTR13
 70
     0
 74
     1
  0
ENDBLK
  5
46
330
44
100
AcDbEntity
  8
0
100
AcDbBlockEnd
  0
BLOCK
  5
74
330
73
100
AcDbEntity
  8
0
100
AcDbBlockBegin
  2
SW_NOTE_0
 70
     0
 10
0.0
 20
0.0
 30
0.0
  3
SW_NOTE_0
  1

  0
MTEXT
  5
76
330
73
100
AcDbEntity
  8
0
  6
Continuous
 62
     0
370
     0
100
AcDbMText
 10
0.0
 20
2.0463950369
 30
0.0
 40
1.5875
 41
0.0
 71
     1
 72
     1
  1
Dimension without tolerance, follows DS/ISO 2768-mK.
  7
SLDTEXTSTYLE0
 73
     1
 44
1.0
  0
MTEXT
  5
77
330
73
100
AcDbEntity
  8
0
  6
Continuous
 62
     0
370
     0
100
AcDbMText
 10
0.0
 20
-0.0702716042
 30
0.0
 40
1.5875
 41
0.0
 71
     1
 72
     1
  1
This drawing is the property of d line a/s, and is not to be copied or shown to third parties.
  7
SLDTEXTSTYLE0
 73
     1
 44
1.0
  0
ENDBLK
  5
75
330
73
100
AcDbEntity
  8
0
100
AcDbBlockEnd
  0
BLOCK
  5
A3
330
A2
100
AcDbEntity
  8
0
100
AcDbBlockBegin
  2
SW_TABLEANNOTATION_0
 70
     0
 10
0.0
 20
0.0
 30
0.0
  3
SW_TABLEANNOTATION_0
  1

  0
LINE
  5
A5
330
A2
100
AcDbEntity
  8
0
  6
Continuous
 62
     0
370
     0
100
AcDbLine
 10
0.0
 20
0.0
 30
0.0
 11
0.0
 21
-18.2
 31
0.0
  0
LINE
  5
A6
330
A2
100
AcDbEntity
  8
0
  6
Continuous
 62
     0
370
     0
100
AcDbLine
 10
0.0
 20
-18.2
 30
0.0
 11
187.2
 21
-18.2
 31
0.0
  0
LINE
  5
A7
330
A2
100
AcDbEntity
  8
0
  6
Continuous
 62
     0
370
     0
100
AcDbLine
 10
187.2
 20
-18.2
 30
0.0
 11
187.2
 21
0.0
 31
0.0
  0
LINE
  5
A8
330
A2
100
AcDbEntity
  8
0
  6
Continuous
 62
     0
370
     0
100
AcDbLine
 10
187.2
 20
0.0
 30
0.0
 11
0.0
 21
0.0
 31
0.0
  0
LINE
  5
A9
330
A2
100
AcDbEntity
  8
0
  6
Continuous
 62
     0
370
     0
100
AcDbLine
 10
12.0
 20
0.0
 30
0.0
 11
12.0
 21
-5.0
 31
0.0
  0
LINE
  5
AA
330
A2
100
AcDbEntity
  8
0
  6
Continuous
 62
     0
370
     0
100
AcDbLine
 10
37.0
 20
0.0
 30
0.0
 11
37.0
 21
-5.0
 31
0.0
  0
LINE
  5
AB
330
A2
100
AcDbEntity
  8
0
  6
Continuous
 62
     0
370
     0
100
AcDbLine
 10
107.0
 20
0.0
 30
0.0
 11
107.0
 21
-5.0
 31
0.0
  0
LINE
  5
AC
330
A2
100
AcDbEntity
  8
0
  6
Continuous
 62
     0
370
     0
100
AcDbLine
 10
177.0
 20
0.0
 30
0.0
 11
177.0
 21
-5.0
 31
0.0
  0
LINE
  5
AD
330
A2
100
AcDbEntity
  8
0
  6
Continuous
 62
     0
370
     0
100
AcDbLine
 10
12.0
 20
-5.0
 30
0.0
 11
12.0
 21
-18.2
 31
0.0
  0
LINE
  5
AE
330
A2
100
AcDbEntity
  8
0
  6
Continuous
 62
     0
370
     0
100
AcDbLine
 10
37.0
 20
-5.0
 30
0.0
 11
37.0
 21
-18.2
 31
0.0
  0
LINE
  5
AF
330
A2
100
AcDbEntity
  8
0
  6
Continuous
 62
     0
370
     0
100
AcDbLine
 10
107.0
 20
-5.0
 30
0.0
 11
107.0
 21
-18.2
 31
0.0
  0
LINE
  5
B0
330
A2
100
AcDbEntity
  8
0
  6
Continuous
 62
     0
370
     0
100
AcDbLine
 10
177.0
 20
-5.0
 30
0.0
 11
177.0
 21
-18.2
 31
0.0
  0
LINE
  5
B1
330
A2
100
AcDbEntity
  8
0
  6
Continuous
 62
     0
370
     0
100
AcDbLine
 10
0.0
 20
-8.3
 30
0.0
 11
187.2
 21
-8.3
 31
0.0
  0
LINE
  5
B2
330
A2
100
AcDbEntity
  8
0
  6
Continuous
 62
     0
370
     0
100
AcDbLine
 10
0.0
 20
-11.6
 30
0.0
 11
187.2
 21
-11.6
 31
0.0
  0
LINE
  5
B3
330
A2
100
AcDbEntity
  8
0
  6
Continuous
 62
     0
370
     0
100
AcDbLine
 10
0.0
 20
-14.9
 30
0.0
 11
187.2
 21
-14.9
 31
0.0
  0
LINE
  5
B4
330
A2
100
AcDbEntity
  8
0
  6
Continuous
 62
     0
370
     0
100
AcDbLine
 10
0.0
 20
-5.0
 30
0.0
 11
187.2
 21
-5.0
 31
0.0
  0
MTEXT
  5
B5
330
A2
100
AcDbEntity
  8
0
  6
Continuous
 62
     0
370
     0
100
AcDbMText
 10
1.1124992222
 20
-1.4218644753
 30
0.0
 40
2.0
 41
0.0
 71
     1
 72
     1
  1
Pos No.
  7
SLDTEXTSTYLE0
 73
     1
 44
1.0
  0
MTEXT
  5
B6
330
A2
100
AcDbEntity
  8
0
  6
Continuous
 62
     0
370
     0
100
AcDbMText
 10
16.7138885595
 20
-1.4218644753
 30
0.0
 40
2.0
 41
0.0
 71
     1
 72
     1
  1
Part Number
  7
SLDTEXTSTYLE0
 73
     1
 44
1.0
  0
MTEXT
  5
B7
330
A2
100
AcDbEntity
  8
0
  6
Continuous
 62
     0
370
     0
100
AcDbMText
 10
65.1277772412
 20
-1.4218644753
 30
0.0
 40
2.0
 41
0.0
 71
     1
 72
     1
  1
Description
  7
SLDTEXTSTYLE0
 73
     1
 44
1.0
  0
MTEXT
  5
B8
330
A2
100
AcDbEntity
  8
0
  6
Continuous
 62
     0
370
     0
100
AcDbMText
 10
178.894444276
 20
-1.4218644753
 30
0.0
 40
2.0
 41
0.0
 71
     1
 72
     1
  1
QTY.
  7
SLDTEXTSTYLE0
 73
     1
 44
1.0
  0
MTEXT
  5
B9
330
A2
100
AcDbEntity
  8
0
  6
Continuous
 62
     0
370
     0
100
AcDbMText
 10
5.2361110635
 20
-5.8247877821
 30
0.0
 40
2.0
 41
0.0
 71
     1
 72
     1
  1
1
  7
SLDTEXTSTYLE0
 73
     1
 44
1.0
  0
MTEXT
  5
BA
330
A2
100
AcDbEntity
  8
0
  6
Continuous
 62
     0
370
     0
100
AcDbMText
 10
20.0708328635
 20
-5.8247877821
 30
0.0
 40
2.0
 41
0.0
 71
     1
 72
     1
  1
D 5087
  7
SLDTEXTSTYLE0
 73
     1
 44
1.0
  0
MTEXT
  5
BB
330
A2
100
AcDbEntity
  8
0
  6
Continuous
 62
     0
370
     0
100
AcDbMText
 10
37.5
 20
-5.8247877821
 30
0.0
 40
2.0
 41
0.0
 71
     1
 72
     1
  1
Bracket for toilet roll holder
  7
SLDTEXTSTYLE0
 73
     1
 44
1.0
  0
MTEXT
  5
BC
330
A2
100
AcDbEntity
  8
0
  6
Continuous
 62
     0
370
     0
100
AcDbMText
 10
107.5
 20
-5.8247877821
 30
0.0
 40
2.0
 41
0.0
 71
     1
 72
     1
  1
Brushed bracket
  7
SLDTEXTSTYLE0
 73
     1
 44
1.0
  0
MTEXT
  5
BD
330
A2
100
AcDbEntity
  8
0
  6
Continuous
 62
     0
370
     0
100
AcDbMText
 10
181.3361110635
 20
-5.8247877821
 30
0.0
 40
2.0
 41
0.0
 71
     1
 72
     1
  1
1
  7
SLDTEXTSTYLE0
 73
     1
 44
1.0
  0
MTEXT
  5
BE
330
A2
100
AcDbEntity
  8
0
  6
Continuous
 62
     0
370
     0
100
AcDbMText
 10
5.2361110635
 20
-8.8718644753
 30
0.0
 40
2.0
 41
0.0
 71
     1
 72
     1
  1
2
  7
SLDTEXTSTYLE0
 73
     1
 44
1.0
  0
MTEXT
  5
BF
330
A2
100
AcDbEntity
  8
0
  6
Continuous
 62
     0
370
     0
100
AcDbMText
 10
20.0708328635
 20
-8.8718644753
 30
0.0
 40
2.0
 41
0.0
 71
     1
 72
     1
  1
D 4933
  7
SLDTEXTSTYLE0
 73
     1
 44
1.0
  0
MTEXT
  5
C0
330
A2
100
AcDbEntity
  8
0
  6
Continuous
 62
     0
370
     0
100
AcDbMText
 10
37.5
 20
-8.8718644753
 30
0.0
 40
2.0
 41
0.0
 71
     1
 72
     1
  1
Hanger with pin
  7
SLDTEXTSTYLE0
 73
     1
 44
1.0
  0
MTEXT
  5
C1
330
A2
100
AcDbEntity
  8
0
  6
Continuous
 62
     0
370
     0
100
AcDbMText
 10
107.5
 20
-8.8718644753
 30
0.0
 40
2.0
 41
0.0
 71
     1
 72
     1
  1
Toilet roll holder
  7
SLDTEXTSTYLE0
 73
     1
 44
1.0
  0
MTEXT
  5
C2
330
A2
100
AcDbEntity
  8
0
  6
Continuous
 62
     0
370
     0
100
AcDbMText
 10
181.3361110635
 20
-8.8718644753
 30
0.0
 40
2.0
 41
0.0
 71
     1
 72
     1
  1
1
  7
SLDTEXTSTYLE0
 73
     1
 44
1.0
  0
MTEXT
  5
C3
330
A2
100
AcDbEntity
  8
0
  6
Continuous
 62
     0
370
     0
100
AcDbMText
 10
5.2361110635
 20
-12.1718644753
 30
0.0
 40
2.0
 41
0.0
 71
     1
 72
     1
  1
3
  7
SLDTEXTSTYLE0
 73
     1
 44
1.0
  0
MTEXT
  5
C4
330
A2
100
AcDbEntity
  8
0
  6
Continuous
 62
     0
370
     0
100
AcDbMText
 10
20.8347220328
 20
-12.1718644753
 30
0.0
 40
2.0
 41
0.0
 71
     1
 72
     1
  1
D 317
  7
SLDTEXTSTYLE0
 73
     1
 44
1.0
  0
MTEXT
  5
C5
330
A2
100
AcDbEntity
  8
0
  6
Continuous
 62
     0
370
     0
100
AcDbMText
 10
37.5
 20
-12.1718644753
 30
0.0
 40
2.0
 41
0.0
 71
     1
 72
     1
  1
Plug  lock
  7
SLDTEXTSTYLE0
 73
     1
 44
1.0
  0
MTEXT
  5
C6
330
A2
100
AcDbEntity
  8
0
  6
Continuous
 62
     0
370
     0
100
AcDbMText
 10
181.3361110635
 20
-12.1718644753
 30
0.0
 40
2.0
 41
0.0
 71
     1
 72
     1
  1
1
  7
SLDTEXTSTYLE0
 73
     1
 44
1.0
  0
MTEXT
  5
C7
330
A2
100
AcDbEntity
  8
0
  6
Continuous
 62
     0
370
     0
100
AcDbMText
 10
5.2361110635
 20
-15.7247877821
 30
0.0
 40
2.0
 41
0.0
 71
     1
 72
     1
  1
4
  7
SLDTEXTSTYLE0
 73
     1
 44
1.0
  0
MTEXT
  5
C8
330
A2
100
AcDbEntity
  8
0
  6
Continuous
 62
     0
370
     0
100
AcDbMText
 10
13.6569428146
 20
-15.7247877821
 30
0.0
 40
2.0
 41
0.0
 71
     1
 72
     1
  1
DIN 916 A2 M4x3
  7
SLDTEXTSTYLE0
 73
     1
 44
1.0
  0
MTEXT
  5
C9
330
A2
100
AcDbEntity
  8
0
  6
Continuous
 62
     0
370
     0
100
AcDbMText
 10
37.5
 20
-15.7247877821
 30
0.0
 40
2.0
 41
0.0
 71
     1
 72
     1
  1
Grub screw M4x3mm
  7
SLDTEXTSTYLE0
 73
     1
 44
1.0
  0
MTEXT
  5
CA
330
A2
100
AcDbEntity
  8
0
  6
Continuous
 62
     0
370
     0
100
AcDbMText
 10
107.5
 20
-15.7247877821
 30
0.0
 40
2.0
 41
0.0
 71
     1
 72
     1
  1
DIN 916A4
  7
SLDTEXTSTYLE0
 73
     1
 44
1.0
  0
MTEXT
  5
CB
330
A2
100
AcDbEntity
  8
0
  6
Continuous
 62
     0
370
     0
100
AcDbMText
 10
181.3361110635
 20
-15.7247877821
 30
0.0
 40
2.0
 41
0.0
 71
     1
 72
     1
  1
1
  7
SLDTEXTSTYLE0
 73
     1
 44
1.0
  0
ENDBLK
  5
A4
330
A2
100
AcDbEntity
  8
0
100
AcDbBlockEnd
  0
BLOCK
  5
105
330
104
100
AcDbEntity
  8
0
100
AcDbBlockBegin
  2
*D4
 70
     1
 10
0.0
 20
0.0
 30
0.0
  3
*D4
  1

  0
SOLID
  5
107
330
104
100
AcDbEntity
  8
0
  6
Continuous
 62
     7
370
     0
100
AcDbTrace
 10
21.1124279215
 20
184.902733866
 30
0.0
 11
20.7874279215
 21
182.402733866
 31
0.0
 12
21.4374279215
 22
182.402733866
 32
0.0
 13
21.4374279215
 23
182.402733866
 33
0.0
  0
SOLID
  5
108
330
104
100
AcDbEntity
  8
0
  6
Continuous
 62
     7
370
     0
100
AcDbTrace
 10
21.1124279215
 20
158.902733866
 30
0.0
 11
21.4374279215
 21
161.402733866
 31
0.0
 12
20.7874279215
 22
161.402733866
 32
0.0
 13
20.7874279215
 23
161.402733866
 33
0.0
  0
LINE
  5
109
330
104
100
AcDbEntity
  8
0
  6
Continuous
 62
     7
370
     0
100
AcDbLine
 10
40.6124279215
 20
184.902733866
 30
0.0
 11
20.1124279215
 21
184.902733866
 31
0.0
  0
LINE
  5
10A
330
104
100
AcDbEntity
  8
0
  6
Continuous
 62
     7
370
     0
100
AcDbLine
 10
37.1124279215
 20
158.902733866
 30
0.0
 11
20.1124279215
 21
158.902733866
 31
0.0
  0
LINE
  5
10B
330
104
100
AcDbEntity
  8
0
  6
Continuous
 62
     7
370
     0
100
AcDbLine
 10
21.1124279215
 20
184.902733866
 30
0.0
 11
21.1124279215
 21
158.902733866
 31
0.0
  0
MTEXT
  5
10C
330
104
100
AcDbEntity
  8
0
  6
Continuous
 62
     7
370
     0
100
AcDbMText
 10
16.6006911816
 20
169.2291646269
 30
0.0
 40
3.5
 41
0.0
 71
     1
 72
     1
  1
26
  7
SLDTEXTSTYLE0
 11
-7.044195017643634E-15
 21
1.0
 31
0.0
 73
     1
 44
1.0
  0
ENDBLK
  5
106
330
104
100
AcDbEntity
  8
0
100
AcDbBlockEnd
  0
BLOCK
  5
10F
330
10E
100
AcDbEntity
  8
0
100
AcDbBlockBegin
  2
*D5
 70
     1
 10
0.0
 20
0.0
 30
0.0
  3
*D5
  1

  0
SOLID
  5
111
330
10E
100
AcDbEntity
  8
0
  6
Continuous
 62
     7
370
     0
100
AcDbTrace
 10
38.1124279215
 20
146.902733866
 30
0.0
 11
40.6124279215
 21
146.577733866
 31
0.0
 12
40.6124279215
 22
147.227733866
 32
0.0
 13
40.6124279215
 23
147.227733866
 33
0.0
  0
SOLID
  5
112
330
10E
100
AcDbEntity
  8
0
  6
Continuous
 62
     7
370
     0
100
AcDbTrace
 10
183.1124279215
 20
146.902733866
 30
0.0
 11
180.6124279215
 21
147.227733866
 31
0.0
 12
180.6124279215
 22
146.577733866
 32
0.0
 13
180.6124279215
 23
146.577733866
 33
0.0
  0
LINE
  5
113
330
10E
100
AcDbEntity
  8
0
  6
Continuous
 62
     7
370
     0
100
AcDbLine
 10
38.1124279215
 20
157.902733866
 30
0.0
 11
38.1124279215
 21
145.902733866
 31
0.0
  0
LINE
  5
114
330
10E
100
AcDbEntity
  8
0
  6
Continuous
 62
     7
370
     0
100
AcDbLine
 10
183.1124279215
 20
178.902733866
 30
0.0
 11
183.1124279215
 21
145.902733866
 31
0.0
  0
LINE
  5
115
330
10E
100
AcDbEntity
  8
0
  6
Continuous
 62
     7
370
     0
100
AcDbLine
 10
38.1124279215
 20
146.902733866
 30
0.0
 11
183.1124279215
 21
146.902733866
 31
0.0
  0
MTEXT
  5
116
330
10E
100
AcDbEntity
  8
0
  6
Continuous
 62
     7
370
     0
100
AcDbMText
 10
106.6020740628
 20
151.414470606
 30
0.0
 40
3.5
 41
0.0
 71
     1
 72
     1
  1
145
  7
SLDTEXTSTYLE0
 73
     1
 44
1.0
  0
ENDBLK
  5
110
330
10E
100
AcDbEntity
  8
0
100
AcDbBlockEnd
  0
BLOCK
  5
119
330
118
100
AcDbEntity
  8
0
100
AcDbBlockBegin
  2
*D6
 70
     1
 10
0.0
 20
0.0
 30
0.0
  3
*D6
  1

  0
SOLID
  5
11B
330
118
100
AcDbEntity
  8
0
  6
Continuous
 62
     7
370
     0
100
AcDbTrace
 10
30.3944338286
 20
172.902733866
 30
0.0
 11
30.0694338286
 21
170.402733866
 31
0.0
 12
30.7194338286
 22
170.402733866
 32
0.0
 13
30.7194338286
 23
170.402733866
 33
0.0
  0
SOLID
  5
11C
330
118
100
AcDbEntity
  8
0
  6
Continuous
 62
     7
370
     0
100
AcDbTrace
 10
30.3944338286
 20
158.902733866
 30
0.0
 11
30.7194338286
 21
161.402733866
 31
0.0
 12
30.0694338286
 22
161.402733866
 32
0.0
 13
30.0694338286
 23
161.402733866
 33
0.0
  0
LINE
  5
11D
330
118
100
AcDbEntity
  8
0
  6
Continuous
 62
     7
370
     0
100
AcDbLine
 10
37.1124279215
 20
172.902733866
 30
0.0
 11
29.3944338286
 21
172.902733866
 31
0.0
  0
LINE
  5
11E
330
118
100
AcDbEntity
  8
0
  6
Continuous
 62
     7
370
     0
100
AcDbLine
 10
37.1124279215
 20
158.902733866
 30
0.0
 11
29.3944338286
 21
158.902733866
 31
0.0
  0
LINE
  5
11F
330
118
100
AcDbEntity
  8
0
  6
Continuous
 62
     7
370
     0
100
AcDbLine
 10
30.3944338286
 20
172.902733866
 30
0.0
 11
30.3944338286
 21
158.902733866
 31
0.0
  0
MTEXT
  5
120
330
118
100
AcDbEntity
  8
0
  6
Continuous
 62
     7
370
     0
100
AcDbMText
 10
25.8826967394
 20
160.6793717414
 30
0.0
 40
3.5
 41
0.0
 71
     1
 72
     1
  1
%%c
  7
SLDTEXTSTYLE0
 11
-7.044195017643634E-15
 21
1.0
 31
0.0
 73
     1
 44
1.0
  0
MTEXT
  5
121
330
118
100
AcDbEntity
  8
0
  6
Continuous
 62
     7
370
     0
100
AcDbMText
 10
25.8826970887
 20
165.7789575123
 30
0.0
 40
3.5
 41
0.0
 71
     1
 72
     1
  1
14
  7
SLDTEXTSTYLE0
 11
-7.044195017643634E-15
 21
1.0
 31
0.0
 73
     1
 44
1.0
  0
ENDBLK
  5
11A
330
118
100
AcDbEntity
  8
0
100
AcDbBlockEnd
  0
BLOCK
  5
124
330
123
100
AcDbEntity
  8
0
100
AcDbBlockBegin
  2
*D7
 70
     1
 10
0.0
 20
0.0
 30
0.0
  3
*D7
  1

  0
SOLID
  5
126
330
123
100
AcDbEntity
  8
0
  6
Continuous
 62
     7
370
     0
100
AcDbTrace
 10
37.1124279215
 20
278.5098233703
 30
0.0
 11
39.6124279215
 21
278.1848233703
 31
0.0
 12
39.6124279215
 22
278.8348233703
 32
0.0
 13
39.6124279215
 23
278.8348233703
 33
0.0
  0
SOLID
  5
127
330
123
100
AcDbEntity
  8
0
  6
Continuous
 62
     7
370
     0
100
AcDbTrace
 10
183.1124279215
 20
278.5098233703
 30
0.0
 11
180.6124279215
 21
278.8348233703
 31
0.0
 12
180.6124279215
 22
278.1848233703
 32
0.0
 13
180.6124279215
 23
278.1848233703
 33
0.0
  0
LINE
  5
128
330
123
100
AcDbEntity
  8
0
  6
Continuous
 62
     7
370
     0
100
AcDbLine
 10
37.1124279215
 20
255.902733866
 30
0.0
 11
37.1124279215
 21
279.5098233703
 31
0.0
  0
LINE
  5
129
330
123
100
AcDbEntity
  8
0
  6
Continuous
 62
     7
370
     0
100
AcDbLine
 10
183.1124279215
 20
234.902733866
 30
0.0
 11
183.1124279215
 21
279.5098233703
 31
0.0
  0
LINE
  5
12A
330
123
100
AcDbEntity
  8
0
  6
Continuous
 62
     7
370
     0
100
AcDbLine
 10
37.1124279215
 20
278.5098233703
 30
0.0
 11
183.1124279215
 21
278.5098233703
 31
0.0
  0
MTEXT
  5
12B
330
123
100
AcDbEntity
  8
0
  6
Continuous
 62
     7
370
     0
100
AcDbMText
 10
106.1020740628
 20
283.0215601103
 30
0.0
 40
3.5
 41
0.0
 71
     1
 72
     1
  1
146
  7
SLDTEXTSTYLE0
 73
     1
 44
1.0
  0
ENDBLK
  5
125
330
123
100
AcDbEntity
  8
0
100
AcDbBlockEnd
  0
BLOCK
  5
12E
330
12D
100
AcDbEntity
  8
0
100
AcDbBlockBegin
  2
*D8
 70
     1
 10
0.0
 20
0.0
 30
0.0
  3
*D8
  1

  0
SOLID
  5
130
330
12D
100
AcDbEntity
  8
0
  6
Continuous
 62
     7
370
     0
100
AcDbTrace
 10
48.6124279215
 20
266.902733866
 30
0.0
 11
51.1124279215
 21
266.577733866
 31
0.0
 12
51.1124279215
 22
267.227733866
 32
0.0
 13
51.1124279215
 23
267.227733866
 33
0.0
  0
SOLID
  5
131
330
12D
100
AcDbEntity
  8
0
  6
Continuous
 62
     7
370
     0
100
AcDbTrace
 10
158.6124279215
 20
266.902733866
 30
0.0
 11
156.1124279215
 21
267.227733866
 31
0.0
 12
156.1124279215
 22
266.577733866
 32
0.0
 13
156.1124279215
 23
266.577733866
 33
0.0
  0
LINE
  5
132
330
12D
100
AcDbEntity
  8
0
  6
Continuous
 62
     7
370
     0
100
AcDbLine
 10
48.6124279215
 20
257.902733866
 30
0.0
 11
48.6124279215
 21
267.902733866
 31
0.0
  0
LINE
  5
133
330
12D
100
AcDbEntity
  8
0
  6
Continuous
 62
     7
370
     0
100
AcDbLine
 10
158.6124279215
 20
257.902733866
 30
0.0
 11
158.6124279215
 21
267.902733866
 31
0.0
  0
LINE
  5
134
330
12D
100
AcDbEntity
  8
0
  6
Continuous
 62
     7
370
     0
100
AcDbLine
 10
48.6124279215
 20
266.902733866
 30
0.0
 11
158.6124279215
 21
266.902733866
 31
0.0
  0
MTEXT
  5
135
330
12D
100
AcDbEntity
  8
0
  6
Continuous
 62
     7
370
     0
100
AcDbMText
 10
99.6020740628
 20
271.414470606
 30
0.0
 40
3.5
 41
0.0
 71
     1
 72
     1
  1
110
  7
SLDTEXTSTYLE0
 73
     1
 44
1.0
  0
ENDBLK
  5
12F
330
12D
100
AcDbEntity
  8
0
100
AcDbBlockEnd
  0
BLOCK
  5
138
330
137
100
AcDbEntity
  8
0
100
AcDbBlockBegin
  2
*D9
 70
     1
 10
0.0
 20
0.0
 30
0.0
  3
*D9
  1

  0
SOLID
  5
13A
330
137
100
AcDbEntity
  8
0
  6
Continuous
 62
     7
370
     0
100
AcDbTrace
 10
193.8932060672
 20
256.902733866
 30
0.0
 11
193.5682060672
 21
254.402733866
 31
0.0
 12
194.2182060672
 22
254.402733866
 32
0.0
 13
194.2182060672
 23
254.402733866
 33
0.0
  0
SOLID
  5
13B
330
137
100
AcDbEntity
  8
0
  6
Continuous
 62
     7
370
     0
100
AcDbTrace
 10
193.8932060672
 20
158.902733866
 30
0.0
 11
194.2182060672
 21
161.402733866
 31
0.0
 12
193.5682060672
 22
161.402733866
 32
0.0
 13
193.5682060672
 23
161.402733866
 33
0.0
  0
LINE
  5
13C
330
137
100
AcDbEntity
  8
0
  6
Continuous
 62
     7
370
     0
100
AcDbLine
 10
159.6124279215
 20
256.902733866
 30
0.0
 11
194.8932060672
 21
256.902733866
 31
0.0
  0
LINE
  5
13D
330
137
100
AcDbEntity
  8
0
  6
Continuous
 62
     7
370
     0
100
AcDbLine
 10
163.1124279215
 20
158.902733866
 30
0.0
 11
194.8932060672
 21
158.902733866
 31
0.0
  0
LINE
  5
13E
330
137
100
AcDbEntity
  8
0
  6
Continuous
 62
     7
370
     0
100
AcDbLine
 10
193.8932060672
 20
256.902733866
 30
0.0
 11
193.8932060672
 21
158.902733866
 31
0.0
  0
MTEXT
  5
13F
330
137
100
AcDbEntity
  8
0
  6
Continuous
 62
     7
370
     0
100
AcDbMText
 10
189.3814693272
 20
205.2291646269
 30
0.0
 40
3.5
 41
0.0
 71
     1
 72
     1
  1
98
  7
SLDTEXTSTYLE0
 11
-7.044195017643634E-15
 21
1.0
 31
0.0
 73
     1
 44
1.0
  0
ENDBLK
  5
139
330
137
100
AcDbEntity
  8
0
100
AcDbBlockEnd
  0
BLOCK
  5
142
330
141
100
AcDbEntity
  8
0
100
AcDbBlockBegin
  2
*D10
 70
     1
 10
0.0
 20
0.0
 30
0.0
  3
*D10
  1

  0
SOLID
  5
144
330
141
100
AcDbEntity
  8
0
  6
Continuous
 62
     7
370
     0
100
AcDbTrace
 10
132.6581881761
 20
238.902733866
 30
0.0
 11
132.3331881761
 21
236.402733866
 31
0.0
 12
132.9831881761
 22
236.402733866
 32
0.0
 13
132.9831881761
 23
236.402733866
 33
0.0
  0
SOLID
  5
145
330
141
100
AcDbEntity
  8
0
  6
Continuous
 62
     7
370
     0
100
AcDbTrace
 10
132.6581881761
 20
172.902733866
 30
0.0
 11
132.9831881761
 21
175.402733866
 31
0.0
 12
132.3331881761
 22
175.402733866
 32
0.0
 13
132.3331881761
 23
175.402733866
 33
0.0
  0
LINE
  5
146
330
141
100
AcDbEntity
  8
0
  6
Continuous
 62
     7
370
     0
100
AcDbLine
 10
132.6581881761
 20
238.902733866
 30
0.0
 11
132.6581881761
 21
172.902733866
 31
0.0
  0
MTEXT
  5
147
330
141
100
AcDbEntity
  8
0
  6
Continuous
 62
     7
370
     0
100
AcDbMText
 10
128.1464514362
 20
203.2291646269
 30
0.0
 40
3.5
 41
0.0
 71
     1
 72
     1
  1
66
  7
SLDTEXTSTYLE0
 11
-7.044195017643634E-15
 21
1.0
 31
0.0
 73
     1
 44
1.0
  0
ENDBLK
  5
143
330
141
100
AcDbEntity
  8
0
100
AcDbBlockEnd
  0
BLOCK
  5
293
330
292
100
AcDbEntity
  8
0
100
AcDbBlockBegin
  2
SW_NOTE_1
 70
     0
 10
0.0
 20
0.0
 30
0.0
  3
SW_NOTE_1
  1

  0
CIRCLE
  5
295
330
292
100
AcDbEntity
  8
0
  6
Continuous
 62
     0
370
     0
100
AcDbCircle
 10
2.2692331505
 20
2.2547925759
 30
0.0
 40
3.198985566032105
  0
MTEXT
  5
296
330
292
100
AcDbEntity
  8
0
  6
Continuous
 62
     0
370
     0
100
AcDbMText
 10
0.9324275116
 20
4.1876477281
 30
0.0
 40
3.5
 41
0.0
 71
     1
 72
     1
  1
4
  7
SLDTEXTSTYLE0
 73
     1
 44
1.0
  0
ENDBLK
  5
294
330
292
100
AcDbEntity
  8
0
100
AcDbBlockEnd
  0
BLOCK
  5
29B
330
29A
100
AcDbEntity
  8
0
100
AcDbBlockBegin
  2
SW_NOTE_2
 70
     0
 10
0.0
 20
0.0
 30
0.0
  3
SW_NOTE_2
  1

  0
CIRCLE
  5
29D
330
29A
100
AcDbEntity
  8
0
  6
Continuous
 62
     0
370
     0
100
AcDbCircle
 10
-2.2692331505
 20
2.2547925759
 30
0.0
 40
3.198985566032083
  0
MTEXT
  5
29E
330
29A
100
AcDbEntity
  8
0
  6
Continuous
 62
     0
370
     0
100
AcDbMText
 10
-3.6060387894
 20
4.1876477281
 30
0.0
 40
3.5
 41
0.0
 71
     1
 72
     1
  1
3
  7
SLDTEXTSTYLE0
 73
     1
 44
1.0
  0
ENDBLK
  5
29C
330
29A
100
AcDbEntity
  8
0
100
AcDbBlockEnd
  0
BLOCK
  5
2A2
330
2A1
100
AcDbEntity
  8
0
100
AcDbBlockBegin
  2
_DOT
 70
     0
 10
0.0
 20
0.0
 30
0.0
  3
_DOT
  1

  0
POLYLINE
  5
2A4
330
2A1
100
AcDbEntity
  8
0
  6
ByBlock
 62
     0
100
AcDb2dPolyline
 66
     1
 10
0.0
 20
0.0
 30
0.0
 70
     1
 40
0.5
 41
0.5
  0
VERTEX
  5
2A6
330
2A4
100
AcDbEntity
  8
0
  6
ByBlock
 62
     0
100
AcDbVertex
100
AcDb2dVertex
 10
-0.25
 20
0.0
 30
0.0
 42
1.0
  0
VERTEX
  5
2A7
330
2A4
100
AcDbEntity
  8
0
  6
ByBlock
 62
     0
100
AcDbVertex
100
AcDb2dVertex
 10
0.25
 20
0.0
 30
0.0
 42
1.0
  0
SEQEND
  5
2A8
330
2A4
100
AcDbEntity
  8
0
  6
ByBlock
 62
     0
  0
LINE
  5
2A5
330
2A1
100
AcDbEntity
  8
0
  6
ByBlock
 62
     0
370
    -2
100
AcDbLine
 10
-0.5
 20
0.0
 30
0.0
 11
-1.0
 21
0.0
 31
0.0
  0
ENDBLK
  5
2A3
330
2A1
100
AcDbEntity
  8
0
100
AcDbBlockEnd
  0
BLOCK
  5
2AB
330
2AA
100
AcDbEntity
  8
0
100
AcDbBlockBegin
  2
SW_NOTE_3
 70
     0
 10
0.0
 20
0.0
 30
0.0
  3
SW_NOTE_3
  1

  0
CIRCLE
  5
2AD
330
2AA
100
AcDbEntity
  8
0
  6
Continuous
 62
     0
370
     0
100
AcDbCircle
 10
-2.2692331505
 20
2.2547925759
 30
0.0
 40
3.19898556603208
  0
MTEXT
  5
2AE
330
2AA
100
AcDbEntity
  8
0
  6
Continuous
 62
     0
370
     0
100
AcDbMText
 10
-3.6060387894
 20
4.1876477281
 30
0.0
 40
3.5
 41
0.0
 71
     1
 72
     1
  1
2
  7
SLDTEXTSTYLE0
 73
     1
 44
1.0
  0
ENDBLK
  5
2AC
330
2AA
100
AcDbEntity
  8
0
100
AcDbBlockEnd
  0
BLOCK
  5
2B2
330
2B1
100
AcDbEntity
  8
0
100
AcDbBlockBegin
  2
SW_NOTE_4
 70
     0
 10
0.0
 20
0.0
 30
0.0
  3
SW_NOTE_4
  1

  0
CIRCLE
  5
2B4
330
2B1
100
AcDbEntity
  8
0
  6
Continuous
 62
     0
370
     0
100
AcDbCircle
 10
-2.2692331505
 20
2.2547925759
 30
0.0
 40
3.1989855660321
  0
MTEXT
  5
2B5
330
2B1
100
AcDbEntity
  8
0
  6
Continuous
 62
     0
370
     0
100
AcDbMText
 10
-3.6060387894
 20
4.1876477281
 30
0.0
 40
3.5
 41
0.0
 71
     1
 72
     1
  1
1
  7
SLDTEXTSTYLE0
 73
     1
 44
1.0
  0
ENDBLK
  5
2B3
330
2B1
100
AcDbEntity
  8
0
100
AcDbBlockEnd
  0
ENDSEC
  0
SECTION
  2
ENTITIES
  0
IMAGE
  5
8B
330
1F
100
AcDbEntity
  8
0
 92
      140
310
8C00000001000000840000000600000005000000F46A0193303A6640AC98D2B416EC13400000000000000000F46A0193307A6940AC98D2B416EC13400000000000000000F46A0193307A69402344C2A7D4413F400000000000000000F46A0193303A66402344C2A7D4413F400000000000000000F46A0193303A6640AC98D2
310
B416EC13400000000000000000
100
AcDbRasterImage
 90
        0
 10
177.8184294727
 20
4.9805553678
 30
0.0
 11
0.02514506769825918
 21
0.0
 31
0.0
 12
0.0
 22
0.0251450676982592
 32
0.0
 13
1034.0
 23
1045.0
340
8A
 70
     7
280
     0
281
    50
282
    50
283
     0
360
8C
 71
     1
 91
        2
 14
-0.5
 24
-0.5
 14
1033.5
 24
1044.5
  0
LINE
  5
8D
330
1F
100
AcDbEntity
  8
0
  6
Continuous
 62
     7
370
     0
100
AcDbLine
 10
15.0672935252
 20
290.5242805094
 30
0.0
 11
15.0672935252
 21
6.5242805094
 31
0.0
  0
LINE
  5
8E
330
1F
100
AcDbEntity
  8
0
  6
Continuous
 62
     7
370
     0
100
AcDbLine
 10
15.0672935252
 20
44.7742805094
 30
0.0
 11
15.0672935252
 21
6.5242805094
 31
0.0
  0
LINE
  5
8F
330
1F
100
AcDbEntity
  8
0
  6
Continuous
 62
     7
370
     0
100
AcDbLine
 10
202.2672935252
 20
290.5242805094
 30
0.0
 11
15.0672935252
 21
290.5242805094
 31
0.0
  0
LINE
  5
90
330
1F
100
AcDbEntity
  8
0
  6
Continuous
 62
     7
370
     0
100
AcDbLine
 10
15.0672935252
 20
6.5242805094
 30
0.0
 11
202.2672935252
 21
6.5242805094
 31
0.0
  0
LINE
  5
91
330
1F
100
AcDbEntity
  8
0
  6
Continuous
 62
     7
370
     0
100
AcDbLine
 10
202.2672935252
 20
6.5242805094
 30
0.0
 11
202.2672935252
 21
290.5242805094
 31
0.0
  0
INSERT
  5
92
330
1F
100
AcDbEntity
  8
0
  6
Continuous
 62
     7
100
AcDbBlockReference
 66
     1
  2
tegningshovd
 10
15.0672935252
 20
6.5242805094
 30
0.0
  0
ATTRIB
  5
93
330
92
100
AcDbEntity
  8
0
  6
Continuous
 62
     7
370
     0
100
AcDbText
 10
126.3348868309
 20
41.3567492158
 30
0.0
 40
3.175
  1

 41
0.75
  7
SLDTEXTSTYLE1
 11
126.3348868309
 21
40.2351485192
 31
0.0
100
AcDbAttribute
  2
AUTOATTR0
 70
     0
 74
     1
  0
ATTRIB
  5
94
330
92
100
AcDbEntity
  8
0
  6
Continuous
 62
     7
370
     0
100
AcDbText
 10
137.3431108799
 20
36.06656718
 30
0.0
 40
3.175
  1

 41
0.75
  7
SLDTEXTSTYLE1
 11
137.3431108799
 21
34.9449664834
 31
0.0
100
AcDbAttribute
  2
AUTOATTR1
 70
     0
 74
     1
  0
ATTRIB
  5
95
330
92
100
AcDbEntity
  8
0
  6
Continuous
 62
     7
370
     0
100
AcDbText
 10
120.6627751307
 20
29.7808044958
 30
0.0
 40
3.175
  1
Stainless Steel
 41
0.75
  7
SLDTEXTSTYLE1
 11
120.6627751307
 21
28.6592037992
 31
0.0
100
AcDbAttribute
  2
AUTOATTR2
 70
     0
 74
     1
  0
ATTRIB
  5
96
330
92
100
AcDbEntity
  8
0
  6
Continuous
 62
     7
370
     0
100
AcDbText
 10
120.6627751307
 20
23.902665563
 30
0.0
 40
3.175
  1
Brushed
 41
0.75
  7
SLDTEXTSTYLE1
 11
120.6627751307
 21
22.7810648664
 31
0.0
100
AcDbAttribute
  2
AUTOATTR3
 70
     0
 74
     1
  0
ATTRIB
  5
97
330
92
100
AcDbEntity
  8
0
  6
Continuous
 62
     7
370
     0
100
AcDbText
 10
174.934267202
 20
36.06656718
 30
0.0
 40
3.175
  1
Cat 5
 41
0.75
  7
SLDTEXTSTYLE1
 11
174.934267202
 21
34.9449664834
 31
0.0
100
AcDbAttribute
  2
AUTOATTR4
 70
     0
 74
     1
  0
ATTRIB
  5
98
330
92
100
AcDbEntity
  8
0
  6
Continuous
 62
     7
370
     0
100
AcDbText
 10
120.6627751307
 20
23.902665563
 30
0.0
 40
3.175
  1

 41
0.75
  7
SLDTEXTSTYLE1
 11
120.6627751307
 21
22.7810648664
 31
0.0
100
AcDbAttribute
  2
AUTOATTR5
 70
     0
 74
     1
  0
ATTRIB
  5
99
330
92
100
AcDbEntity
  8
0
  6
Continuous
 62
     7
370
     0
100
AcDbText
 10
35.0279818454
 20
23.902665563
 30
0.0
 40
3.175
  1
Bathroom Fittings
 41
0.75
  7
SLDTEXTSTYLE1
 11
35.0279818454
 21
22.7810648664
 31
0.0
100
AcDbAttribute
  2
AUTOATTR6
 70
     0
 74
     1
  0
ATTRIB
  5
9A
330
92
100
AcDbEntity
  8
0
  6
Continuous
 62
     7
370
     0
100
AcDbText
 10
81.9274441956
 20
13.7847936312
 30
0.0
 40
2.1166666667
  1

 41
0.75
  7
SLDTEXTSTYLE1
 11
81.9274441956
 21
13.0370598335
 31
0.0
100
AcDbAttribute
  2
AUTOATTR7
 70
     0
 74
     1
  0
ATTRIB
  5
9B
330
92
100
AcDbEntity
  8
0
  6
Continuous
 62
     7
370
     0
100
AcDbText
 10
35.0279818454
 20
13.671049861
 30
0.0
 40
2.1166666667
  1

 41
0.75
  7
SLDTEXTSTYLE1
 11
35.0279818454
 21
12.9233160633
 31
0.0
100
AcDbAttribute
  2
AUTOATTR8
 70
     0
 74
     1
  0
ATTRIB
  5
9C
330
92
100
AcDbEntity
  8
0
  6
Continuous
 62
     7
370
     0
100
AcDbText
 10
120.0599300281
 20
10.6431387753
 30
0.0
 40
4.4979166667
  1
14.7056.02.243
 41
0.75
  7
SLDTEXTSTYLE1
 11
120.0599300281
 21
9.0542044551
 31
0.0
100
AcDbAttribute
  2
AUTOATTR9
 70
     0
 74
     1
  0
ATTRIB
  5
9D
330
92
100
AcDbEntity
  8
0
  6
Continuous
 62
     7
370
     0
100
AcDbText
 10
17.3027457115
 20
30.0567833308
 30
0.0
 40
4.2333333333
  1
brushed bracket
 41
0.75
  7
SLDTEXTSTYLE1
 11
17.3027457115
 21
28.5613157354
 31
0.0
100
AcDbAttribute
  2
AUTOATTR10
 70
     0
 74
     1
  0
ATTRIB
  5
9E
330
92
100
AcDbEntity
  8
0
  6
Continuous
 62
     7
370
     0
100
AcDbText
 10
82.4478127188
 20
19.9324495059
 30
0.0
 40
2.1166666667
  1
25/08-2011
 41
0.75
  7
SLDTEXTSTYLE1
 11
82.4478127188
 21
19.1847157082
 31
0.0
100
AcDbAttribute
  2
AUTOATTR11
 70
     0
 74
     1
  0
ATTRIB
  5
9F
330
92
100
AcDbEntity
  8
0
  6
Continuous
 62
     7
370
     0
100
AcDbText
 10
35.0279818454
 20
19.9324495059
 30
0.0
 40
2.1166666667
  1
tgr
 41
0.75
  7
SLDTEXTSTYLE1
 11
35.0279818454
 21
19.1847157082
 31
0.0
100
AcDbAttribute
  2
AUTOATTR12
 70
     0
 74
     1
  0
ATTRIB
  5
A0
330
92
100
AcDbEntity
  8
0
  6
Continuous
 62
     7
370
     0
100
AcDbText
 10
17.3962076572
 20
36.4347343451
 30
0.0
 40
4.2333333333
  1
Toilet roll holder.
 41
0.75
  7
SLDTEXTSTYLE1
 11
17.3962076572
 21
34.9392667496
 31
0.0
100
AcDbAttribute
  2
AUTOATTR13
 70
     0
 74
     1
  0
SEQEND
  5
A1
330
92
100
AcDbEntity
  8
0
  6
Continuous
 62
     7
  0
INSERT
  5
CC
330
1F
100
AcDbEntity
  8
0
  6
Continuous
 62
     7
370
     0
100
AcDbBlockReference
  2
SW_TABLEANNOTATION_0
 10
15.0672935252
 20
62.9742805094
 30
0.0
  0
LINE
  5
CD
330
1F
100
AcDbEntity
  8
0
  6
Continuous
 62
     7
370
    15
100
AcDbLine
 10
183.1124251201
 20
179.9027301705
 30
0.0
 11
183.1124251201
 21
233.9027334339
 31
0.0
  0
LINE
  5
CE
330
1F
100
AcDbEntity
  8
0
  6
Continuous
 62
     7
370
    15
100
AcDbLine
 10
169.1124265506
 20
233.9027334339
 30
0.0
 11
169.1124265506
 21
179.9027301705
 31
0.0
  0
ARC
  5
CF
330
1F
100
AcDbEntity
  8
0
  6
Continuous
 62
     7
370
    15
100
AcDbCircle
 10
162.1124279215
 20
179.902733866
 30
0.0
 40
7.0
100
AcDbArc
 50
270.0
 51
0.0
  0
ARC
  5
D0
330
1F
100
AcDbEntity
  8
0
  6
Continuous
 62
     7
370
    15
100
AcDbCircle
 10
162.1124279215
 20
179.902733866
 30
0.0
 40
21.0
100
AcDbArc
 50
270.0
 51
0.0
  0
ARC
  5
D1
330
1F
100
AcDbEntity
  8
0
  6
Continuous
 62
     7
370
    15
100
AcDbCircle
 10
162.1124279215
 20
233.902733866
 30
0.0
 40
7.0
100
AcDbArc
 50
0.0
 51
90.0
  0
ARC
  5
D2
330
1F
100
AcDbEntity
  8
0
  6
Continuous
 62
     7
370
    15
100
AcDbCircle
 10
162.1124279215
 20
233.902733866
 30
0.0
 40
20.99999999999997
100
AcDbArc
 50
0.0
 51
90.0
  0
LINE
  5
D3
330
1F
100
AcDbEntity
  8
0
  6
Continuous
 62
     7
370
    15
100
AcDbLine
 10
55.6124275043
 20
240.9027336499
 30
0.0
 11
151.6124283388
 21
240.9027336499
 31
0.0
  0
LINE
  5
D4
330
1F
100
AcDbEntity
  8
0
  6
Continuous
 62
     7
370
    15
100
AcDbLine
 10
158.6124276235
 20
240.9027336499
 30
0.0
 11
162.1124272659
 21
240.9027336499
 31
0.0
  0
LINE
  5
D5
330
1F
100
AcDbEntity
  8
0
  6
Continuous
 62
     7
370
    15
100
AcDbLine
 10
162.1124272659
 20
254.9027340821
 30
0.0
 11
158.6124276235
 21
254.9027340821
 31
0.0
  0
LINE
  5
D6
330
1F
100
AcDbEntity
  8
0
  6
Continuous
 62
     7
370
    15
100
AcDbLine
 10
151.6124283388
 20
254.9027340821
 30
0.0
 11
55.6124275043
 21
254.9027340821
 31
0.0
  0
LINE
  5
D7
330
1F
100
AcDbEntity
  8
0
  6
Continuous
 62
     7
370
    15
100
AcDbLine
 10
45.1124285772
 20
158.9027323163
 30
0.0
 11
162.1124272659
 21
158.9027323163
 31
0.0
  0
LINE
  5
D8
330
1F
100
AcDbEntity
  8
0
  6
Continuous
 62
     7
370
    15
100
AcDbLine
 10
40.112425895
 20
158.9027323163
 30
0.0
 11
41.1124279215
 21
158.9027323163
 31
0.0
  0
LINE
  5
D9
330
1F
100
AcDbEntity
  8
0
  6
Continuous
 62
     7
370
    15
100
AcDbLine
 10
41.1124279215
 20
172.9027308858
 30
0.0
 11
40.112425895
 21
172.9027308858
 31
0.0
  0
LINE
  5
DA
330
1F
100
AcDbEntity
  8
0
  6
Continuous
 62
     7
370
    15
100
AcDbLine
 10
162.1124272659
 20
172.9027308858
 30
0.0
 11
45.1124285772
 21
172.9027308858
 31
0.0
  0
LINE
  5
DB
330
1F
100
AcDbEntity
  8
0
  6
Continuous
 62
     7
370
    15
100
AcDbLine
 10
46.7543875291
 20
240.9027336499
 30
0.0
 11
48.6124282195
 21
240.9027336499
 31
0.0
  0
LINE
  5
DC
330
1F
100
AcDbEntity
  8
0
  6
Continuous
 62
     7
370
    15
100
AcDbLine
 10
37.1124272659
 20
240.9027336499
 30
0.0
 11
43.4821484103
 21
240.9027336499
 31
0.0
  0
LINE
  5
DD
330
1F
100
AcDbEntity
  8
0
  6
Continuous
 62
     7
370
    15
100
AcDbLine
 10
48.6124282195
 20
254.9027340821
 30
0.0
 11
37.1124272659
 21
254.9027340821
 31
0.0
  0
LINE
  5
DE
330
1F
100
AcDbEntity
  8
0
  6
Continuous
 62
     7
370
    15
100
AcDbLine
 10
45.1124285772
 20
157.402736727
 30
0.0
 11
45.1124285772
 21
158.9027323163
 31
0.0
  0
LINE
  5
DF
330
1F
100
AcDbEntity
  8
0
  6
Continuous
 62
     7
370
    15
100
AcDbLine
 10
45.1124285772
 20
172.9027308858
 30
0.0
 11
45.1124285772
 21
184.4027318394
 31
0.0
  0
LINE
  5
E0
330
1F
100
AcDbEntity
  8
0
  6
Continuous
 62
     7
370
    15
100
AcDbLine
 10
41.1124279215
 20
184.4027318394
 30
0.0
 11
41.1124279215
 21
172.9027308858
 31
0.0
  0
LINE
  5
E1
330
1F
100
AcDbEntity
  8
0
  6
Continuous
 62
     7
370
    15
100
AcDbLine
 10
41.1124279215
 20
158.9027323163
 30
0.0
 11
41.1124279215
 21
157.402736727
 31
0.0
  0
LINE
  5
E2
330
1F
100
AcDbEntity
  8
0
  6
Continuous
 62
     7
370
    15
100
AcDbLine
 10
45.1124285772
 20
184.4027318394
 30
0.0
 11
44.6124275639
 21
184.9027328527
 31
0.0
  0
LINE
  5
E3
330
1F
100
AcDbEntity
  8
0
  6
Continuous
 62
     7
370
    15
100
AcDbLine
 10
41.6124289348
 20
184.9027328527
 30
0.0
 11
41.1124279215
 21
184.4027318394
 31
0.0
  0
LINE
  5
E4
330
1F
100
AcDbEntity
  8
0
  6
Continuous
 62
     7
370
    15
100
AcDbLine
 10
41.1124279215
 20
157.402736727
 30
0.0
 11
41.6124289348
 21
156.9027357137
 31
0.0
  0
LINE
  5
E5
330
1F
100
AcDbEntity
  8
0
  6
Continuous
 62
     7
370
    15
100
AcDbLine
 10
44.6124275639
 20
156.9027357137
 30
0.0
 11
45.1124285772
 21
157.402736727
 31
0.0
  0
LINE
  5
E6
330
1F
100
AcDbEntity
  8
0
  6
Continuous
 62
     7
370
    15
100
AcDbLine
 10
40.112425895
 20
172.9027308858
 30
0.0
 11
38.1124292924
 21
172.9027308858
 31
0.0
  0
LINE
  5
E7
330
1F
100
AcDbEntity
  8
0
  6
Continuous
 62
     7
370
    15
100
AcDbLine
 10
38.1124292924
 20
158.9027323163
 30
0.0
 11
40.112425895
 21
158.9027323163
 31
0.0
  0
SPLINE
  5
E8
330
1F
100
AcDbEntity
  8
0
  6
Continuous
 62
     7
370
    15
100
AcDbSpline
210
0.0
220
0.0
230
1.0
 70
     8
 71
     3
 72
    18
 73
    14
 74
     0
 42
0.00000001
 43
0.00000001
 40
0.0
 40
0.0
 40
0.0
 40
0.0
 40
0.0307664578017825
 40
0.1337515497540356
 40
0.2378943228084884
 40
0.3456871749640359
 40
0.4542944528717579
 40
0.5591929239738952
 40
0.6617266299418008
 40
0.7668223414300314
 40
0.8754439722004669
 40
0.9831850177767576
 40
1.0
 40
1.0
 40
1.0
 40
1.0
 10
45.08941373371153
 20
172.8962265289033
 30
0.0
 10
45.09614061544422
 20
172.8981264793254
 30
0.0
 10
45.12538450379034
 20
172.9063861663863
 30
0.0
 10
44.95860682936244
 20
172.8587101831056
 30
0.0
 10
44.60410348438702
 20
172.7702675294051
 30
0.0
 10
44.06377368404772
 20
172.6690149862928
 30
0.0
 10
43.41424686425995
 20
172.6062352762317
 30
0.0
 10
42.7378837935331
 20
172.6108112418092
 30
0.0
 10
42.11544479716303
 20
172.6765348202941
 30
0.0
 10
41.58985182394127
 20
172.7770971936957
 30
0.0
 10
41.24263334170855
 20
172.8651229034822
 30
0.0
 10
41.0880274658582
 20
172.9095819571703
 30
0.0
 10
41.12232624143601
 20
172.8999484806252
 30
0.0
 10
41.12695655368834
 20
172.8986479675973
 30
0.0
  0
SPLINE
  5
E9
330
1F
100
AcDbEntity
  8
0
  6
Continuous
 62
     7
370
    15
100
AcDbSpline
210
0.0
220
0.0
230
1.0
 70
     8
 71
     3
 72
    17
 73
    13
 74
     0
 42
0.00000001
 43
0.00000001
 40
0.0
 40
0.0
 40
0.0
 40
0.0
 40
0.104462291564451
 40
0.2088299962579326
 40
0.315677613341928
 40
0.4246310152244884
 40
0.530763413193898
 40
0.6334850619714504
 40
0.7375405903849991
 40
0.8455076591630557
 40
0.9540358014584592
 40
0.9999999999999999
 40
0.9999999999999999
 40
0.9999999999999999
 40
0.9999999999999999
 10
41.11242792152434
 20
158.9027323162759
 30
0.0
 10
41.13364704596066
 20
158.9089461808669
 30
0.0
 10
41.17606608167461
 20
158.9213682836169
 30
0.0
 10
41.50565927419963
 20
159.0086496942363
 30
0.0
 10
41.99762158001395
 20
159.1102186696688
 30
0.0
 10
42.62571271741124
 20
159.1881049167201
 30
0.0
 10
43.30367911693634
 20
159.2028842705151
 30
0.0
 10
43.94662991969
 20
159.1517305970135
 30
0.0
 10
44.50354237792433
 20
159.0572521998713
 30
0.0
 10
44.90637877551274
 20
158.961175858592
 30
0.0
 10
45.11244743608999
 20
158.9027495409414
 30
0.0
 10
45.0916433368793
 20
158.9086392274322
 30
0.0
 10
45.08545375012427
 20
158.9103915131295
 30
0.0
  0
LINE
  5
EA
330
1F
100
AcDbEntity
  8
0
  6
Continuous
 62
     7
370
    15
100
AcDbLine
 10
45.5045302822
 20
241.1136805414
 30
0.0
 11
44.7203231468
 21
241.1136805414
 31
0.0
  0
LINE
  5
EB
330
1F
100
AcDbEntity
  8
0
  6
Continuous
 62
     7
370
    15
100
AcDbLine
 10
45.1124285772
 20
241.099977061
 30
0.0
 11
45.0022307649
 21
241.0956305786
 31
0.0
  0
SPLINE
  5
EC
330
1F
100
AcDbEntity
  8
0
  6
Continuous
 62
     7
370
    15
100
AcDbSpline
210
0.0
220
0.0
230
1.0
 70
     8
 71
     3
 72
    18
 73
    14
 74
     0
 42
0.00000001
 43
0.00000001
 40
0.0
 40
0.0
 40
0.0
 40
0.0
 40
0.0327485815813808
 40
0.1370740135758366
 40
0.2422823864074351
 40
0.3500223975674051
 40
0.4581513405809063
 40
0.5637257768830111
 40
0.667829748602055
 40
0.7737873063856125
 40
0.8820546747514167
 40
0.9895402342706466
 40
1.0
 40
1.0
 40
1.0
 40
1.0
 10
43.48214841031103
 20
240.9073371774161
 30
0.0
 10
43.47649464099401
 20
240.906018879565
 30
0.0
 10
43.45282995645831
 20
240.9005009496634
 30
0.0
 10
43.5952324069622
 20
240.9340662097205
 30
0.0
 10
43.89595170195535
 20
240.9953326155528
 30
0.0
 10
44.34807031571051
 20
241.0633885637902
 30
0.0
 10
44.88619223815816
 20
241.1039398128532
 30
0.0
 10
45.44588062818339
 20
241.0990055433668
 30
0.0
 10
45.96125455173004
 20
241.0527334727603
 30
0.0
 10
46.39203714948227
 20
240.9835965480222
 30
0.0
 10
46.66713027426151
 20
240.9255192739201
 30
0.0
 10
46.78666151164384
 20
240.8971300772507
 30
0.0
 10
46.75701653934404
 20
240.9039855371706
 30
0.0
 10
46.75438752912549
 20
240.9045935011113
 30
0.0
  0
LINE
  5
ED
330
1F
100
AcDbEntity
  8
0
  6
Continuous
 62
     7
370
    15
100
AcDbLine
 10
45.3305964782
 20
241.0929288118
 30
0.0
 11
45.1124285772
 21
241.099977061
 31
0.0
  0
LINE
  5
EE
330
1F
100
AcDbEntity
  8
0
  6
Continuous
 62
     7
370
    15
100
AcDbLine
 10
37.1124272659
 20
240.9027336499
 30
0.0
 11
37.1124272659
 21
254.9027340821
 31
0.0
  0
LINE
  5
EF
330
1F
100
AcDbEntity
  8
0
  6
Continuous
 62
     7
370
    15
100
AcDbLine
 10
45.1124285772
 20
184.4027318394
 30
0.0
 11
41.1124279215
 21
184.4027318394
 31
0.0
  0
LINE
  5
F0
330
1F
100
AcDbEntity
  8
0
  6
Continuous
 62
     7
370
    15
100
AcDbLine
 10
41.1124279215
 20
157.402736727
 30
0.0
 11
45.1124285772
 21
157.402736727
 31
0.0
  0
LINE
  5
F1
330
1F
100
AcDbEntity
  8
0
  6
Continuous
 62
     7
370
    15
100
AcDbLine
 10
41.6124289348
 20
184.9027328527
 30
0.0
 11
44.6124275639
 21
184.9027328527
 31
0.0
  0
LINE
  5
F2
330
1F
100
AcDbEntity
  8
0
  6
Continuous
 62
     7
370
    15
100
AcDbLine
 10
44.6124275639
 20
156.9027357137
 30
0.0
 11
41.6124289348
 21
156.9027357137
 31
0.0
  0
LINE
  5
F3
330
1F
100
AcDbEntity
  8
0
  6
Continuous
 62
     7
370
    15
100
AcDbLine
 10
38.1124292924
 20
172.9027308858
 30
0.0
 11
38.1124292924
 21
158.9027323163
 31
0.0
  0
LINE
  5
F4
330
1F
100
AcDbEntity
  8
0
  6
Continuous
 62
     7
370
    15
100
AcDbLine
 10
158.6124276235
 20
256.9027334786
 30
0.0
 11
151.6124283388
 21
256.9027334786
 31
0.0
  0
LINE
  5
F5
330
1F
100
AcDbEntity
  8
0
  6
Continuous
 62
     7
370
    15
100
AcDbLine
 10
158.6124276235
 20
238.9027342534
 30
0.0
 11
151.6124283388
 21
238.9027342534
 31
0.0
  0
LINE
  5
F6
330
1F
100
AcDbEntity
  8
0
  6
Continuous
 62
     7
370
    15
100
AcDbLine
 10
151.6124283388
 20
256.9027334786
 30
0.0
 11
151.6124283388
 21
238.9027342534
 31
0.0
  0
LINE
  5
F7
330
1F
100
AcDbEntity
  8
0
  6
Continuous
 62
     7
370
    15
100
AcDbLine
 10
158.6124276235
 20
238.9027342534
 30
0.0
 11
158.6124276235
 21
256.9027334786
 31
0.0
  0
LINE
  5
F8
330
1F
100
AcDbEntity
  8
0
  6
Continuous
 62
     7
370
    15
100
AcDbLine
 10
55.6124275043
 20
238.9027342534
 30
0.0
 11
48.6124282195
 21
238.9027342534
 31
0.0
  0
LINE
  5
F9
330
1F
100
AcDbEntity
  8
0
  6
Continuous
 62
     7
370
    15
100
AcDbLine
 10
48.6124282195
 20
238.9027342534
 30
0.0
 11
48.6124282195
 21
256.9027334786
 31
0.0
  0
LINE
  5
FA
330
1F
100
AcDbEntity
  8
0
  6
Continuous
 62
     7
370
    15
100
AcDbLine
 10
55.6124275043
 20
256.9027334786
 30
0.0
 11
48.6124282195
 21
256.9027334786
 31
0.0
  0
LINE
  5
FB
330
1F
100
AcDbEntity
  8
0
  6
Continuous
 62
     7
370
    15
100
AcDbLine
 10
55.6124275043
 20
238.9027342534
 30
0.0
 11
55.6124275043
 21
256.9027334786
 31
0.0
  0
LINE
  5
FC
330
1F
100
AcDbEntity
  8
0
  6
Continuous
 62
     7
370
    15
100
AcDbLine
 10
150.6124263122
 20
256.9027334786
 30
0.0
 11
151.6124283388
 21
256.9027334786
 31
0.0
  0
LINE
  5
FD
330
1F
100
AcDbEntity
  8
0
  6
Continuous
 62
     7
370
    15
100
AcDbLine
 10
56.6124295308
 20
238.9027342534
 30
0.0
 11
55.6124275043
 21
238.9027342534
 31
0.0
  0
LINE
  5
FE
330
1F
100
AcDbEntity
  8
0
  6
Continuous
 62
     7
370
    15
100
AcDbLine
 10
151.6124283388
 20
238.9027342534
 30
0.0
 11
150.6124263122
 21
238.9027342534
 31
0.0
  0
LINE
  5
FF
330
1F
100
AcDbEntity
  8
0
  6
Continuous
 62
     7
370
    15
100
AcDbLine
 10
55.6124275043
 20
256.9027334786
 30
0.0
 11
56.6124295308
 21
256.9027334786
 31
0.0
  0
LINE
  5
100
330
1F
100
AcDbEntity
  8
0
  6
Continuous
 62
     7
370
    15
100
AcDbLine
 10
56.6124295308
 20
256.9027334786
 30
0.0
 11
150.6124263122
 21
256.9027334786
 31
0.0
  0
LINE
  5
101
330
1F
100
AcDbEntity
  8
0
  6
Continuous
 62
     7
370
    15
100
AcDbLine
 10
150.6124263122
 20
238.9027342534
 30
0.0
 11
56.6124295308
 21
238.9027342534
 31
0.0
  0
DIMENSION
  5
102
330
1F
100
AcDbEntity
  8
0
  6
Continuous
 62
     7
370
     0
100
AcDbDimension
  2
*D4
 10
21.1124279215
 20
158.902733866
 30
0.0
 11
21.1124279215
 21
171.902733866
 31
0.0
 70
   160
 71
     2
 42
-1.0
  3
SLDDIMSTYLE0
100
AcDbAlignedDimension
 13
41.6124279215
 23
184.902733866
 33
0.0
 14
38.1124279215
 24
158.902733866
 34
0.0
 50
90.0
100
AcDbRotatedDimension
  0
DIMENSION
  5
10D
330
1F
100
AcDbEntity
  8
0
  6
Continuous
 62
     7
370
     0
100
AcDbDimension
  2
*D5
 10
183.1124279215
 20
146.902733866
 30
0.0
 11
110.6124279215
 21
146.902733866
 31
0.0
 70
   160
 71
     2
 42
-1.0
  3
SLDDIMSTYLE0
100
AcDbAlignedDimension
 13
38.1124279215
 23
158.902733866
 33
0.0
 14
183.1124279215
 24
179.902733866
 34
0.0
100
AcDbRotatedDimension
  0
DIMENSION
  5
117
330
1F
100
AcDbEntity
  8
0
  6
Continuous
 62
     7
370
     0
100
AcDbDimension
  2
*D6
 10
30.3944338286
 20
158.902733866
 30
0.0
 11
30.3944338286
 21
165.902733866
 31
0.0
 70
   160
  1
%%c<>
 71
     2
 42
-1.0
  3
SLDDIMSTYLE0
100
AcDbAlignedDimension
 13
38.1124279215
 23
172.902733866
 33
0.0
 14
38.1124279215
 24
158.902733866
 34
0.0
 50
90.0
100
AcDbRotatedDimension
  0
DIMENSION
  5
122
330
1F
100
AcDbEntity
  8
0
  6
Continuous
 62
     7
370
     0
100
AcDbDimension
  2
*D7
 10
183.1124279215
 20
278.5098233703
 30
0.0
 11
110.1124279215
 21
278.5098233703
 31
0.0
 70
   160
 71
     2
 42
-1.0
  3
SLDDIMSTYLE0
100
AcDbAlignedDimension
 13
37.1124279215
 23
254.902733866
 33
0.0
 14
183.1124279215
 24
233.902733866
 34
0.0
100
AcDbRotatedDimension
  0
DIMENSION
  5
12C
330
1F
100
AcDbEntity
  8
0
  6
Continuous
 62
     7
370
     0
100
AcDbDimension
  2
*D8
 10
158.6124279215
 20
266.902733866
 30
0.0
 11
103.6124279215
 21
266.902733866
 31
0.0
 70
   160
 71
     2
 42
-1.0
  3
SLDDIMSTYLE0
100
AcDbAlignedDimension
 13
48.6124279215
 23
256.902733866
 33
0.0
 14
158.6124279215
 24
256.902733866
 34
0.0
100
AcDbRotatedDimension
  0
DIMENSION
  5
136
330
1F
100
AcDbEntity
  8
0
  6
Continuous
 62
     7
370
     0
100
AcDbDimension
  2
*D9
 10
193.8932060672
 20
158.902733866
 30
0.0
 11
193.8932060672
 21
207.902733866
 31
0.0
 70
   160
 71
     2
 42
-1.0
  3
SLDDIMSTYLE0
100
AcDbAlignedDimension
 13
158.6124279215
 23
256.902733866
 33
0.0
 14
162.1124279215
 24
158.902733866
 34
0.0
 50
90.0
100
AcDbRotatedDimension
  0
DIMENSION
  5
140
330
1F
100
AcDbEntity
  8
0
  6
Continuous
 62
     7
370
     0
100
AcDbDimension
  2
*D10
 10
132.6581881761
 20
172.902733866
 30
0.0
 11
132.6581881761
 21
205.902733866
 31
0.0
 70
   160
 71
     2
 42
-1.0
  3
SLDDIMSTYLE0
100
AcDbAlignedDimension
 13
158.6124279215
 23
238.902733866
 33
0.0
 14
162.1124279215
 24
172.902733866
 34
0.0
 50
90.0
100
AcDbRotatedDimension
  0
LINE
  5
148
330
1F
100
AcDbEntity
  8
0
  6
Continuous
 62
     7
370
    15
100
AcDbLine
 10
112.651809566
 20
115.1235987985
 30
0.0
 11
150.305248214
 21
125.2113711531
 31
0.0
  0
LINE
  5
149
330
1F
100
AcDbEntity
  8
0
  6
Continuous
 62
     7
370
    15
100
AcDbLine
 10
148.4937552623
 20
131.9729162842
 30
0.0
 11
110.8403166143
 21
121.8851439297
 31
0.0
  0
LINE
  5
14A
330
1F
100
AcDbEntity
  8
0
  6
Continuous
 62
     7
370
    15
100
AcDbLine
 10
107.1717314428
 20
74.1542367731
 30
0.0
 11
150.305248214
 21
85.710182622
 31
0.0
  0
LINE
  5
14B
330
1F
100
AcDbEntity
  8
0
  6
Continuous
 62
     7
370
    15
100
AcDbLine
 10
148.4937552623
 20
92.4717268558
 30
0.0
 11
108.3266443248
 21
81.7105139141
 31
0.0
  0
LINE
  5
14C
330
1F
100
AcDbEntity
  8
0
  6
Continuous
 62
     7
370
    15
100
AcDbLine
 10
106.326644654
 20
81.1746918986
 30
0.0
 11
105.3602384911
 21
80.9157810069
 31
0.0
  0
SPLINE
  5
14D
330
1F
100
AcDbEntity
  8
0
  6
Continuous
 62
     7
370
    15
100
AcDbSpline
210
0.0
220
0.0
230
1.0
 70
     8
 71
     3
 72
     9
 73
     5
 74
     0
 42
0.00000001
 43
0.00000001
 40
0.0
 40
0.0
 40
0.0
 40
0.0
 40
0.4756882286947317
 40
1.0
 40
1.0
 40
1.0
 40
1.0
 10
150.3052482140274
 20
125.2113711531069
 30
0.0
 10
150.3209193111107
 20
125.2147496902352
 30
0.0
 10
150.3538633617264
 20
125.2218521092664
 30
0.0
 10
150.3467303235026
 20
125.221128639278
 30
0.0
 10
150.3429903875966
 20
125.2207493154469
 30
0.0
  0
SPLINE
  5
14E
330
1F
100
AcDbEntity
  8
0
  6
Continuous
 62
     7
370
    15
100
AcDbSpline
210
0.0
220
0.0
230
1.0
 70
     8
 71
     3
 72
    13
 73
     9
 74
     0
 42
0.00000001
 43
0.00000001
 40
0.0
 40
0.0
 40
0.0
 40
0.0
 40
0.0896413371216174
 40
0.2821542310298059
 40
0.4819034186112316
 40
0.6769275342887221
 40
0.8726759338506935
 40
1.0
 40
1.0
 40
1.0
 40
1.0
 10
150.316106295875
 20
125.1892674486022
 30
0.0
 10
150.3262732158062
 20
125.1794657780152
 30
0.0
 10
150.3582745175185
 20
125.1486141317092
 30
0.0
 10
150.4773515128828
 20
124.9766363352019
 30
0.0
 10
150.6288511635588
 20
124.6476276307758
 30
0.0
 10
150.762831773529
 20
124.1744067435968
 30
0.0
 10
150.8380354126686
 20
123.6682517326429
 30
0.0
 10
150.8460786025499
 20
123.3138146977847
 30
0.0
 10
150.8492484537419
 20
123.1741297377164
 30
0.0
  0
SPLINE
  5
14F
330
1F
100
AcDbEntity
  8
0
  6
Continuous
 62
     7
370
    15
100
AcDbSpline
210
0.0
220
0.0
230
1.0
 70
     8
 71
     3
 72
    21
 73
    17
 74
     0
 42
0.00000001
 43
0.00000001
 40
0.0
 40
0.0
 40
0.0
 40
0.0
 40
0.0456897189491471
 40
0.1261213624998397
 40
0.2071463260297263
 40
0.288263760770735
 40
0.3688935766787592
 40
0.4483227386134242
 40
0.525942026895596
 40
0.6014694273579015
 40
0.6750002896667993
 40
0.7469126353018494
 40
0.8177486837787605
 40
0.8880367638403917
 40
0.9583229452302255
 40
1.0
 40
1.0
 40
1.0
 40
1.0
 10
157.8492489477054
 20
123.1741300023634
 30
0.0
 10
157.8449768482727
 20
123.4188643853844
 30
0.0
 10
157.8331841952737
 20
124.0944262961837
 30
0.0
 10
157.7062171098246
 20
125.183201099751
 30
0.0
 10
157.4280683589361
 20
126.412605687823
 30
0.0
 10
157.0092676361974
 20
127.5790176077288
 30
0.0
 10
156.4556687987642
 20
128.6567974468704
 30
0.0
 10
155.7760562056043
 20
129.620914913262
 30
0.0
 10
154.9864107070286
 20
130.4498015678633
 30
0.0
 10
154.1070736609301
 20
131.1280297012173
 30
0.0
 10
153.160032101223
 20
131.647233311364
 30
0.0
 10
152.166386208609
 20
132.0046900946831
 30
0.0
 10
151.1450715207841
 20
132.2023321192895
 30
0.0
 10
150.1134652703644
 20
132.2411539994439
 30
0.0
 10
149.2253704811236
 20
132.1499230585825
 30
0.0
 10
148.6922160134774
 20
132.020931820952
 30
0.0
 10
148.4937552623326
 20
131.972916284246
 30
0.0
  0
LINE
  5
150
330
1F
100
AcDbEntity
  8
0
  6
Continuous
 62
     7
370
    15
100
AcDbLine
 10
157.8492489477
 20
97.1611498584
 30
0.0
 11
157.8492489477
 21
123.1741300024
 31
0.0
  0
LINE
  5
151
330
1F
100
AcDbEntity
  8
0
  6
Continuous
 62
     7
370
    15
100
AcDbLine
 10
150.8492484537
 20
123.1741297377
 30
0.0
 11
150.8492484537
 21
97.1611495938
 31
0.0
  0
SPLINE
  5
152
330
1F
100
AcDbEntity
  8
0
  6
Continuous
 62
     7
370
    15
100
AcDbSpline
210
0.0
220
0.0
230
1.0
 70
     8
 71
     3
 72
    18
 73
    14
 74
     0
 42
0.00000001
 43
0.00000001
 40
0.0
 40
0.0
 40
0.0
 40
0.0
 40
0.0500911887085199
 40
0.1524931151836908
 40
0.2557316243718113
 40
0.3593337903596747
 40
0.462439929764857
 40
0.564400271581395
 40
0.6649909270314303
 40
0.7646243204497649
 40
0.8647412582292868
 40
0.9672947582396388
 40
0.9999999999999999
 40
0.9999999999999999
 40
0.9999999999999999
 40
0.9999999999999999
 10
150.8492484537419
 20
97.1611495937935
 30
0.0
 10
150.847320753289
 20
97.04996271936908
 30
0.0
 10
150.8414522351969
 20
96.71147538685284
 30
0.0
 10
150.7710503568091
 20
96.11171976512045
 30
0.0
 10
150.605460235736
 20
95.38397967792112
 30
0.0
 10
150.3599654723395
 20
94.68028950926434
 30
0.0
 10
150.0503167997076
 20
94.03712272246806
 30
0.0
 10
149.6985703914783
 20
93.4852086214168
 30
0.0
 10
149.3338277861137
 20
93.04754968514749
 30
0.0
 10
148.989379094097
 20
92.73602086290913
 30
0.0
 10
148.7034416452074
 20
92.55029201840149
 30
0.0
 10
148.5541251167248
 20
92.48901775081873
 30
0.0
 10
148.5055102269472
 20
92.47509366631205
 30
0.0
 10
148.4937552623326
 20
92.47172685582632
 30
0.0
  0
SPLINE
  5
153
330
1F
100
AcDbEntity
  8
0
  6
Continuous
 62
     7
370
    15
100
AcDbSpline
210
0.0
220
0.0
230
1.0
 70
     8
 71
     3
 72
    20
 73
    16
 74
     0
 42
0.00000001
 43
0.00000001
 40
0.0
 40
0.0
 40
0.0
 40
0.0
 40
0.0548157716804936
 40
0.1334258284989683
 40
0.2132501673915367
 40
0.2948853929336681
 40
0.3780685854275973
 40
0.4623452558028162
 40
0.5472366714661454
 40
0.6323351643220442
 40
0.717512464122576
 40
0.8027980273944472
 40
0.8883052675656414
 40
0.9741370838950661
 40
1.0
 40
1.0
 40
1.0
 40
1.0
 10
150.3052482140274
 20
85.71018262196402
 30
0.0
 10
150.5447427084657
 20
85.78196048578121
 30
0.0
 10
151.1276908338269
 20
85.9566733586295
 30
0.0
 10
152.0201465737166
 20
86.37011520778215
 30
0.0
 10
152.9698385215991
 20
86.9584725834343
 30
0.0
 10
153.8693971272651
 20
87.68436431295025
 30
0.0
 10
154.7078560314073
 20
88.53797914994725
 30
0.0
 10
155.4706117408921
 20
89.50770863296155
 30
0.0
 10
156.1442043388631
 20
90.57681460138268
 30
0.0
 10
156.7176078321831
 20
91.72690990429392
 30
0.0
 10
157.1823068855552
 20
92.93935458831703
 30
0.0
 10
157.5322696810473
 20
94.19673846376885
 30
0.0
 10
157.7605445524844
 20
95.48162284824757
 30
0.0
 10
157.8427264860222
 20
96.47440099007967
 30
0.0
 10
157.8480226263696
 20
97.03203069599348
 30
0.0
 10
157.8492489477055
 20
97.16114985844051
 30
0.0
  0
LINE
  5
154
330
1F
100
AcDbEntity
  8
0
  6
Continuous
 62
     7
370
    15
100
AcDbLine
 10
108.9380689854
 20
114.930978054
 30
0.0
 11
112.6947071552
 21
115.9374229375
 31
0.0
  0
LINE
  5
155
330
1F
100
AcDbEntity
  8
0
  6
Continuous
 62
     7
370
    15
100
AcDbLine
 10
107.5015041906
 20
114.5461064687
 30
0.0
 11
108.5096410019
 21
114.8161974623
 31
0.0
  0
LINE
  5
156
330
1F
100
AcDbEntity
  8
0
  6
Continuous
 62
     7
370
    15
100
AcDbLine
 10
111.2843310291
 20
121.2017688978
 30
0.0
 11
106.0911280645
 21
119.810452429
 31
0.0
  0
LINE
  5
157
330
1F
100
AcDbEntity
  8
0
  6
Continuous
 62
     7
370
    15
100
AcDbLine
 10
45.3547001313
 20
83.7759013693
 30
0.0
 11
44.8744213167
 21
84.2203726897
 31
0.0
  0
LINE
  5
158
330
1F
100
AcDbEntity
  8
0
  6
Continuous
 62
     7
370
    15
100
AcDbLine
 10
43.9138626998
 20
84.2203727779
 30
0.0
 11
43.4335828974
 21
83.7759015457
 31
0.0
  0
LINE
  5
159
330
1F
100
AcDbEntity
  8
0
  6
Continuous
 62
     7
370
    15
100
AcDbLine
 10
43.3941413497
 20
83.7014016431
 30
0.0
 11
43.3941413497
 21
82.8583885348
 31
0.0
  0
LINE
  5
15A
330
1F
100
AcDbEntity
  8
0
  6
Continuous
 62
     7
370
    15
100
AcDbLine
 10
45.3941413497
 20
82.8583884466
 30
0.0
 11
45.3941413497
 21
83.7014015549
 31
0.0
  0
LINE
  5
15B
330
1F
100
AcDbEntity
  8
0
  6
Continuous
 62
     7
370
    15
100
AcDbLine
 10
43.4335825681
 20
82.7838887204
 30
0.0
 11
43.5536536711
 21
82.6727707724
 31
0.0
  0
LINE
  5
15C
330
1F
100
AcDbEntity
  8
0
  6
Continuous
 62
     7
370
    15
100
AcDbLine
 10
45.234632321
 20
82.6727710371
 30
0.0
 11
45.3547024362
 21
82.7838892497
 31
0.0
  0
LINE
  5
15D
330
1F
100
AcDbEntity
  8
0
  6
Continuous
 62
     7
370
    15
100
AcDbLine
 10
42.4714615543
 20
96.3215079423
 30
0.0
 11
47.4212085168
 21
97.6475998576
 31
0.0
  0
LINE
  5
15E
330
1F
100
AcDbEntity
  8
0
  6
Continuous
 62
     7
370
    15
100
AcDbLine
 10
45.6097155651
 20
104.4091449887
 30
0.0
 11
40.6599686026
 21
103.0830530735
 31
0.0
  0
LINE
  5
15F
330
1F
100
AcDbEntity
  8
0
  6
Continuous
 62
     7
370
    15
100
AcDbLine
 10
108.2872047527
 20
86.8055235559
 30
0.0
 11
108.0470655101
 21
87.0277600693
 31
0.0
  0
LINE
  5
160
330
1F
100
AcDbEntity
  8
0
  6
Continuous
 62
     7
370
    15
100
AcDbLine
 10
106.60622742
 20
87.0277602457
 30
0.0
 11
106.3660875188
 21
86.8055237323
 31
0.0
  0
LINE
  5
161
330
1F
100
AcDbEntity
  8
0
  6
Continuous
 62
     7
370
    15
100
AcDbLine
 10
108.3266459711
 20
73.72453681
 30
0.0
 11
108.3266459711
 21
74.4636488515
 31
0.0
  0
LINE
  5
162
330
1F
100
AcDbEntity
  8
0
  6
Continuous
 62
     7
370
    15
100
AcDbLine
 10
108.3266459711
 20
81.1216905145
 30
0.0
 11
108.3266459711
 21
86.7310237415
 31
0.0
  0
LINE
  5
163
330
1F
100
AcDbEntity
  8
0
  6
Continuous
 62
     7
370
    15
100
AcDbLine
 10
106.3266459711
 20
86.7310238297
 30
0.0
 11
106.3266459711
 21
81.1216906027
 31
0.0
  0
LINE
  5
164
330
1F
100
AcDbEntity
  8
0
  6
Continuous
 62
     7
370
    15
100
AcDbLine
 10
106.3266459711
 20
73.9341874221
 30
0.0
 11
106.3266459711
 21
73.7245368982
 31
0.0
  0
LINE
  5
165
330
1F
100
AcDbEntity
  8
0
  6
Continuous
 62
     7
370
    15
100
AcDbLine
 10
106.3660871895
 20
73.6500370838
 30
0.0
 11
106.6062264322
 21
73.4278005704
 31
0.0
  0
LINE
  5
166
330
1F
100
AcDbEntity
  8
0
  6
Continuous
 62
     7
370
    15
100
AcDbLine
 10
108.0470645223
 20
73.427800394
 30
0.0
 11
108.2872044234
 21
73.6500369074
 31
0.0
  0
LINE
  5
167
330
1F
100
AcDbEntity
  8
0
  6
Continuous
 62
     7
370
    15
100
AcDbLine
 10
105.3602384911
 20
80.9157810069
 30
0.0
 11
104.6531329111
 21
80.7263396072
 31
0.0
  0
LINE
  5
168
330
1F
100
AcDbEntity
  8
0
  6
Continuous
 62
     7
370
    15
100
AcDbLine
 10
106.4646258628
 20
73.9647953734
 30
0.0
 11
107.1717314428
 21
74.1542367731
 31
0.0
  0
LINE
  5
169
330
1F
100
AcDbEntity
  8
0
  6
Continuous
 62
     7
370
    15
100
AcDbLine
 10
60.9382454749
 20
100.2336972439
 30
0.0
 11
63.4131189562
 21
100.8967432015
 31
0.0
  0
LINE
  5
16A
330
1F
100
AcDbEntity
  8
0
  6
Continuous
 62
     7
370
    15
100
AcDbLine
 10
55.6759406119
 20
107.2704509897
 30
0.0
 11
55.7820071075
 21
107.2988673761
 31
0.0
  0
LINE
  5
16B
330
1F
100
AcDbEntity
  8
0
  6
Continuous
 62
     7
370
    15
100
AcDbLine
 10
55.5266007863
 20
107.781043597
 30
0.0
 11
55.4205342908
 21
107.7526272106
 31
0.0
  0
LINE
  5
16C
330
1F
100
AcDbEntity
  8
0
  6
Continuous
 62
     7
370
    15
100
AcDbLine
 10
55.6655079498
 20
104.7636527187
 30
0.0
 11
55.7980900814
 21
104.799172937
 31
0.0
  0
LINE
  5
16D
330
1F
100
AcDbEntity
  8
0
  6
Continuous
 62
     7
370
    15
100
AcDbLine
 10
55.6479062899
 20
103.6628723213
 30
0.0
 11
55.7804884215
 21
103.6983925397
 31
0.0
  0
LINE
  5
16E
330
1F
100
AcDbEntity
  8
0
  6
Continuous
 62
     7
370
    15
100
AcDbLine
 10
55.527481178
 20
104.1836537576
 30
0.0
 11
55.3948990464
 21
104.1481335393
 31
0.0
  0
LINE
  5
16F
330
1F
100
AcDbEntity
  8
0
  6
Continuous
 62
     7
370
    15
100
AcDbLine
 10
60.9053625366
 20
105.2812522166
 30
0.0
 11
61.4356925448
 21
105.1391709462
 31
0.0
  0
LINE
  5
170
330
1F
100
AcDbEntity
  8
0
  6
Continuous
 62
     7
370
    15
100
AcDbLine
 10
71.7979932755
 20
111.3647536878
 30
0.0
 11
72.6037186944
 21
111.7439124406
 31
0.0
  0
LINE
  5
171
330
1F
100
AcDbEntity
  8
0
  6
Continuous
 62
     7
370
    15
100
AcDbLine
 10
73.5547860387
 20
105.7281883179
 30
0.0
 11
71.8688852625
 21
107.4248831755
 31
0.0
  0
SPLINE
  5
172
330
1F
100
AcDbEntity
  8
0
  6
Continuous
 62
     7
370
    15
100
AcDbSpline
210
0.0
220
0.0
230
1.0
 70
     8
 71
     3
 72
    11
 73
     7
 74
     0
 42
0.00000001
 43
0.00000001
 40
0.0
 40
0.0
 40
0.0
 40
0.0
 40
0.174516172579652
 40
0.4925065506627263
 40
0.811918473276015
 40
1.0
 40
1.0
 40
1.0
 40
1.0
 10
71.47884449697527
 20
110.6561369065468
 30
0.0
 10
71.48134734217338
 20
110.7175338204508
 30
0.0
 10
71.48841068557098
 20
110.8908036202705
 30
0.0
 10
71.56448214866118
 20
111.1351516815046
 30
0.0
 10
71.68570965709583
 20
111.3000560421428
 30
0.0
 10
71.76763209936026
 20
111.347259625522
 30
0.0
 10
71.79799327551765
 20
111.3647536878403
 30
0.0
  0
LINE
  5
173
330
1F
100
AcDbEntity
  8
0
  6
Continuous
 62
     7
370
    15
100
AcDbLine
 10
71.478844497
 20
108.4314188856
 30
0.0
 11
71.478844497
 21
110.6561369065
 31
0.0
  0
SPLINE
  5
174
330
1F
100
AcDbEntity
  8
0
  6
Continuous
 62
     7
370
    15
100
AcDbSpline
210
0.0
220
0.0
230
1.0
 70
     8
 71
     3
 72
    11
 73
     7
 74
     0
 42
0.00000001
 43
0.00000001
 40
0.0
 40
0.0
 40
0.0
 40
0.0
 40
0.1701042670750699
 40
0.4852163492829303
 40
0.8083992470071608
 40
0.9999999999999999
 40
0.9999999999999999
 40
0.9999999999999999
 40
0.9999999999999999
 10
71.86888526252974
 20
107.4248831755187
 30
0.0
 10
71.83130027440875
 20
107.4664408056985
 30
0.0
 10
71.7240904375393
 20
107.5849824622216
 30
0.0
 10
71.57891108156198
 20
107.854362689017
 30
0.0
 10
71.49043717306623
 20
108.1693439814583
 30
0.0
 10
71.48198891162622
 20
108.3603333000292
 30
0.0
 10
71.47884449697527
 20
108.4314188855967
 30
0.0
  0
LINE
  5
175
330
1F
100
AcDbEntity
  8
0
  6
Continuous
 62
     7
370
    15
100
AcDbLine
 10
81.2378685736
 20
113.8938006084
 30
0.0
 11
82.0435939925
 21
114.2729593612
 31
0.0
  0
LINE
  5
176
330
1F
100
AcDbEntity
  8
0
  6
Continuous
 62
     7
370
    15
100
AcDbLine
 10
82.9946613367
 20
108.2572352385
 30
0.0
 11
81.3087605606
 21
109.9539300961
 31
0.0
  0
SPLINE
  5
177
330
1F
100
AcDbEntity
  8
0
  6
Continuous
 62
     7
370
    15
100
AcDbSpline
210
0.0
220
0.0
230
1.0
 70
     8
 71
     3
 72
    11
 73
     7
 74
     0
 42
0.00000001
 43
0.00000001
 40
0.0
 40
0.0
 40
0.0
 40
0.0
 40
0.1745161819904991
 40
0.4925065450834244
 40
0.8119183864280412
 40
1.0
 40
1.0
 40
1.0
 40
1.0
 10
80.91872012433399
 20
113.185183915361
 30
0.0
 10
80.92122284457118
 20
113.2465807952325
 30
0.0
 10
80.92828583485247
 20
113.4198504877018
 30
0.0
 10
81.0043572989814
 20
113.6641985362466
 30
0.0
 10
81.1255855495431
 20
113.8291031524301
 30
0.0
 10
81.20750754817516
 20
113.8763065916585
 30
0.0
 10
81.23786857360412
 20
113.8938006084388
 30
0.0
  0
LINE
  5
178
330
1F
100
AcDbEntity
  8
0
  6
Continuous
 62
     7
370
    15
100
AcDbLine
 10
80.9187201243
 20
110.9604658944
 30
0.0
 11
80.9187201243
 21
113.1851839154
 31
0.0
  0
SPLINE
  5
179
330
1F
100
AcDbEntity
  8
0
  6
Continuous
 62
     7
370
    15
100
AcDbSpline
210
0.0
220
0.0
230
1.0
 70
     8
 71
     3
 72
    11
 73
     7
 74
     0
 42
0.00000001
 43
0.00000001
 40
0.0
 40
0.0
 40
0.0
 40
0.0
 40
0.1701042876061204
 40
0.4852163620183244
 40
0.8083992517472319
 40
1.0
 40
1.0
 40
1.0
 40
1.0
 10
81.30876056061621
 20
109.9539300961172
 30
0.0
 10
81.27117570415996
 20
109.995487759723
 30
0.0
 10
81.16396625298543
 20
110.1140295003961
 30
0.0
 10
81.01878664531577
 20
110.3834096848071
 30
0.0
 10
80.93031280914423
 20
110.698390992058
 30
0.0
 10
80.92186454134998
 20
110.8893803093277
 30
0.0
 10
80.91872012433399
 20
110.9604658944109
 30
0.0
  0
LINE
  5
17A
330
1F
100
AcDbEntity
  8
0
  6
Continuous
 62
     7
370
    15
100
AcDbLine
 10
97.3542447482
 20
109.9899459139
 30
0.0
 11
99.8291182295
 21
110.6529918716
 31
0.0
  0
LINE
  5
17B
330
1F
100
AcDbEntity
  8
0
  6
Continuous
 62
     7
370
    15
100
AcDbLine
 10
89.1896331519
 20
112.8589209084
 30
0.0
 11
89.7199631601
 21
112.7168396381
 31
0.0
  0
LINE
  5
17C
330
1F
100
AcDbEntity
  8
0
  6
Continuous
 62
     7
370
    15
100
AcDbLine
 10
90.6386485538
 20
116.1459088759
 30
0.0
 11
90.1083185456
 21
116.2879901462
 31
0.0
  0
LWPOLYLINE
  5
17D
330
1F
100
AcDbEntity
  8
0
  6
Continuous
 62
     7
370
    15
100
AcDbPolyline
 90
       13
 70
   128
 43
0.0
 10
114.220936736
 20
117.8413253624
 10
114.1588866968
 20
118.608301594
 10
113.9758475436
 20
119.3700663011
 10
113.680997411
 20
120.0884215754
 10
113.2891219405
 20
120.7273458064
 10
112.8198707829
 20
121.2548009045
 10
112.2967743923
 20
121.6443380392
 10
111.7460632547
 20
121.8764242019
 10
111.195351788
 20
121.9394213277
 10
110.6722557266
 20
121.8301707133
 10
110.203004569
 20
121.5541507576
 10
109.8111287692
 20
121.1252021538
 10
109.5955025288
 20
120.7493131055
  0
LWPOLYLINE
  5
17E
330
1F
100
AcDbEntity
  8
0
  6
Continuous
 62
     7
370
    15
100
AcDbPolyline
 90
       10
 70
   128
 43
0.0
 10
111.0058789841
 20
115.484967057
 10
111.195351788
 20
115.364404689
 10
111.7460632547
 20
115.1323184381
 10
112.2967743923
 20
115.0693214005
 10
112.8198707829
 20
115.1785719267
 10
113.2891219405
 20
115.4545918824
 10
113.680997411
 20
115.8835405744
 10
113.9758475436
 20
116.4439086303
 10
114.1588866968
 20
117.1075969132
 10
114.220936736
 20
117.8413253624
  0
LWPOLYLINE
  5
17F
330
1F
100
AcDbEntity
  8
0
  6
Continuous
 62
     7
370
    15
100
AcDbPolyline
 90
        9
 70
   128
 43
0.0
 10
113.6906068925
 20
117.9834065886
 10
113.6243480953
 20
118.6868913764
 10
113.4300873437
 20
119.3779376676
 10
113.1210633577
 20
120.0094518558
 10
112.7183350736
 20
120.5383973907
 10
112.2493479924
 20
120.9287274161
 10
111.7460632547
 20
121.1538413453
 10
111.2427781878
 20
121.1983985912
 10
110.7974183665
 20
121.0713196052
  0
LWPOLYLINE
  5
180
330
1F
100
AcDbEntity
  8
0
  6
Continuous
 62
     7
370
    15
100
AcDbPolyline
 90
        7
 70
   128
 43
0.0
 10
112.2077948218
 20
115.806973781
 10
112.2493479924
 20
115.8103441369
 10
112.7183350736
 20
115.9493805178
 10
113.1210633577
 20
116.2625353364
 10
113.4300873437
 20
116.7284676423
 10
113.6243480953
 20
117.3154247288
 10
113.6906068925
 20
117.9834065886
  0
SPLINE
  5
181
330
1F
100
AcDbEntity
  8
0
  6
Continuous
 62
     7
370
    15
100
AcDbSpline
210
0.0
220
0.0
230
1.0
 70
     8
 71
     3
 72
    17
 73
    13
 74
     0
 42
0.00000001
 43
0.00000001
 40
0.0
 40
0.0
 40
0.0
 40
0.0
 40
0.0956977633511679
 40
0.2043258935480563
 40
0.3092461813248331
 40
0.4118006331352938
 40
0.5169176088415998
 40
0.6255612172361616
 40
0.7333241927713614
 40
0.8373147156413433
 40
0.9404096753498211
 40
1.0
 40
1.0
 40
1.0
 40
1.0
 10
108.3210081715887
 20
81.12216465530175
 30
0.0
 10
108.3146770096823
 20
81.08124130252521
 30
0.0
 10
108.3011592401083
 20
80.99386516822244
 30
0.0
 10
108.1442739208288
 20
80.88600894982272
 30
0.0
 10
107.9023654396807
 20
80.82554464727681
 30
0.0
 10
107.6009950642983
 20
80.81980857799405
 30
0.0
 10
107.2695118031509
 20
80.85774750048927
 30
0.0
 10
106.9377642558976
 20
80.92242273710437
 30
0.0
 10
106.6472076421874
 20
80.99246564238543
 30
0.0
 10
106.441543586711
 20
81.05217021014008
 30
0.0
 10
106.3328930246746
 20
81.09220725148883
 30
0.0
 10
106.3382262143607
 20
81.11369834596024
 30
0.0
 10
106.3401797192893
 20
81.12157036279133
 30
0.0
  0
LWPOLYLINE
  5
182
330
1F
100
AcDbEntity
  8
0
  6
Continuous
 62
     7
370
    15
100
AcDbPolyline
 90
       25
 70
   128
 43
0.0
 10
108.7231819612
 20
116.6620507966
 10
108.6575257323
 20
117.3591402069
 10
108.4650311969
 20
118.0439042269
 10
108.1588159033
 20
118.6696775248
 10
107.7597491267
 20
119.1938143185
 10
107.2950257919
 20
119.580595767
 10
106.7963162922
 20
119.8036633798
 10
106.2976064632
 20
119.8478154285
 10
105.8328831285
 20
119.7100430149
 10
105.4338160226
 20
119.3997351092
 10
105.1276013875
 20
118.9380385577
 10
104.9351065229
 20
118.3564174527
 10
104.869450294
 20
117.6945081012
 10
104.9351065229
 20
116.9974186909
 10
105.1276013875
 20
116.3126545827
 10
105.4338160226
 20
115.6868814611
 10
105.8328831285
 20
115.1627445792
 10
106.2976064632
 20
114.7759631307
 10
106.7963162922
 20
114.5528954297
 10
107.2950257919
 20
114.5087434692
 10
107.7597491267
 20
114.6465158828
 10
108.1588159033
 20
114.9568238768
 10
108.4650311969
 20
115.4185202519
 10
108.6575257323
 20
116.000141445
 10
108.7231819612
 20
116.6620507966
  0
SPLINE
  5
183
330
1F
100
AcDbEntity
  8
0
  6
Continuous
 62
     7
370
    15
100
AcDbSpline
210
0.0
220
0.0
230
1.0
 70
     8
 71
     3
 72
     9
 73
     5
 74
     0
 42
0.00000001
 43
0.00000001
 40
0.0
 40
0.0
 40
0.0
 40
0.0
 40
0.4659922503313431
 40
1.0
 40
1.0
 40
1.0
 40
1.0
 10
108.9380143261859
 20
114.9311788827215
 30
0.0
 10
108.8895819772113
 20
114.918407903068
 30
0.0
 10
108.7856481694277
 20
114.8910019115639
 30
0.0
 10
108.6057200570413
 20
114.8422474595464
 30
0.0
 10
108.5096370506437
 20
114.8162122043382
 30
0.0
  0
LWPOLYLINE
  5
184
330
1F
100
AcDbEntity
  8
0
  6
Continuous
 62
     7
370
    15
100
AcDbPolyline
 90
       17
 70
   128
 43
0.0
 10
44.0405887243
 20
84.0884018621
 10
43.932202835
 20
84.1318604327
 10
43.894143243
 20
84.1831231795
 10
43.9322025058
 20
84.2343854852
 10
44.0405893829
 20
84.2778437911
 10
44.2028010783
 20
84.3068818334
 10
44.3941418436
 20
84.3170783305
 10
44.5854842553
 20
84.3068817452
 10
44.7476969385
 20
84.2778439675
 10
44.8560824985
 20
84.2343854852
 10
44.8941420906
 20
84.1831227384
 10
44.8560828278
 20
84.1318604327
 10
44.7476959507
 20
84.0884021268
 10
44.5854842553
 20
84.0593640845
 10
44.39414349
 20
84.0491675874
 10
44.2028010783
 20
84.0593641727
 10
44.0405887243
 20
84.0884018621
  0
LWPOLYLINE
  5
185
330
1F
100
AcDbEntity
  8
0
  6
Continuous
 62
     7
370
    15
100
AcDbPolyline
 90
       11
 70
   128
 43
0.0
 10
43.4335828974
 20
83.7759015457
 10
43.3941413497
 20
83.7014016431
 10
43.4702631679
 20
83.5988768552
 10
43.6870346172
 20
83.5119598023
 10
44.0114593251
 20
83.4538844235
 10
44.3941415143
 20
83.4334905471
 10
44.7768256792
 20
83.4538842471
 10
45.1012497285
 20
83.5119601552
 10
45.3180228242
 20
83.5988769435
 10
45.3941413497
 20
83.7014015549
 10
45.3547001313
 20
83.7759013693
  0
ARC
  5
186
330
1F
100
AcDbEntity
  8
0
  6
Continuous
 62
     7
370
    15
100
AcDbCircle
 10
44.3610436571
 20
84.3815861341
 30
0.0
 40
1.840495052355024
100
AcDbArc
 50
248.5178877892
 51
304.1467956048
  0
LWPOLYLINE
  5
187
330
1F
100
AcDbEntity
  8
0
  6
Continuous
 62
     7
370
    15
100
AcDbPolyline
 90
        3
 70
   128
 43
0.0
 10
43.3941413497
 20
82.8583885348
 10
43.4702631679
 20
82.7558637469
 10
43.6870346172
 20
82.668946694
  0
LWPOLYLINE
  5
188
330
1F
100
AcDbEntity
  8
0
  6
Continuous
 62
     7
370
    15
100
AcDbPolyline
 90
        3
 70
   128
 43
0.0
 10
43.7754244611
 20
82.5721966096
 10
43.5857475085
 20
82.6482484906
 10
43.5536536711
 20
82.6727707724
  0
ARC
  5
189
330
1F
100
AcDbEntity
  8
0
  6
Continuous
 62
     7
370
    15
100
AcDbCircle
 10
44.3805164095
 20
84.4289953458
 30
0.0
 40
1.952904967675881
100
AcDbArc
 50
251.9502920669
 51
295.9353441954
  0
LWPOLYLINE
  5
18A
330
1F
100
AcDbEntity
  8
0
  6
Continuous
 62
     7
370
    15
100
AcDbPolyline
 90
       29
 70
   128
 43
0.0
 10
39.0908414325
 20
100.3653265096
 10
39.1528916363
 20
99.5983502338
 10
39.3359309542
 20
98.8365854827
 10
39.6307807575
 20
98.1182302966
 10
40.0226565573
 20
97.4793059774
 10
40.4919077149
 20
96.9518508793
 10
41.0150037763
 20
96.5623138328
 10
41.5657152431
 20
96.3302275819
 10
42.1164263806
 20
96.2672305443
 10
42.6395227712
 20
96.3764810705
 10
43.1087739288
 20
96.6525010262
 10
43.5006493993
 20
97.0814497182
 10
43.7954995319
 20
97.6418177742
 10
43.9785386852
 20
98.3055060571
 10
44.0405887243
 20
99.0392345062
 10
43.9785386852
 20
99.8062107379
 10
43.7954995319
 20
100.567975445
 10
43.5006493993
 20
101.2863307192
 10
43.1087739288
 20
101.9252549502
 10
42.6395227712
 20
102.4527100483
 10
42.1164263806
 20
102.842247183
 10
41.5657152431
 20
103.0743333457
 10
41.0150037763
 20
103.1373304715
 10
40.4919077149
 20
103.0280798571
 10
40.0226565573
 20
102.7520599014
 10
39.6307807575
 20
102.3231112976
 10
39.3359309542
 20
101.7627431535
 10
39.1528916363
 20
101.0990549147
 10
39.0908414325
 20
100.3653265096
  0
LWPOLYLINE
  5
18B
330
1F
100
AcDbEntity
  8
0
  6
Continuous
 62
     7
370
    15
100
AcDbPolyline
 90
       16
 70
   128
 43
0.0
 10
47.4212085168
 20
97.6475998576
 10
47.5892697338
 20
97.7025729857
 10
48.0585208913
 20
97.9785929414
 10
48.4503963619
 20
98.4075416334
 10
48.7452464944
 20
98.9679096894
 10
48.9282856477
 20
99.6315979723
 10
48.9903356869
 20
100.3653264214
 10
48.9282856477
 20
101.1323026531
 10
48.7452464944
 20
101.8940673602
 10
48.4503963619
 20
102.6124226344
 10
48.0585208913
 20
103.2513468654
 10
47.5892697338
 20
103.7788019635
 10
47.0661733431
 20
104.1683390982
 10
46.5154622056
 20
104.4004252609
 10
45.9647507388
 20
104.4634223867
 10
45.6097155651
 20
104.4091449887
  0
LWPOLYLINE
  5
18C
330
1F
100
AcDbEntity
  8
0
  6
Continuous
 62
     7
370
    15
100
AcDbPolyline
 90
       17
 70
   128
 43
0.0
 10
106.7963146458
 20
87.1139661039
 10
106.6337358119
 20
87.0487789537
 10
106.5766456007
 20
86.9718851423
 10
106.6337364704
 20
86.8949913309
 10
106.7963162922
 20
86.8298039161
 10
107.0396333414
 20
86.7862470733
 10
107.3266458065
 20
86.7709517983
 10
107.6136582716
 20
86.7862468968
 10
107.8569746622
 20
86.8298035632
 10
108.0195561303
 20
86.8949914191
 10
108.0766463416
 20
86.9718852305
 10
108.0195554718
 20
87.048779042
 10
107.8569759793
 20
87.1139663685
 10
107.6136586008
 20
87.1575232996
 10
107.3266461357
 20
87.1728185746
 10
107.0396336707
 20
87.157523476
 10
106.7963146458
 20
87.1139661039
  0
LWPOLYLINE
  5
18D
330
1F
100
AcDbEntity
  8
0
  6
Continuous
 62
     7
370
    15
100
AcDbPolyline
 90
       11
 70
   128
 43
0.0
 10
108.2872047527
 20
86.8055235559
 10
108.3266459711
 20
86.7310237415
 10
108.2505248114
 20
86.6284984244
 10
108.0337517158
 20
86.5415816361
 10
107.7093303006
 20
86.4835064337
 10
107.3266461357
 20
86.4631127337
 10
106.9439613123
 20
86.4835059044
 10
106.6195392387
 20
86.5415819889
 10
106.4027651551
 20
86.6284983362
 10
106.3266459711
 20
86.7310238297
 10
106.3660875188
 20
86.8055237323
  0
LWPOLYLINE
  5
18E
330
1F
100
AcDbEntity
  8
0
  6
Continuous
 62
     7
370
    15
100
AcDbPolyline
 90
        9
 70
   128
 43
0.0
 10
106.3266459711
 20
73.7245368982
 10
106.4027651551
 20
73.6220114047
 10
106.6195392387
 20
73.5350950574
 10
106.9439613123
 20
73.4770189729
 10
107.3266461357
 20
73.4566258023
 10
107.7093303006
 20
73.4770195022
 10
108.0337517158
 20
73.5350947046
 10
108.2505248114
 20
73.6220114929
 10
108.3266459711
 20
73.72453681
  0
ARC
  5
18F
330
1F
100
AcDbEntity
  8
0
  6
Continuous
 62
     7
370
    15
100
AcDbCircle
 10
107.3266456563
 20
74.8905263134
 30
0.0
 40
1.630512329804327
100
AcDbArc
 50
243.778909057
 51
296.2210769112
  0
LWPOLYLINE
  5
190
330
1F
100
AcDbEntity
  8
0
  6
Continuous
 62
     7
370
    15
100
AcDbPolyline
 90
       29
 70
   128
 43
0.0
 10
105.5588795516
 20
73.9735132183
 10
105.0081680848
 20
74.2055999179
 10
104.4850720234
 20
74.5951358428
 10
104.0158208659
 20
75.1225929598
 10
103.623945066
 20
75.7615179519
 10
103.3290952627
 20
76.4798714556
 10
103.1460559448
 20
77.2416382257
 10
103.084005741
 20
78.0086116975
 10
103.1460559448
 20
78.7423408876
 10
103.3290952627
 20
79.4060311453
 10
103.623945066
 20
79.9663976071
 10
104.0158208659
 20
80.3953468838
 10
104.4850720234
 20
80.6713652692
 10
105.0081680848
 20
80.7806183511
 10
105.5588795516
 20
80.7176180849
 10
106.1095906891
 20
80.4855350627
 10
106.6326870798
 20
80.0959954605
 10
107.1019382373
 20
79.5685419326
 10
107.4938137078
 20
78.9296170287
 10
107.7886638404
 20
78.2112634368
 10
107.9717029937
 20
77.4494967108
 10
108.0337530328
 20
76.682519694
 10
107.9717029937
 20
75.9487940489
 10
107.7886638404
 20
75.2851037471
 10
107.4938137078
 20
74.7247373735
 10
107.1019382373
 20
74.2957880086
 10
106.6326870798
 20
74.019766034
 10
106.1095906891
 20
73.9105166294
 10
105.5588795516
 20
73.9735132183
  0
SPLINE
  5
191
330
1F
100
AcDbEntity
  8
0
  6
Continuous
 62
     7
370
    15
100
AcDbSpline
210
0.0
220
0.0
230
1.0
 70
     8
 71
     3
 72
     9
 73
     5
 74
     0
 42
0.00000001
 43
0.00000001
 40
0.0
 40
0.0
 40
0.0
 40
0.0
 40
0.5592578688233665
 40
1.0
 40
1.0
 40
1.0
 40
1.0
 10
55.90744329030007
 20
103.7964448078488
 30
0.0
 10
55.90115916359769
 20
103.7178273590375
 30
0.0
 10
55.88992261771662
 20
103.5772527633207
 30
0.0
 10
55.8122289775558
 20
103.5019848684903
 30
0.0
 10
55.77798611701245
 20
103.4688111361135
 30
0.0
  0
SPLINE
  5
192
330
1F
100
AcDbEntity
  8
0
  6
Continuous
 62
     7
370
    15
100
AcDbSpline
210
0.0
220
0.0
230
1.0
 70
     8
 71
     3
 72
    11
 73
     7
 74
     0
 42
0.00000001
 43
0.00000001
 40
0.0
 40
0.0
 40
0.0
 40
0.0
 40
0.2799149941007152
 40
0.5593054079228653
 40
0.7794391647335281
 40
1.0
 40
1.0
 40
1.0
 40
1.0
 10
55.5354789129452
 20
104.3969076253104
 30
0.0
 10
55.59049136532821
 20
104.3747447968426
 30
0.0
 10
55.70041317291042
 20
104.3304606745979
 30
0.0
 10
55.82629281429865
 20
104.1645504539397
 30
0.0
 10
55.89789198303294
 20
103.9755299990967
 30
0.0
 10
55.9042574649418
 20
103.8561784262542
 30
0.0
 10
55.90744329030007
 20
103.7964448078488
 30
0.0
  0
SPLINE
  5
193
330
1F
100
AcDbEntity
  8
0
  6
Continuous
 62
     7
370
    15
100
AcDbSpline
210
0.0
220
0.0
230
1.0
 70
     8
 71
     3
 72
    11
 73
     7
 74
     0
 42
0.00000001
 43
0.00000001
 40
0.0
 40
0.0
 40
0.0
 40
0.0
 40
0.2800173457676527
 40
0.5589794265493611
 40
0.7792539036549984
 40
1.0
 40
1.0
 40
1.0
 40
1.0
 10
55.16471497991034
 20
103.998701402027
 30
0.0
 10
55.169522657774
 20
104.0725725318926
 30
0.0
 10
55.17911989543048
 20
104.2200364030955
 30
0.0
 10
55.27861551114303
 20
104.3641339409586
 30
0.0
 10
55.40605436236564
 20
104.4197607568399
 30
0.0
 10
55.49230665055177
 20
104.4045307647108
 30
0.0
 10
55.5354789129452
 20
104.3969076253104
 30
0.0
  0
SPLINE
  5
194
330
1F
100
AcDbEntity
  8
0
  6
Continuous
 62
     7
370
    15
100
AcDbSpline
210
0.0
220
0.0
230
1.0
 70
     8
 71
     3
 72
    10
 73
     6
 74
     0
 42
0.00000001
 43
0.00000001
 40
0.0
 40
0.0
 40
0.0
 40
0.0
 40
0.2810569593323089
 40
0.5609809092576563
 40
1.0
 40
1.0
 40
1.0
 40
1.0
 10
55.39521687643801
 20
103.4808482411759
 30
0.0
 10
55.35712149201797
 20
103.5123627436135
 30
0.0
 10
55.28108429499841
 20
103.5752647058145
 30
0.0
 10
55.18117548632982
 20
103.7601469541808
 30
0.0
 10
55.17095566461445
 20
103.9082580671846
 30
0.0
 10
55.16471497991034
 20
103.998701402027
 30
0.0
  0
LINE
  5
195
330
1F
100
AcDbEntity
  8
0
  6
Continuous
 62
     7
370
    15
100
AcDbLine
 10
55.3952168764
 20
103.7185759027
 30
0.0
 11
55.3952168764
 21
103.4808482412
 31
0.0
  0
SPLINE
  5
196
330
1F
100
AcDbEntity
  8
0
  6
Continuous
 62
     7
370
    15
100
AcDbSpline
210
0.0
220
0.0
230
1.0
 70
     8
 71
     3
 72
    10
 73
     6
 74
     0
 42
0.00000001
 43
0.00000001
 40
0.0
 40
0.0
 40
0.0
 40
0.0
 40
0.5593277623586732
 40
0.7805695757640891
 40
1.0
 40
1.0
 40
1.0
 40
1.0
 10
55.31838292464847
 20
103.9518069865553
 30
0.0
 10
55.32246328954253
 20
103.9043188689089
 30
0.0
 10
55.32815764070595
 20
103.8380468503544
 30
0.0
 10
55.36032511993191
 20
103.7561895579373
 30
0.0
 10
55.3836182064513
 20
103.7310793825401
 30
0.0
 10
55.39521687643801
 20
103.7185759026986
 30
0.0
  0
SPLINE
  5
197
330
1F
100
AcDbEntity
  8
0
  6
Continuous
 62
     7
370
    15
100
AcDbSpline
210
0.0
220
0.0
230
1.0
 70
     8
 71
     3
 72
    11
 73
     7
 74
     0
 42
0.00000001
 43
0.00000001
 40
0.0
 40
0.0
 40
0.0
 40
0.0
 40
0.2805616379571367
 40
0.5582820443641802
 40
0.7787395707746094
 40
1.0
 40
1.0
 40
1.0
 40
1.0
 10
55.48485651429851
 20
104.1487513248458
 30
0.0
 10
55.45863858266566
 20
104.1535248772301
 30
0.0
 10
55.4064682268837
 20
104.1630236405087
 30
0.0
 10
55.34623280540993
 20
104.1138475370641
 30
0.0
 10
55.32139635530507
 20
104.0343250208757
 30
0.0
 10
55.31938861801004
 20
103.9793463092685
 30
0.0
 10
55.31838292464847
 20
103.9518069865553
 30
0.0
  0
LINE
  5
198
330
1F
100
AcDbEntity
  8
0
  6
Continuous
 62
     7
370
    15
100
AcDbLine
 10
55.4848565143
 20
103.4333871725
 30
0.0
 11
55.4848565143
 21
104.1487513248
 31
0.0
  0
SPLINE
  5
199
330
1F
100
AcDbEntity
  8
0
  6
Continuous
 62
     7
370
    15
100
AcDbSpline
210
0.0
220
0.0
230
1.0
 70
     8
 71
     3
 72
     9
 73
     5
 74
     0
 42
0.00000001
 43
0.00000001
 40
0.0
 40
0.0
 40
0.0
 40
0.0
 40
0.558789998664857
 40
1.0
 40
1.0
 40
1.0
 40
1.0
 10
55.77798611701245
 20
103.4688111361136
 30
0.0
 10
55.7266802973303
 20
103.4444276173151
 30
0.0
 10
55.63486437398748
 20
103.4007913338157
 30
0.0
 10
55.5307797093307
 20
103.4234083283125
 30
0.0
 10
55.48485651429851
 20
103.4333871724846
 30
0.0
  0
LINE
  5
19A
330
1F
100
AcDbEntity
  8
0
  6
Continuous
 62
     7
370
    15
100
AcDbLine
 10
56.0226942591
 20
105.7577488493
 30
0.0
 11
56.176362245
 21
105.7165794976
 31
0.0
  0
LINE
  5
19B
330
1F
100
AcDbEntity
  8
0
  6
Continuous
 62
     7
370
    15
100
AcDbLine
 10
56.0226942591
 20
105.4960302558
 30
0.0
 11
56.0226942591
 21
105.7577488493
 31
0.0
  0
LINE
  5
19C
330
1F
100
AcDbEntity
  8
0
  6
Continuous
 62
     7
370
    15
100
AcDbLine
 10
56.176362245
 20
105.4548609041
 30
0.0
 11
56.0226942591
 21
105.4960302558
 31
0.0
  0
LINE
  5
19D
330
1F
100
AcDbEntity
  8
0
  6
Continuous
 62
     7
370
    15
100
AcDbLine
 10
56.176362245
 20
105.7165794976
 30
0.0
 11
56.176362245
 21
105.4548609041
 31
0.0
  0
LINE
  5
19E
330
1F
100
AcDbEntity
  8
0
  6
Continuous
 62
     7
370
    15
100
AcDbLine
 10
56.176362245
 20
105.912656242
 30
0.0
 11
55.177520666
 21
106.1802569401
 31
0.0
  0
LINE
  5
19F
330
1F
100
AcDbEntity
  8
0
  6
Continuous
 62
     7
370
    15
100
AcDbLine
 10
56.176362245
 20
106.1743748425
 30
0.0
 11
56.176362245
 21
105.912656242
 31
0.0
  0
LINE
  5
1A0
330
1F
100
AcDbEntity
  8
0
  6
Continuous
 62
     7
370
    15
100
AcDbLine
 10
55.177520666
 20
106.4419755406
 30
0.0
 11
56.176362245
 21
106.1743748425
 31
0.0
  0
LINE
  5
1A1
330
1F
100
AcDbEntity
  8
0
  6
Continuous
 62
     7
370
    15
100
AcDbLine
 10
55.177520666
 20
106.1802569401
 30
0.0
 11
55.177520666
 21
106.4419755406
 31
0.0
  0
LWPOLYLINE
  5
1A2
330
1F
100
AcDbEntity
  8
0
  6
Continuous
 62
     7
370
    15
100
AcDbPolyline
 90
       16
 70
   128
 43
0.0
 10
59.7737148797
 20
100.2449085568
 10
60.4352853997
 20
100.1624072707
 10
61.0679425231
 20
100.2729937032
 10
61.6440359415
 20
100.571834803
 10
62.1383868644
 20
101.0458697577
 10
62.5293904221
 20
101.6743807447
 10
62.799958043
 20
102.4298987301
 10
62.9382642435
 20
103.2794042688
 10
62.9382642435
 20
104.1857698314
 10
62.799958043
 20
105.1093828894
 10
62.5293904221
 20
106.0098769867
 10
62.1383868644
 20
106.8478963225
 10
61.6440359415
 20
107.5868154287
 10
61.0679425231
 20
108.1943401159
 10
60.4352853997
 20
108.6439182192
 10
59.7737148797
 20
108.9159010409
  0
LINE
  5
1A3
330
1F
100
AcDbEntity
  8
0
  6
Continuous
 62
     7
370
    15
100
AcDbLine
 10
54.8239672586
 20
101.5710006485
 30
0.0
 11
59.7737148797
 21
100.2449085568
 31
0.0
  0
LINE
  5
1A4
330
1F
100
AcDbEntity
  8
0
  6
Continuous
 62
     7
370
    15
100
AcDbLine
 10
54.8239672586
 20
110.2419931325
 30
0.0
 11
54.8239672586
 21
101.5710006485
 31
0.0
  0
LINE
  5
1A5
330
1F
100
AcDbEntity
  8
0
  6
Continuous
 62
     7
370
    15
100
AcDbLine
 10
59.7737148797
 20
108.9159010409
 30
0.0
 11
54.8239672586
 21
110.2419931325
 31
0.0
  0
LWPOLYLINE
  5
1A6
330
1F
100
AcDbEntity
  8
0
  6
Continuous
 62
     7
370
    15
100
AcDbPolyline
 90
       29
 70
   128
 43
0.0
 10
57.245807986
 20
105.2576589937
 10
57.3091879558
 20
106.0071101161
 10
57.4961494002
 20
106.685020347
 10
57.7973177734
 20
107.2573961962
 10
58.1975906742
 20
107.6955367492
 10
58.6768971478
 20
107.9774714727
 10
59.2112026246
 20
108.0890631416
 10
59.7737148797
 20
108.0247158318
 10
60.3362268055
 20
107.7876567299
 10
60.8705326115
 20
107.3897722882
 10
61.3498390851
 20
106.8510145617
 10
61.7501116567
 20
106.1983990291
 10
62.0512798653
 20
105.4646505527
 10
62.2382413096
 20
104.6865622474
 10
62.3016216087
 20
103.903150648
 10
62.2382413096
 20
103.1536996139
 10
62.0512798653
 20
102.475789383
 10
61.7501116567
 20
101.9034134897
 10
61.3498390851
 20
101.4652728485
 10
60.8705326115
 20
101.183338125
 10
60.3362268055
 20
101.0717465443
 10
59.7737148797
 20
101.1360937659
 10
59.2112026246
 20
101.373152956
 10
58.6768971478
 20
101.7710373094
 10
58.1975906742
 20
102.309795036
 10
57.7973177734
 20
102.9624106568
 10
57.4961494002
 20
103.6961591773
 10
57.3091879558
 20
104.4742474826
 10
57.245807986
 20
105.2576589937
  0
LINE
  5
1A7
330
1F
100
AcDbEntity
  8
0
  6
Continuous
 62
     7
370
    15
100
AcDbLine
 10
56.176362245
 20
106.8456948723
 30
0.0
 11
55.177520666
 21
107.1132955704
 31
0.0
  0
LINE
  5
1A8
330
1F
100
AcDbEntity
  8
0
  6
Continuous
 62
     7
370
    15
100
AcDbLine
 10
56.176362245
 20
107.1074134728
 30
0.0
 11
56.176362245
 21
106.8456948723
 31
0.0
  0
LINE
  5
1A9
330
1F
100
AcDbEntity
  8
0
  6
Continuous
 62
     7
370
    15
100
AcDbLine
 10
55.8178036936
 20
107.2072919506
 30
0.0
 11
56.176362245
 21
107.1074134728
 31
0.0
  0
SPLINE
  5
1AA
330
1F
100
AcDbEntity
  8
0
  6
Continuous
 62
     7
370
    15
100
AcDbSpline
210
0.0
220
0.0
230
1.0
 70
     8
 71
     3
 72
     9
 73
     5
 74
     0
 42
0.00000001
 43
0.00000001
 40
0.0
 40
0.0
 40
0.0
 40
0.0
 40
0.5607515361920599
 40
1.0
 40
1.0
 40
1.0
 40
1.0
 10
55.91184524874561
 20
107.4740770007919
 30
0.0
 10
55.90805105522267
 20
107.4116073371138
 30
0.0
 10
55.90128479016934
 20
107.3002038729301
 30
0.0
 10
55.84328153453281
 20
107.2356480129457
 30
0.0
 10
55.8178036935986
 20
107.2072919506177
 30
0.0
  0
SPLINE
  5
1AB
330
1F
100
AcDbEntity
  8
0
  6
Continuous
 62
     7
370
    15
100
AcDbSpline
210
0.0
220
0.0
230
1.0
 70
     8
 71
     3
 72
     9
 73
     5
 74
     0
 42
0.00000001
 43
0.00000001
 40
0.0
 40
0.0
 40
0.0
 40
0.0
 40
0.5583523227580958
 40
1.0
 40
1.0
 40
1.0
 40
1.0
 10
55.79939556360309
 20
107.8324421805453
 30
0.0
 10
55.8361374788802
 20
107.7708342523086
 30
0.0
 10
55.90194165624194
 20
107.6604954469959
 30
0.0
 10
55.90881129066096
 20
107.5311861510099
 30
0.0
 10
55.91184524874561
 20
107.4740770007919
 30
0.0
  0
SPLINE
  5
1AC
330
1F
100
AcDbEntity
  8
0
  6
Continuous
 62
     7
370
    15
100
AcDbSpline
210
0.0
220
0.0
230
1.0
 70
     8
 71
     3
 72
     9
 73
     5
 74
     0
 42
0.00000001
 43
0.00000001
 40
0.0
 40
0.0
 40
0.0
 40
0.0
 40
0.5600525234271325
 40
1.0
 40
1.0
 40
1.0
 40
1.0
 10
55.5444828627306
 20
108.0095129794248
 30
0.0
 10
55.59602444544643
 20
107.9914227651852
 30
0.0
 10
55.68805435435647
 20
107.9591218407488
 30
0.0
 10
55.76537745888499
 20
107.8711466456361
 30
0.0
 10
55.79939556360309
 20
107.8324421805453
 30
0.0
  0
SPLINE
  5
1AD
330
1F
100
AcDbEntity
  8
0
  6
Continuous
 62
     7
370
    15
100
AcDbSpline
210
0.0
220
0.0
230
1.0
 70
     8
 71
     3
 72
     9
 73
     5
 74
     0
 42
0.00000001
 43
0.00000001
 40
0.0
 40
0.0
 40
0.0
 40
0.0
 40
0.5588735245857734
 40
1.0
 40
1.0
 40
1.0
 40
1.0
 10
55.28116647539175
 20
107.9712814806758
 30
0.0
 10
55.32693242034587
 20
107.9951549459375
 30
0.0
 10
55.40882204821482
 20
108.0378720620855
 30
0.0
 10
55.5029573075624
 20
108.0181936486051
 30
0.0
 10
55.5444828627306
 20
108.0095129794248
 30
0.0
  0
SPLINE
  5
1AE
330
1F
100
AcDbEntity
  8
0
  6
Continuous
 62
     7
370
    15
100
AcDbSpline
210
0.0
220
0.0
230
1.0
 70
     8
 71
     3
 72
     9
 73
     5
 74
     0
 42
0.00000001
 43
0.00000001
 40
0.0
 40
0.0
 40
0.0
 40
0.0
 40
0.5590780589462153
 40
0.9999999999999999
 40
0.9999999999999999
 40
0.9999999999999999
 40
0.9999999999999999
 10
55.16471497991034
 20
107.6764224004708
 30
0.0
 10
55.1706517262885
 20
107.7468418343412
 30
0.0
 10
55.18127054110901
 20
107.8727981882771
 30
0.0
 10
55.2505983314886
 20
107.9411456050196
 30
0.0
 10
55.28116647539175
 20
107.9712814806758
 30
0.0
  0
SPLINE
  5
1AF
330
1F
100
AcDbEntity
  8
0
  6
Continuous
 62
     7
370
    15
100
AcDbSpline
210
0.0
220
0.0
230
1.0
 70
     8
 71
     3
 72
    10
 73
     6
 74
     0
 42
0.00000001
 43
0.00000001
 40
0.0
 40
0.0
 40
0.0
 40
0.0
 40
0.2800474297362566
 40
0.5602375719768806
 40
0.9999999999999999
 40
0.9999999999999999
 40
0.9999999999999999
 40
0.9999999999999999
 10
55.26716026268274
 20
107.3509987322785
 30
0.0
 10
55.24865399770133
 20
107.3760322054571
 30
0.0
 10
55.21163203692382
 20
107.4261119089022
 30
0.0
 10
55.17273107487681
 20
107.5415277518764
 30
0.0
 10
55.16775467275809
 20
107.6252705241212
 30
0.0
 10
55.16471497991034
 20
107.6764224004708
 30
0.0
  0
LINE
  5
1B0
330
1F
100
AcDbEntity
  8
0
  6
Continuous
 62
     7
370
    15
100
AcDbLine
 10
55.177520666
 20
107.3750141709
 30
0.0
 11
55.2671602627
 21
107.3509987323
 31
0.0
  0
LINE
  5
1B1
330
1F
100
AcDbEntity
  8
0
  6
Continuous
 62
     7
370
    15
100
AcDbLine
 10
55.177520666
 20
107.1132955704
 30
0.0
 11
55.177520666
 21
107.3750141709
 31
0.0
  0
LINE
  5
1B2
330
1F
100
AcDbEntity
  8
0
  6
Continuous
 62
     7
370
    15
100
AcDbLine
 10
55.8926367402
 20
105.5308741025
 30
0.0
 11
55.177520666
 21
105.7224616021
 31
0.0
  0
LINE
  5
1B3
330
1F
100
AcDbEntity
  8
0
  6
Continuous
 62
     7
370
    15
100
AcDbLine
 10
55.8926367402
 20
105.792592696
 30
0.0
 11
55.8926367402
 21
105.5308741025
 31
0.0
  0
LINE
  5
1B4
330
1F
100
AcDbEntity
  8
0
  6
Continuous
 62
     7
370
    15
100
AcDbLine
 10
55.177520666
 20
105.9841801957
 30
0.0
 11
55.8926367402
 21
105.792592696
 31
0.0
  0
LINE
  5
1B5
330
1F
100
AcDbEntity
  8
0
  6
Continuous
 62
     7
370
    15
100
AcDbLine
 10
55.177520666
 20
105.7224616021
 30
0.0
 11
55.177520666
 21
105.9841801957
 31
0.0
  0
LINE
  5
1B6
330
1F
100
AcDbEntity
  8
0
  6
Continuous
 62
     7
370
    15
100
AcDbLine
 10
55.550285463
 20
105.1647984413
 30
0.0
 11
55.177520666
 21
105.2646662502
 31
0.0
  0
SPLINE
  5
1B7
330
1F
100
AcDbEntity
  8
0
  6
Continuous
 62
     7
370
    15
100
AcDbSpline
210
0.0
220
0.0
230
1.0
 70
     8
 71
     3
 72
    11
 73
     7
 74
     0
 42
0.00000001
 43
0.00000001
 40
0.0
 40
0.0
 40
0.0
 40
0.0
 40
0.2503671537892299
 40
0.3758818929788616
 40
0.5013018344298846
 40
1.0
 40
1.0
 40
1.0
 40
1.0
 10
55.75377538672097
 20
104.9000884823277
 30
0.0
 10
55.75210505011117
 20
104.9343397189205
 30
0.0
 10
55.74959733583115
 20
104.9857618781474
 30
0.0
 10
55.72423205411953
 20
105.0516057610093
 30
0.0
 10
55.66482559242525
 20
105.1298509316924
 30
0.0
 10
55.60115839193725
 20
105.149276526129
 30
0.0
 10
55.55028546302657
 20
105.1647984412948
 30
0.0
  0
SPLINE
  5
1B8
330
1F
100
AcDbEntity
  8
0
  6
Continuous
 62
     7
370
    15
100
AcDbSpline
210
0.0
220
0.0
230
1.0
 70
     8
 71
     3
 72
    11
 73
     7
 74
     0
 42
0.00000001
 43
0.00000001
 40
0.0
 40
0.0
 40
0.0
 40
0.0
 40
0.498881573801618
 40
0.6245360826620183
 40
0.7500951764731743
 40
1.0
 40
1.0
 40
1.0
 40
1.0
 10
55.57909818465789
 20
104.7732252360695
 30
0.0
 10
55.62132443659441
 20
104.7648333817254
 30
0.0
 10
55.67418631675762
 20
104.7543278507266
 30
0.0
 10
55.72397348572197
 20
104.7914143883789
 30
0.0
 10
55.74889865218413
 20
104.8305102762201
 30
0.0
 10
55.75182658531121
 20
104.8722841995384
 30
0.0
 10
55.75377538672097
 20
104.9000884823277
 30
0.0
  0
LINE
  5
1B9
330
1F
100
AcDbEntity
  8
0
  6
Continuous
 62
     7
370
    15
100
AcDbLine
 10
55.177520666
 20
104.8808122915
 30
0.0
 11
55.5790981847
 21
104.7732252361
 31
0.0
  0
LINE
  5
1BA
330
1F
100
AcDbEntity
  8
0
  6
Continuous
 62
     7
370
    15
100
AcDbLine
 10
55.177520666
 20
104.619093691
 30
0.0
 11
55.177520666
 21
104.8808122915
 31
0.0
  0
LINE
  5
1BB
330
1F
100
AcDbEntity
  8
0
  6
Continuous
 62
     7
370
    15
100
AcDbLine
 10
55.614713918
 20
104.5019647869
 30
0.0
 11
55.177520666
 21
104.619093691
 31
0.0
  0
SPLINE
  5
1BC
330
1F
100
AcDbEntity
  8
0
  6
Continuous
 62
     7
370
    15
100
AcDbSpline
210
0.0
220
0.0
230
1.0
 70
     8
 71
     3
 72
     9
 73
     5
 74
     0
 42
0.00000001
 43
0.00000001
 40
0.0
 40
0.0
 40
0.0
 40
0.0
 40
0.5580479278605702
 40
1.0
 40
1.0
 40
1.0
 40
1.0
 10
55.82780813712775
 20
104.5149387997947
 30
0.0
 10
55.79005424087107
 20
104.5005191940135
 30
0.0
 10
55.72240073949278
 20
104.4746798259927
 30
0.0
 10
55.64771946293541
 20
104.4936020644529
 30
0.0
 10
55.61471391801086
 20
104.5019647869499
 30
0.0
  0
SPLINE
  5
1BD
330
1F
100
AcDbEntity
  8
0
  6
Continuous
 62
     7
370
    15
100
AcDbSpline
210
0.0
220
0.0
230
1.0
 70
     8
 71
     3
 72
     9
 73
     5
 74
     0
 42
0.00000001
 43
0.00000001
 40
0.0
 40
0.0
 40
0.0
 40
0.0
 40
0.561613079188463
 40
0.9999999999999999
 40
0.9999999999999999
 40
0.9999999999999999
 40
0.9999999999999999
 10
55.90744329030007
 20
104.7722248830388
 30
0.0
 10
55.90583714055419
 20
104.7128012250344
 30
0.0
 10
55.90297725390732
 20
104.6069923323885
 30
0.0
 10
55.85071793779983
 20
104.5429945781946
 30
0.0
 10
55.82780813712775
 20
104.5149387997947
 30
0.0
  0
SPLINE
  5
1BE
330
1F
100
AcDbEntity
  8
0
  6
Continuous
 62
     7
370
    15
100
AcDbSpline
210
0.0
220
0.0
230
1.0
 70
     8
 71
     3
 72
    10
 73
     6
 74
     0
 42
0.00000001
 43
0.00000001
 40
0.0
 40
0.0
 40
0.0
 40
0.0
 40
0.280602302409646
 40
0.5608455408205235
 40
1.0
 40
1.0
 40
1.0
 40
1.0
 10
55.7929926999881
 20
105.0997744901449
 30
0.0
 10
55.81214234580305
 20
105.0748032282982
 30
0.0
 10
55.85041713318497
 20
105.0248926583024
 30
0.0
 10
55.89647636332837
 20
104.9106192954092
 30
0.0
 10
55.90328622680062
 20
104.8246839138756
 30
0.0
 10
55.90744329030007
 20
104.7722248830388
 30
0.0
  0
LINE
  5
1BF
330
1F
100
AcDbEntity
  8
0
  6
Continuous
 62
     7
370
    15
100
AcDbLine
 10
55.8926367402
 20
105.0730787505
 30
0.0
 11
55.7929927
 21
105.0997744901
 31
0.0
  0
LINE
  5
1C0
330
1F
100
AcDbEntity
  8
0
  6
Continuous
 62
     7
370
    15
100
AcDbLine
 10
55.8926367402
 20
105.334797351
 30
0.0
 11
55.8926367402
 21
105.0730787505
 31
0.0
  0
LINE
  5
1C1
330
1F
100
AcDbEntity
  8
0
  6
Continuous
 62
     7
370
    15
100
AcDbLine
 10
55.177520666
 20
105.5263848507
 30
0.0
 11
55.8926367402
 21
105.334797351
 31
0.0
  0
LINE
  5
1C2
330
1F
100
AcDbEntity
  8
0
  6
Continuous
 62
     7
370
    15
100
AcDbLine
 10
55.177520666
 20
105.2646662502
 30
0.0
 11
55.177520666
 21
105.5263848507
 31
0.0
  0
LWPOLYLINE
  5
1C3
330
1F
100
AcDbEntity
  8
0
  6
Continuous
 62
     7
370
    15
100
AcDbPolyline
 90
       15
 70
   128
 43
0.0
 10
63.4131189562
 20
100.8967432015
 10
63.5428160043
 20
100.9360396608
 10
64.1189094228
 20
101.2348807606
 10
64.6132603457
 20
101.7089157153
 10
65.0042639033
 20
102.3374267023
 10
65.2748315243
 20
103.0929446877
 10
65.4131377247
 20
103.9424502264
 10
65.4131377247
 20
104.848815789
 10
65.2748315243
 20
105.772428847
 10
65.0042639033
 20
106.6729229443
 10
64.6132603457
 20
107.5109422801
 10
64.1189094228
 20
108.2498613863
 10
63.5428160043
 20
108.8573860735
 10
62.910158881
 20
109.3069641768
 10
62.248588361
 20
109.5789469985
  0
ARC
  5
1C4
330
1F
100
AcDbEntity
  8
0
  6
Continuous
 62
     7
370
    15
100
AcDbCircle
 10
61.1849623843
 20
105.8105281143
 30
0.0
 40
2.891009352444882
100
AcDbArc
 50
128.0597865824
 51
185.3330895172
  0
LWPOLYLINE
  5
1C5
330
1F
100
AcDbEntity
  8
0
  6
Continuous
 62
     7
370
    15
100
AcDbPolyline
 90
        9
 70
   128
 43
0.0
 10
61.2053853717
 20
101.3581561019
 10
60.8343745668
 20
101.4202562183
 10
60.2718623117
 20
101.6573154084
 10
59.7375568349
 20
102.0551997619
 10
59.2582503613
 20
102.5939574885
 10
58.8579774605
 20
103.2465731092
 10
58.5568090873
 20
103.9803216298
 10
58.3698476429
 20
104.7584099351
 10
58.3064676731
 20
105.5418214462
  0
LWPOLYLINE
  5
1C6
330
1F
100
AcDbEntity
  8
0
  6
Continuous
 62
     7
370
    15
100
AcDbPolyline
 90
       10
 70
   128
 43
0.0
 10
58.8721529603
 20
105.3902681059
 10
58.9390143256
 20
104.6803879405
 10
59.1350409644
 20
103.9830594663
 10
59.4468743013
 20
103.3458043237
 10
59.8532637635
 20
102.8120502479
 10
60.3265142618
 20
102.4181717338
 10
60.8343745668
 20
102.1910111756
 10
61.3422345424
 20
102.146049045
 10
61.81548537
 20
102.2863493933
 10
62.0309696941
 20
102.4250793159
  0
LWPOLYLINE
  5
1C7
330
1F
100
AcDbEntity
  8
0
  6
Continuous
 62
     7
370
    15
100
AcDbPolyline
 90
        7
 70
   128
 43
0.0
 10
60.6511052522
 20
107.5755366199
 10
60.3265142618
 20
107.5830855457
 10
59.8532637635
 20
107.4427851093
 10
59.4468743013
 20
107.1267834901
 10
59.1350409644
 20
106.656615542
 10
58.9390143256
 20
106.0643224738
 10
58.8721529603
 20
105.3902681059
  0
ARC
  5
1C8
330
1F
100
AcDbEntity
  8
0
  6
Continuous
 62
     7
370
    15
100
AcDbCircle
 10
62.8815935659
 20
105.877817113
 30
0.0
 40
2.597500797740345
100
AcDbArc
 50
142.2401244133
 51
182.3976478303
  0
ARC
  5
1C9
330
1F
100
AcDbEntity
  8
0
  6
Continuous
 62
     7
370
    15
100
AcDbCircle
 10
63.6071256224
 20
105.5826442994
 30
0.0
 40
3.325992248388287
100
AcDbArc
 50
176.7854134005
 51
243.1023839406
  0
LINE
  5
1CA
330
1F
100
AcDbEntity
  8
0
  6
Continuous
 62
     7
370
    15
100
AcDbLine
 10
93.7148400131
 20
120.6612877602
 30
0.0
 11
54.8239672586
 21
110.2419931325
 31
0.0
  0
LINE
  5
1CB
330
1F
100
AcDbEntity
  8
0
  6
Continuous
 62
     7
370
    15
100
AcDbLine
 10
98.6645876342
 20
119.3351956685
 30
0.0
 11
93.7148400131
 21
120.6612877602
 31
0.0
  0
LINE
  5
1CC
330
1F
100
AcDbEntity
  8
0
  6
Continuous
 62
     7
370
    15
100
AcDbLine
 10
95.6593839801
 20
118.8142310254
 30
0.0
 11
96.1897141529
 21
118.6721497109
 31
0.0
  0
ARC
  5
1CD
330
1F
100
AcDbEntity
  8
0
  6
Continuous
 62
     7
370
    15
100
AcDbCircle
 10
95.3058305839
 20
117.2848173937
 30
0.0
 40
1.569747132694249
100
AcDbArc
 50
76.983624761
 51
103.0164038309
  0
LINE
  5
1CE
330
1F
100
AcDbEntity
  8
0
  6
Continuous
 62
     7
370
    15
100
AcDbLine
 10
61.7182588467
 20
109.9104702419
 30
0.0
 11
94.9522764245
 21
118.8142308489
 31
0.0
  0
LWPOLYLINE
  5
1CF
330
1F
100
AcDbEntity
  8
0
  6
Continuous
 62
     7
370
    15
100
AcDbPolyline
 90
        9
 70
   128
 43
0.0
 10
61.7182581881
 20
109.7210283129
 10
61.6560767693
 20
109.7413275339
 10
61.6098726281
 20
109.7644867953
 10
61.5814195541
 20
109.7896159127
 10
61.571811719
 20
109.8157491892
 10
61.5814192248
 20
109.8418827303
 10
61.6098722988
 20
109.8670118478
 10
61.6560764401
 20
109.8901707563
 10
61.7182588467
 20
109.9104702419
  0
LINE
  5
1D0
330
1F
100
AcDbEntity
  8
0
  6
Continuous
 62
     7
370
    15
100
AcDbLine
 10
62.248588361
 20
109.5789469985
 30
0.0
 11
61.7182581881
 21
109.7210283129
 31
0.0
  0
LINE
  5
1D1
330
1F
100
AcDbEntity
  8
0
  6
Continuous
 62
     7
370
    15
100
AcDbLine
 10
94.9522764245
 20
117.7313379606
 30
0.0
 11
63.094523355
 21
109.1962938257
 31
0.0
  0
SPLINE
  5
1D2
330
1F
100
AcDbEntity
  8
0
  6
Continuous
 62
     7
370
    15
100
AcDbSpline
210
0.0
220
0.0
230
1.0
 70
     8
 71
     3
 72
    10
 73
     6
 74
     0
 42
0.00000001
 43
0.00000001
 40
0.0
 40
0.0
 40
0.0
 40
0.0
 40
0.2800474297362566
 40
0.5602375719768806
 40
0.9999999999999999
 40
0.9999999999999999
 40
0.9999999999999999
 40
0.9999999999999999
 10
55.37322675822746
 20
107.3794151186676
 30
0.0
 10
55.35472049324605
 20
107.4044485918463
 30
0.0
 10
55.31769853246853
 20
107.4545282952914
 30
0.0
 10
55.27879757042152
 20
107.5699441382656
 30
0.0
 10
55.2738211683028
 20
107.6536869105103
 30
0.0
 10
55.27078147545505
 20
107.70483878686
 30
0.0
  0
SPLINE
  5
1D3
330
1F
100
AcDbEntity
  8
0
  6
Continuous
 62
     7
370
    15
100
AcDbSpline
210
0.0
220
0.0
230
1.0
 70
     8
 71
     3
 72
     9
 73
     5
 74
     0
 42
0.00000001
 43
0.00000001
 40
0.0
 40
0.0
 40
0.0
 40
0.0
 40
0.5590780589462153
 40
0.9999999999999999
 40
0.9999999999999999
 40
0.9999999999999999
 40
0.9999999999999999
 10
55.27078147545505
 20
107.70483878686
 30
0.0
 10
55.27671822183321
 20
107.7752582207304
 30
0.0
 10
55.28733703665372
 20
107.9012145746663
 30
0.0
 10
55.35666482703331
 20
107.9695619914088
 30
0.0
 10
55.38723297093646
 20
107.9996978670649
 30
0.0
  0
LINE
  5
1D4
330
1F
100
AcDbEntity
  8
0
  6
Continuous
 62
     7
370
    15
100
AcDbLine
 10
56.1763626566
 20
106.9025275348
 30
0.0
 11
55.2835871615
 21
107.1417119568
 31
0.0
  0
LINE
  5
1D5
330
1F
100
AcDbEntity
  8
0
  6
Continuous
 62
     7
370
    15
100
AcDbLine
 10
55.2835871615
 20
107.1417119568
 30
0.0
 11
55.2835871615
 21
107.3553996655
 31
0.0
  0
LINE
  5
1D6
330
1F
100
AcDbEntity
  8
0
  6
Continuous
 62
     7
370
    15
100
AcDbLine
 10
55.7809258597
 20
107.3028955582
 30
0.0
 11
55.8124209154
 21
107.3113676515
 31
0.0
  0
SPLINE
  5
1D7
330
1F
100
AcDbEntity
  8
0
  6
Continuous
 62
     7
370
    15
100
AcDbSpline
210
0.0
220
0.0
230
1.0
 70
     8
 71
     3
 72
    10
 73
     6
 74
     0
 42
0.00000001
 43
0.00000001
 40
0.0
 40
0.0
 40
0.0
 40
0.0
 40
0.2804990253027894
 40
0.5608425895411465
 40
0.9999999999999999
 40
0.9999999999999999
 40
0.9999999999999999
 40
0.9999999999999999
 10
55.81242091542648
 20
107.3113676515474
 30
0.0
 10
55.82463880600262
 20
107.3199730457309
 30
0.0
 10
55.84906781562952
 20
107.3371790647276
 30
0.0
 10
55.87966836131802
 20
107.3913879826824
 30
0.0
 10
55.88326059958414
 20
107.4433119447129
 30
0.0
 10
55.88545317208951
 20
107.4750044559227
 30
0.0
  0
SPLINE
  5
1D8
330
1F
100
AcDbEntity
  8
0
  6
Continuous
 62
     7
370
    15
100
AcDbSpline
210
0.0
220
0.0
230
1.0
 70
     8
 71
     3
 72
     9
 73
     5
 74
     0
 42
0.00000001
 43
0.00000001
 40
0.0
 40
0.0
 40
0.0
 40
0.0
 40
0.559160730327692
 40
1.0
 40
1.0
 40
1.0
 40
1.0
 10
55.88545317208951
 20
107.4750044559227
 30
0.0
 10
55.88204179232036
 20
107.5181006856448
 30
0.0
 10
55.87594089934966
 20
107.595173747798
 30
0.0
 10
55.83282759491641
 20
107.6533762219006
 30
0.0
 10
55.8138215572769
 20
107.6790341580771
 30
0.0
  0
SPLINE
  5
1D9
330
1F
100
AcDbEntity
  8
0
  6
Continuous
 62
     7
370
    15
100
AcDbSpline
210
0.0
220
0.0
230
1.0
 70
     8
 71
     3
 72
     9
 73
     5
 74
     0
 42
0.00000001
 43
0.00000001
 40
0.0
 40
0.0
 40
0.0
 40
0.0
 40
0.5588806012252544
 40
1.0
 40
1.0
 40
1.0
 40
1.0
 10
55.8138215572769
 20
107.6790341580771
 30
0.0
 10
55.78450707848845
 20
107.7049894334107
 30
0.0
 10
55.73205494698816
 20
107.7514309725816
 30
0.0
 10
55.67466475751378
 20
107.7688489790799
 30
0.0
 10
55.64934883163726
 20
107.7765323996343
 30
0.0
  0
SPLINE
  5
1DA
330
1F
100
AcDbEntity
  8
0
  6
Continuous
 62
     7
370
    15
100
AcDbSpline
210
0.0
220
0.0
230
1.0
 70
     8
 71
     3
 72
     9
 73
     5
 74
     0
 42
0.00000001
 43
0.00000001
 40
0.0
 40
0.0
 40
0.0
 40
0.0
 40
0.756707027586138
 40
1.0
 40
1.0
 40
1.0
 40
1.0
 10
55.64934883163726
 20
107.7765323996343
 30
0.0
 10
55.61721349571365
 20
107.7844367605168
 30
0.0
 10
55.57474615399209
 20
107.794882495252
 30
0.0
 10
55.536893003601
 20
107.780755859553
 30
0.0
 10
55.52768359812712
 20
107.7773189483636
 30
0.0
  0
LINE
  5
1DB
330
1F
100
AcDbEntity
  8
0
  6
Continuous
 62
     7
370
    15
100
AcDbLine
 10
55.2835871615
 20
107.1417119568
 30
0.0
 11
55.177520666
 21
107.1132955704
 31
0.0
  0
SPLINE
  5
1DC
330
1F
100
AcDbEntity
  8
0
  6
Continuous
 62
     7
370
    15
100
AcDbSpline
210
0.0
220
0.0
230
1.0
 70
     8
 71
     3
 72
    10
 73
     6
 74
     0
 42
0.00000001
 43
0.00000001
 40
0.0
 40
0.0
 40
0.0
 40
0.0
 40
0.2810787174952465
 40
0.5615348979241079
 40
1.0
 40
1.0
 40
1.0
 40
1.0
 10
55.30557723857752
 20
107.5735268544436
 30
0.0
 10
55.30646764943335
 20
107.5528736050873
 30
0.0
 10
55.30824649905063
 20
107.5116128494795
 30
0.0
 10
55.32855185906588
 20
107.4363396286247
 30
0.0
 10
55.35964564940885
 20
107.3956028315349
 30
0.0
 10
55.37860953639958
 20
107.3707577416358
 30
0.0
  0
SPLINE
  5
1DD
330
1F
100
AcDbEntity
  8
0
  6
Continuous
 62
     7
370
    15
100
AcDbSpline
210
0.0
220
0.0
230
1.0
 70
     8
 71
     3
 72
     9
 73
     5
 74
     0
 42
0.00000001
 43
0.00000001
 40
0.0
 40
0.0
 40
0.0
 40
0.0
 40
0.5588193852961351
 40
1.0
 40
1.0
 40
1.0
 40
1.0
 10
55.38141077894138
 20
107.7361407282811
 30
0.0
 10
55.35714616026723
 20
107.7157871443902
 30
0.0
 10
55.31372494168996
 20
107.6793646715369
 30
0.0
 10
55.30807144966453
 20
107.6059263973792
 30
0.0
 10
55.30557723857751
 20
107.5735268544436
 30
0.0
  0
SPLINE
  5
1DE
330
1F
100
AcDbEntity
  8
0
  6
Continuous
 62
     7
370
    15
100
AcDbSpline
210
0.0
220
0.0
230
1.0
 70
     8
 71
     3
 72
     9
 73
     5
 74
     0
 42
0.00000001
 43
0.00000001
 40
0.0
 40
0.0
 40
0.0
 40
0.0
 40
0.5602792527456772
 40
1.0
 40
1.0
 40
1.0
 40
1.0
 10
55.54328233609255
 20
107.7481160132452
 30
0.0
 10
55.51137562143043
 20
107.7548028881694
 30
0.0
 10
55.45442774319693
 20
107.7667377847259
 30
0.0
 10
55.4037116828812
 20
107.7454857075414
 30
0.0
 10
55.38141077894138
 20
107.7361407282811
 30
0.0
  0
SPLINE
  5
1DF
330
1F
100
AcDbEntity
  8
0
  6
Continuous
 62
     7
370
    15
100
AcDbSpline
210
0.0
220
0.0
230
1.0
 70
     8
 71
     3
 72
     9
 73
     5
 74
     0
 42
0.00000001
 43
0.00000001
 40
0.0
 40
0.0
 40
0.0
 40
0.0
 40
0.5588806012252544
 40
1.0
 40
1.0
 40
1.0
 40
1.0
 10
55.70775506173218
 20
107.6506177716879
 30
0.0
 10
55.67844058294375
 20
107.6765730470215
 30
0.0
 10
55.62598845144345
 20
107.7230145861924
 30
0.0
 10
55.56859826196906
 20
107.7404325926908
 30
0.0
 10
55.54328233609255
 20
107.7481160132452
 30
0.0
  0
SPLINE
  5
1E0
330
1F
100
AcDbEntity
  8
0
  6
Continuous
 62
     7
370
    15
100
AcDbSpline
210
0.0
220
0.0
230
1.0
 70
     8
 71
     3
 72
     9
 73
     5
 74
     0
 42
0.00000001
 43
0.00000001
 40
0.0
 40
0.0
 40
0.0
 40
0.0
 40
0.559160730327692
 40
1.0
 40
1.0
 40
1.0
 40
1.0
 10
55.7793866765448
 20
107.4465880695335
 30
0.0
 10
55.77597529677565
 20
107.4896842992557
 30
0.0
 10
55.76987440380494
 20
107.5667573614088
 30
0.0
 10
55.7267610993717
 20
107.6249598355114
 30
0.0
 10
55.70775506173219
 20
107.6506177716879
 30
0.0
  0
SPLINE
  5
1E1
330
1F
100
AcDbEntity
  8
0
  6
Continuous
 62
     7
370
    15
100
AcDbSpline
210
0.0
220
0.0
230
1.0
 70
     8
 71
     3
 72
    10
 73
     6
 74
     0
 42
0.00000001
 43
0.00000001
 40
0.0
 40
0.0
 40
0.0
 40
0.0
 40
0.2804990253027894
 40
0.5608425895411465
 40
0.9999999999999999
 40
0.9999999999999999
 40
0.9999999999999999
 40
0.9999999999999999
 10
55.70635441988177
 20
107.2829512651582
 30
0.0
 10
55.71857231045791
 20
107.2915566593417
 30
0.0
 10
55.74300132008481
 20
107.3087626783384
 30
0.0
 10
55.77360186577331
 20
107.3629715962932
 30
0.0
 10
55.77719410403943
 20
107.4148955583237
 30
0.0
 10
55.7793866765448
 20
107.4465880695335
 30
0.0
  0
SPLINE
  5
1E2
330
1F
100
AcDbEntity
  8
0
  6
Continuous
 62
     7
370
    15
100
AcDbSpline
210
0.0
220
0.0
230
1.0
 70
     8
 71
     3
 72
     9
 73
     5
 74
     0
 42
0.00000001
 43
0.00000001
 40
0.0
 40
0.0
 40
0.0
 40
0.0
 40
0.5604999973681086
 40
0.9999999999999999
 40
0.9999999999999999
 40
0.9999999999999999
 40
0.9999999999999999
 10
55.54468297794296
 20
107.2766473297163
 30
0.0
 10
55.57633987139538
 20
107.269294142215
 30
0.0
 10
55.63281961020191
 20
107.2561751635606
 30
0.0
 10
55.68390318751723
 20
107.2747761371963
 30
0.0
 10
55.70635441988177
 20
107.2829512651582
 30
0.0
  0
SPLINE
  5
1E3
330
1F
100
AcDbEntity
  8
0
  6
Continuous
 62
     7
370
    15
100
AcDbSpline
210
0.0
220
0.0
230
1.0
 70
     8
 71
     3
 72
     9
 73
     5
 74
     0
 42
0.00000001
 43
0.00000001
 40
0.0
 40
0.0
 40
0.0
 40
0.0
 40
0.5588070742327576
 40
0.9999999999999999
 40
0.9999999999999999
 40
0.9999999999999999
 40
0.9999999999999999
 10
55.37860953639958
 20
107.3707577416358
 30
0.0
 10
55.40838966253866
 20
107.3458171353309
 30
0.0
 10
55.46168198382856
 20
107.3011852624451
 30
0.0
 10
55.51927385277991
 20
107.2841591361783
 30
0.0
 10
55.54468297794296
 20
107.2766473297163
 30
0.0
  0
LINE
  5
1E4
330
1F
100
AcDbEntity
  8
0
  6
Continuous
 62
     7
370
    15
100
AcDbLine
 10
55.8138215573
 20
107.6790341581
 30
0.0
 11
55.7077550617
 21
107.6506177717
 31
0.0
  0
LINE
  5
1E5
330
1F
100
AcDbEntity
  8
0
  6
Continuous
 62
     7
370
    15
100
AcDbLine
 10
55.8854531721
 20
107.4750044559
 30
0.0
 11
55.7793866765
 21
107.4465880695
 31
0.0
  0
LINE
  5
1E6
330
1F
100
AcDbEntity
  8
0
  6
Continuous
 62
     7
370
    15
100
AcDbLine
 10
55.8124209154
 20
107.3113676515
 30
0.0
 11
55.7063544199
 21
107.2829512652
 31
0.0
  0
LINE
  5
1E7
330
1F
100
AcDbEntity
  8
0
  6
Continuous
 62
     7
370
    15
100
AcDbLine
 10
55.6493488316
 20
107.7765323996
 30
0.0
 11
55.5432823361
 21
107.7481160132
 31
0.0
  0
LINE
  5
1E8
330
1F
100
AcDbEntity
  8
0
  6
Continuous
 62
     7
370
    15
100
AcDbLine
 10
55.2835871615
 20
106.2086733265
 30
0.0
 11
55.177520666
 21
106.1802569401
 31
0.0
  0
LINE
  5
1E9
330
1F
100
AcDbEntity
  8
0
  6
Continuous
 62
     7
370
    15
100
AcDbLine
 10
56.1763626566
 20
105.9694889045
 30
0.0
 11
55.2835871615
 21
106.2086733265
 31
0.0
  0
LINE
  5
1EA
330
1F
100
AcDbEntity
  8
0
  6
Continuous
 62
     7
370
    15
100
AcDbLine
 10
55.2835871615
 20
106.2086733265
 30
0.0
 11
55.2835871615
 21
106.4135594226
 31
0.0
  0
LINE
  5
1EB
330
1F
100
AcDbEntity
  8
0
  6
Continuous
 62
     7
370
    15
100
AcDbLine
 10
55.3872329709
 20
107.9996978671
 30
0.0
 11
55.2811664754
 21
107.9712814807
 31
0.0
  0
LINE
  5
1EC
330
1F
100
AcDbEntity
  8
0
  6
Continuous
 62
     7
370
    15
100
AcDbLine
 10
56.1287607547
 20
105.5244466422
 30
0.0
 11
56.0226942591
 21
105.4960302558
 31
0.0
  0
LINE
  5
1ED
330
1F
100
AcDbEntity
  8
0
  6
Continuous
 62
     7
370
    15
100
AcDbLine
 10
56.1763626566
 20
105.5116935666
 30
0.0
 11
56.1287607547
 21
105.5244466422
 31
0.0
  0
LINE
  5
1EE
330
1F
100
AcDbEntity
  8
0
  6
Continuous
 62
     7
370
    15
100
AcDbLine
 10
56.1287607547
 20
105.5244466422
 30
0.0
 11
56.1287607547
 21
105.7293327173
 31
0.0
  0
LINE
  5
1EF
330
1F
100
AcDbEntity
  8
0
  6
Continuous
 62
     7
370
    15
100
AcDbLine
 10
55.2707814755
 20
107.7048387869
 30
0.0
 11
55.1647149799
 21
107.6764224005
 31
0.0
  0
LINE
  5
1F0
330
1F
100
AcDbEntity
  8
0
  6
Continuous
 62
     7
370
    15
100
AcDbLine
 10
55.2835871615
 20
105.7508779885
 30
0.0
 11
55.177520666
 21
105.7224616021
 31
0.0
  0
LINE
  5
1F1
330
1F
100
AcDbEntity
  8
0
  6
Continuous
 62
     7
370
    15
100
AcDbLine
 10
55.8926372341
 20
105.5877067429
 30
0.0
 11
55.2835871615
 21
105.7508779885
 31
0.0
  0
LINE
  5
1F2
330
1F
100
AcDbEntity
  8
0
  6
Continuous
 62
     7
370
    15
100
AcDbLine
 10
55.2835871615
 20
105.7508779885
 30
0.0
 11
55.2835871615
 21
105.9557640636
 31
0.0
  0
LINE
  5
1F3
330
1F
100
AcDbEntity
  8
0
  6
Continuous
 62
     7
370
    15
100
AcDbLine
 10
55.3732267582
 20
107.3794151187
 30
0.0
 11
55.2671602627
 21
107.3509987323
 31
0.0
  0
LINE
  5
1F4
330
1F
100
AcDbEntity
  8
0
  6
Continuous
 62
     7
370
    15
100
AcDbLine
 10
55.8926370695
 20
105.126470318
 30
0.0
 11
55.7929927
 21
105.0997744901
 31
0.0
  0
SPLINE
  5
1F5
330
1F
100
AcDbEntity
  8
0
  6
Continuous
 62
     7
370
    15
100
AcDbSpline
210
0.0
220
0.0
230
1.0
 70
     8
 71
     3
 72
     9
 73
     5
 74
     0
 42
0.00000001
 43
0.00000001
 40
0.0
 40
0.0
 40
0.0
 40
0.0
 40
0.1031907797170933
 40
1.0
 40
1.0
 40
1.0
 40
1.0
 10
55.82894494958465
 20
104.5167076616186
 30
0.0
 10
55.82545038312778
 20
104.5157387836929
 30
0.0
 10
55.79158527941932
 20
104.5063495928335
 30
0.0
 10
55.75425687279486
 20
104.5190190696837
 30
0.0
 10
55.72078041355557
 20
104.5303811733391
 30
0.0
  0
LINE
  5
1F6
330
1F
100
AcDbEntity
  8
0
  6
Continuous
 62
     7
370
    15
100
AcDbLine
 10
55.7207804136
 20
104.5303811733
 30
0.0
 11
55.2835871615
 21
104.6475100774
 31
0.0
  0
LINE
  5
1F7
330
1F
100
AcDbEntity
  8
0
  6
Continuous
 62
     7
370
    15
100
AcDbLine
 10
55.2835871615
 20
104.6475100774
 30
0.0
 11
55.2835871615
 21
104.8523961735
 31
0.0
  0
SPLINE
  5
1F8
330
1F
100
AcDbEntity
  8
0
  6
Continuous
 62
     7
370
    15
100
AcDbSpline
210
0.0
220
0.0
230
1.0
 70
     8
 71
     3
 72
    11
 73
     7
 74
     0
 42
0.00000001
 43
0.00000001
 40
0.0
 40
0.0
 40
0.0
 40
0.0
 40
0.1474657864748369
 40
0.3612371472684701
 40
0.5748461819736713
 40
0.9999999999999999
 40
0.9999999999999999
 40
0.9999999999999999
 40
0.9999999999999999
 10
55.7838182694932
 20
104.8026588213876
 30
0.0
 10
55.79096079061718
 20
104.8019053710092
 30
0.0
 10
55.80845735044174
 20
104.8000596936367
 30
0.0
 10
55.82978671411466
 20
104.8207494861038
 30
0.0
 10
55.8551050399802
 20
104.8584192118954
 30
0.0
 10
55.85794898347162
 20
104.900497802557
 30
0.0
 10
55.85984188226568
 20
104.9285048687169
 30
0.0
  0
LINE
  5
1F9
330
1F
100
AcDbEntity
  8
0
  6
Continuous
 62
     7
370
    15
100
AcDbLine
 10
55.8598418823
 20
104.9285048687
 30
0.0
 11
55.8491404517
 21
105.0168504158
 31
0.0
  0
SPLINE
  5
1FA
330
1F
100
AcDbEntity
  8
0
  6
Continuous
 62
     7
370
    15
100
AcDbSpline
210
0.0
220
0.0
230
1.0
 70
     8
 71
     3
 72
     9
 73
     5
 74
     0
 42
0.00000001
 43
0.00000001
 40
0.0
 40
0.0
 40
0.0
 40
0.0
 40
0.0784501372813368
 40
0.9999999999999999
 40
0.9999999999999999
 40
0.9999999999999999
 40
0.9999999999999999
 10
55.80957896660228
 20
105.1042181365564
 30
0.0
 10
55.80638575740813
 20
105.1087205715598
 30
0.0
 10
55.76568207855158
 20
105.1661128867231
 30
0.0
 10
55.70878523600719
 20
105.1802170957716
 30
0.0
 10
55.65635195857128
 20
105.193214827684
 30
0.0
  0
LINE
  5
1FB
330
1F
100
AcDbEntity
  8
0
  6
Continuous
 62
     7
370
    15
100
AcDbLine
 10
55.6563519586
 20
105.1932148277
 30
0.0
 11
55.2835871615
 21
105.2930826366
 31
0.0
  0
LINE
  5
1FC
330
1F
100
AcDbEntity
  8
0
  6
Continuous
 62
     7
370
    15
100
AcDbLine
 10
55.2835871615
 20
105.2930826366
 30
0.0
 11
55.2835871615
 21
105.4979687046
 31
0.0
  0
LINE
  5
1FD
330
1F
100
AcDbEntity
  8
0
  6
Continuous
 62
     7
370
    15
100
AcDbLine
 10
55.8598418823
 20
104.9285048687
 30
0.0
 11
55.7537753867
 21
104.9000884823
 31
0.0
  0
LINE
  5
1FE
330
1F
100
AcDbEntity
  8
0
  6
Continuous
 62
     7
370
    15
100
AcDbLine
 10
55.5909230098
 20
103.4618035589
 30
0.0
 11
55.5909230098
 21
104.1771677112
 31
0.0
  0
SPLINE
  5
1FF
330
1F
100
AcDbEntity
  8
0
  6
Continuous
 62
     7
370
    15
100
AcDbSpline
210
0.0
220
0.0
230
1.0
 70
     8
 71
     3
 72
     9
 73
     5
 74
     0
 42
0.00000001
 43
0.00000001
 40
0.0
 40
0.0
 40
0.0
 40
0.0
 40
0.995832873751489
 40
1.0
 40
1.0
 40
1.0
 40
1.0
 10
55.59092300984322
 20
104.1771677112349
 30
0.0
 10
55.56285159619105
 20
104.1868676065131
 30
0.0
 10
55.53466271591597
 20
104.1966080916224
 30
0.0
 10
55.51436970322676
 20
104.1800483060954
 30
0.0
 10
55.51428513968092
 20
104.1799792993785
 30
0.0
  0
SPLINE
  5
200
330
1F
100
AcDbEntity
  8
0
  6
Continuous
 62
     7
370
    15
100
AcDbSpline
210
0.0
220
0.0
230
1.0
 70
     8
 71
     3
 72
    10
 73
     6
 74
     0
 42
0.00000001
 43
0.00000001
 40
0.0
 40
0.0
 40
0.0
 40
0.0
 40
0.0113274197039478
 40
0.396271870383006
 40
0.9999999999999999
 40
0.9999999999999999
 40
0.9999999999999999
 40
0.9999999999999999
 10
55.39521737034639
 20
103.6109816683605
 30
0.0
 10
55.39414697204479
 20
103.6119993635789
 30
0.0
 10
55.35670077969755
 20
103.6476018218808
 30
0.0
 10
55.2894331123286
 20
103.7930368877324
 30
0.0
 10
55.2778528851661
 20
103.9383705130168
 30
0.0
 10
55.27078147545505
 20
104.0271177884162
 30
0.0
  0
SPLINE
  5
201
330
1F
100
AcDbEntity
  8
0
  6
Continuous
 62
     7
370
    15
100
AcDbSpline
210
0.0
220
0.0
230
1.0
 70
     8
 71
     3
 72
     9
 73
     5
 74
     0
 42
0.00000001
 43
0.00000001
 40
0.0
 40
0.0
 40
0.0
 40
0.0
 40
0.5009439211318194
 40
1.0
 40
1.0
 40
1.0
 40
1.0
 10
55.27078147545505
 20
104.0271177884162
 30
0.0
 10
55.2749448316121
 20
104.1023952888451
 30
0.0
 10
55.28325585402683
 20
104.2526666011686
 30
0.0
 10
55.36104322421613
 20
104.3420261091565
 30
0.0
 10
55.39986348416828
 20
104.3866215148226
 30
0.0
  0
LINE
  5
202
330
1F
100
AcDbEntity
  8
0
  6
Continuous
 62
     7
370
    15
100
AcDbLine
 10
55.7113432238
 20
103.446647338
 30
0.0
 11
55.5909230098
 21
103.4618035589
 31
0.0
  0
SPLINE
  5
203
330
1F
100
AcDbEntity
  8
0
  6
Continuous
 62
     7
370
    15
100
AcDbSpline
210
0.0
220
0.0
230
1.0
 70
     8
 71
     3
 72
     9
 73
     5
 74
     0
 42
0.00000001
 43
0.00000001
 40
0.0
 40
0.0
 40
0.0
 40
0.0
 40
0.5596831090092468
 40
1.0
 40
1.0
 40
1.0
 40
1.0
 10
55.80861922029995
 20
104.0697723089838
 30
0.0
 10
55.7936654915008
 20
104.0893608526819
 30
0.0
 10
55.76694728514716
 20
104.1243602003177
 30
0.0
 10
55.73364373795646
 20
104.1372044076885
 30
0.0
 10
55.71897962359849
 20
104.1428599291453
 30
0.0
  0
SPLINE
  5
204
330
1F
100
AcDbEntity
  8
0
  6
Continuous
 62
     7
370
    15
100
AcDbSpline
210
0.0
220
0.0
230
1.0
 70
     8
 71
     3
 72
    11
 73
     7
 74
     0
 42
0.00000001
 43
0.00000001
 40
0.0
 40
0.0
 40
0.0
 40
0.0
 40
0.0891522486635951
 40
0.4421732126749968
 40
0.7204661460383367
 40
0.9999999999999999
 40
0.9999999999999999
 40
0.9999999999999999
 40
0.9999999999999999
 10
55.76668870365994
 20
103.6972870953776
 30
0.0
 10
55.77206475132987
 20
103.6979579885786
 30
0.0
 10
55.79872862470764
 20
103.701285453746
 30
0.0
 10
55.83561909701758
 20
103.7343150351857
 30
0.0
 10
55.85755197645741
 20
103.8021689600447
 30
0.0
 10
55.85907744915976
 20
103.8496153604046
 30
0.0
 10
55.85984188226568
 20
103.873391334328
 30
0.0
  0
SPLINE
  5
205
330
1F
100
AcDbEntity
  8
0
  6
Continuous
 62
     7
370
    15
100
AcDbSpline
210
0.0
220
0.0
230
1.0
 70
     8
 71
     3
 72
     9
 73
     5
 74
     0
 42
0.00000001
 43
0.00000001
 40
0.0
 40
0.0
 40
0.0
 40
0.0
 40
0.560274140199798
 40
1.0
 40
1.0
 40
1.0
 40
1.0
 10
55.85984188226568
 20
103.873391334328
 30
0.0
 10
55.85800866250072
 20
103.9123399499594
 30
0.0
 10
55.85473665754203
 20
103.9818570181886
 30
0.0
 10
55.8227045613425
 20
104.0429209285134
 30
0.0
 10
55.80861922029995
 20
104.0697723089838
 30
0.0
  0
LINE
  5
206
330
1F
100
AcDbEntity
  8
0
  6
Continuous
 62
     7
370
    15
100
AcDbLine
 10
55.2835871615
 20
105.2930826366
 30
0.0
 11
55.177520666
 21
105.2646662502
 31
0.0
  0
SPLINE
  5
207
330
1F
100
AcDbEntity
  8
0
  6
Continuous
 62
     7
370
    15
100
AcDbSpline
210
0.0
220
0.0
230
1.0
 70
     8
 71
     3
 72
     9
 73
     5
 74
     0
 42
0.00000001
 43
0.00000001
 40
0.0
 40
0.0
 40
0.0
 40
0.0
 40
0.560274140199798
 40
1.0
 40
1.0
 40
1.0
 40
1.0
 10
55.75377538672097
 20
103.8449749479389
 30
0.0
 10
55.75194216695601
 20
103.8839235635702
 30
0.0
 10
55.74867016199732
 20
103.9534406317995
 30
0.0
 10
55.71663806579778
 20
104.0145045421243
 30
0.0
 10
55.70255272475524
 20
104.0413559225946
 30
0.0
  0
SPLINE
  5
208
330
1F
100
AcDbEntity
  8
0
  6
Continuous
 62
     7
370
    15
100
AcDbSpline
210
0.0
220
0.0
230
1.0
 70
     8
 71
     3
 72
    11
 73
     7
 74
     0
 42
0.00000001
 43
0.00000001
 40
0.0
 40
0.0
 40
0.0
 40
0.0
 40
0.2807722484986485
 40
0.559526270569002
 40
0.7792732045960767
 40
1.0
 40
1.0
 40
1.0
 40
1.0
 10
55.61291312805378
 20
103.660797990929
 30
0.0
 10
55.63465288922158
 20
103.6622194949166
 30
0.0
 10
55.67797614340471
 20
103.6650522849415
 30
0.0
 10
55.72976536896087
 20
103.7050025293013
 30
0.0
 10
55.75143739042559
 20
103.7739551178667
 30
0.0
 10
55.75299489969689
 20
103.8212665888055
 30
0.0
 10
55.75377538672097
 20
103.8449749479389
 30
0.0
  0
LINE
  5
209
330
1F
100
AcDbEntity
  8
0
  6
Continuous
 62
     7
370
    15
100
AcDbLine
 10
55.6129131281
 20
104.1144435428
 30
0.0
 11
55.6129131281
 21
103.6607979909
 31
0.0
  0
SPLINE
  5
20A
330
1F
100
AcDbEntity
  8
0
  6
Continuous
 62
     7
370
    15
100
AcDbSpline
210
0.0
220
0.0
230
1.0
 70
     8
 71
     3
 72
     9
 73
     5
 74
     0
 42
0.00000001
 43
0.00000001
 40
0.0
 40
0.0
 40
0.0
 40
0.0
 40
0.5596831090092468
 40
1.0
 40
1.0
 40
1.0
 40
1.0
 10
55.70255272475524
 20
104.0413559225946
 30
0.0
 10
55.68759899595609
 20
104.0609444662927
 30
0.0
 10
55.66088078960245
 20
104.0959438139285
 30
0.0
 10
55.62757724241175
 20
104.1087880212993
 30
0.0
 10
55.61291312805378
 20
104.1144435427561
 30
0.0
  0
LINE
  5
20B
330
1F
100
AcDbEntity
  8
0
  6
Continuous
 62
     7
370
    15
100
AcDbLine
 10
55.8086192203
 20
104.069772309
 30
0.0
 11
55.7025527248
 21
104.0413559226
 31
0.0
  0
LINE
  5
20C
330
1F
100
AcDbEntity
  8
0
  6
Continuous
 62
     7
370
    15
100
AcDbLine
 10
55.8598418823
 20
103.8733913343
 30
0.0
 11
55.7537753867
 21
103.8449749479
 31
0.0
  0
LINE
  5
20D
330
1F
100
AcDbEntity
  8
0
  6
Continuous
 62
     7
370
    15
100
AcDbLine
 10
55.2835871615
 20
104.6475100774
 30
0.0
 11
55.177520666
 21
104.619093691
 31
0.0
  0
LINE
  5
20E
330
1F
100
AcDbEntity
  8
0
  6
Continuous
 62
     7
370
    15
100
AcDbLine
 10
55.7189796236
 20
104.1428599291
 30
0.0
 11
55.6129131281
 21
104.1144435428
 31
0.0
  0
LINE
  5
20F
330
1F
100
AcDbEntity
  8
0
  6
Continuous
 62
     7
370
    15
100
AcDbLine
 10
55.2707814755
 20
104.0271177884
 30
0.0
 11
55.1647149799
 21
103.998701402
 31
0.0
  0
LINE
  5
210
330
1F
100
AcDbEntity
  8
0
  6
Continuous
 62
     7
370
    15
100
AcDbLine
 10
55.5909230098
 20
103.4618035589
 30
0.0
 11
55.4848565143
 21
103.4333871725
 31
0.0
  0
LINE
  5
211
330
1F
100
AcDbEntity
  8
0
  6
Continuous
 62
     7
370
    15
100
AcDbLine
 10
95.3058305316
 20
111.3208523059
 30
0.0
 11
94.9522777416
 21
111.2261316061
 31
0.0
  0
LINE
  5
212
330
1F
100
AcDbEntity
  8
0
  6
Continuous
 62
     7
370
    15
100
AcDbLine
 10
94.9522777416
 20
111.2261316061
 30
0.0
 11
65.3199322742
 21
103.2872987626
 31
0.0
  0
LINE
  5
213
330
1F
100
AcDbEntity
  8
0
  6
Continuous
 62
     7
370
    15
100
AcDbLine
 10
70.3449609168
 20
106.1490932279
 30
0.0
 11
72.4488553679
 21
105.5854366525
 31
0.0
  0
ELLIPSE
  5
214
330
1F
100
AcDbEntity
  8
0
  6
Continuous
 62
     7
370
    15
100
AcDbEllipse
 10
72.6256323119
 20
105.6327969765
 30
0.0
 11
0.4106845184115571
 21
-0.07234852453333929
 31
0.0
210
0.0
220
0.0
230
1.0
 40
0.2020716098
 41
4.303289246984766
 42
5.874085573779706
  0
LINE
  5
215
330
1F
100
AcDbEntity
  8
0
  6
Continuous
 62
     7
370
    15
100
AcDbLine
 10
73.5269414598
 20
105.6754889788
 30
0.0
 11
72.9966112869
 21
105.5334076644
 31
0.0
  0
ELLIPSE
  5
216
330
1F
100
AcDbEntity
  8
0
  6
Continuous
 62
     7
370
    15
100
AcDbEllipse
 10
73.1559623978
 20
105.7748782677
 30
0.0
 11
0.4106845184115571
 21
-0.07234852453333929
 31
0.0
210
0.0
220
0.0
230
1.0
 40
0.2020716098
 41
5.874085573779756
 42
6.562249913181155
  0
LINE
  5
217
330
1F
100
AcDbEntity
  8
0
  6
Continuous
 62
     7
370
    15
100
AcDbLine
 10
79.7848365441
 20
108.6781402367
 30
0.0
 11
81.8887309953
 21
108.1144836613
 31
0.0
  0
ELLIPSE
  5
218
330
1F
100
AcDbEntity
  8
0
  6
Continuous
 62
     7
370
    15
100
AcDbEllipse
 10
82.0655078407
 20
108.1618439589
 30
0.0
 11
0.4106845184115571
 21
-0.07234852453333929
 31
0.0
210
0.0
220
0.0
230
1.0
 40
0.2020716098
 41
4.303289246984635
 42
5.874085573779878
  0
LINE
  5
219
330
1F
100
AcDbEntity
  8
0
  6
Continuous
 62
     7
370
    15
100
AcDbLine
 10
82.9668170871
 20
108.2045359876
 30
0.0
 11
82.4364869143
 21
108.0624546732
 31
0.0
  0
ELLIPSE
  5
21A
330
1F
100
AcDbEntity
  8
0
  6
Continuous
 62
     7
370
    15
100
AcDbEllipse
 10
82.5958379266
 20
108.3039252501
 30
0.0
 11
0.4106845184115571
 21
-0.07234852453333929
 31
0.0
210
0.0
220
0.0
230
1.0
 40
0.2020716098
 41
5.874085573779576
 42
6.562249913180924
  0
LINE
  5
21B
330
1F
100
AcDbEntity
  8
0
  6
Continuous
 62
     7
370
    15
100
AcDbLine
 10
92.4774034371
 20
112.0786191839
 30
0.0
 11
95.3058305316
 21
111.3208523059
 31
0.0
  0
LINE
  5
21C
330
1F
100
AcDbEntity
  8
0
  6
Continuous
 62
     7
370
    15
100
AcDbLine
 10
94.9522764245
 20
110.1432383649
 30
0.0
 11
64.8701634974
 21
102.0839078482
 31
0.0
  0
LINE
  5
21D
330
1F
100
AcDbEntity
  8
0
  6
Continuous
 62
     7
370
    15
100
AcDbLine
 10
55.5909230098
 20
104.1771677112
 30
0.0
 11
55.4848565143
 21
104.1487513248
 31
0.0
  0
LWPOLYLINE
  5
21E
330
1F
100
AcDbEntity
  8
0
  6
Continuous
 62
     7
370
    15
100
AcDbPolyline
 90
        9
 70
   128
 43
0.0
 10
60.8280508931
 20
107.4684060436
 10
60.7911947912
 20
107.371898071
 10
60.6570387382
 20
106.8035078819
 10
60.6570387382
 20
106.2405573575
 10
60.7911947912
 20
105.744050947
 10
61.0449688686
 20
105.3677927452
 10
61.3908614689
 20
105.1525563922
 10
61.7913882387
 20
105.1216658319
 10
62.1205301008
 20
105.2318314268
  0
LWPOLYLINE
  5
21F
330
1F
100
AcDbEntity
  8
0
  6
Continuous
 62
     7
370
    15
100
AcDbPolyline
 90
        8
 70
   128
 43
0.0
 10
62.0576391003
 20
105.4448175594
 10
61.7077833792
 20
105.3566084016
 10
61.3558664138
 20
105.4368470841
 10
61.0689807185
 20
105.6879797117
 10
60.881728856
 20
106.0797159266
 10
60.8166975858
 20
106.5648069895
 10
60.881728856
 20
107.0847432445
 10
60.951566184
 20
107.312428367
  0
LWPOLYLINE
  5
220
330
1F
100
AcDbEntity
  8
0
  6
Continuous
 62
     7
370
    15
100
AcDbPolyline
 90
        6
 70
   128
 43
0.0
 10
60.8194076611
 20
106.6696456291
 10
60.8718686337
 20
106.3911183211
 10
61.0289815482
 20
106.1128328991
 10
61.2641188161
 20
105.9617592157
 10
61.5414819578
 20
105.9608966504
 10
61.80062449
 20
106.095603772
  0
ELLIPSE
  5
221
330
1F
100
AcDbEntity
  8
0
  6
Continuous
 62
     7
370
    15
100
AcDbEllipse
 10
70.168184305
 20
106.3425936481
 30
0.0
 11
0.2447470120335851
 21
-0.1878079064890273
 31
0.0
210
0.0
220
0.0
230
1.0
 40
0.2714444218
 41
4.132348800329931
 42
5.703145127124867
  0
LWPOLYLINE
  5
222
330
1F
100
AcDbEntity
  8
0
  6
Continuous
 62
     7
370
    15
100
AcDbPolyline
 90
        3
 70
   128
 43
0.0
 10
61.0111097822
 20
107.2523547288
 10
60.973658356
 20
107.0814349695
 10
60.8171381315
 20
106.7199328827
  0
LINE
  5
223
330
1F
100
AcDbEntity
  8
0
  6
Continuous
 62
     7
370
    15
100
AcDbLine
 10
71.7979932755
 20
111.3647536878
 30
0.0
 11
71.7757817217
 21
111.3566341395
 31
0.0
  0
ELLIPSE
  5
224
330
1F
100
AcDbEntity
  8
0
  6
Continuous
 62
     7
370
    15
100
AcDbEllipse
 10
79.6080598338
 20
108.8716406305
 30
0.0
 11
0.2447470120335851
 21
-0.187807906489013
 31
0.0
210
0.0
220
0.0
230
0.9999999999999999
 40
0.2714444218
 41
4.132348800329958
 42
5.703145127124818
  0
LINE
  5
225
330
1F
100
AcDbEntity
  8
0
  6
Continuous
 62
     7
370
    15
100
AcDbLine
 10
81.2378685736
 20
113.8938006084
 30
0.0
 11
81.2156573491
 21
113.8856811483
 31
0.0
  0
ELLIPSE
  5
226
330
1F
100
AcDbEntity
  8
0
  6
Continuous
 62
     7
370
    15
100
AcDbEllipse
 10
92.3006265561
 20
112.272119532
 30
0.0
 11
0.244747012033585
 21
-0.1878079064889988
 31
0.0
210
0.0
220
0.0
230
1.0
 40
0.2714444218
 41
4.132348800329699
 42
5.703145127124801
  0
LWPOLYLINE
  5
227
330
1F
100
AcDbEntity
  8
0
  6
Continuous
 62
     7
370
    15
100
AcDbPolyline
 90
       15
 70
   128
 43
0.0
 10
99.8291182295
 20
110.6529918716
 10
99.9588152776
 20
110.6922883309
 10
100.5349086961
 20
110.9911294306
 10
101.029259619
 20
111.4651643853
 10
101.4202631766
 20
112.0936753723
 10
101.6908307975
 20
112.8491933577
 10
101.829136998
 20
113.6986988965
 10
101.829136998
 20
114.6050644591
 10
101.6908307975
 20
115.5286775171
 10
101.4202631766
 20
116.4291716144
 10
101.029259619
 20
117.2671909502
 10
100.5349086961
 20
118.0061100564
 10
99.9588152776
 20
118.6136347435
 10
99.3261581542
 20
119.0632128469
 10
98.6645876342
 20
119.3351956685
  0
LWPOLYLINE
  5
228
330
1F
100
AcDbEntity
  8
0
  6
Continuous
 62
     7
370
    15
100
AcDbPolyline
 90
       16
 70
   128
 43
0.0
 10
96.1897141529
 20
118.6721497109
 10
96.8512846729
 20
118.4001668893
 10
97.4839417963
 20
117.9505887859
 10
98.0600352148
 20
117.3430640987
 10
98.5543861377
 20
116.6041449926
 10
98.9453896953
 20
115.7661256568
 10
99.2159573162
 20
114.8656315595
 10
99.3542635167
 20
113.9420185015
 10
99.3542635167
 20
113.0356529389
 10
99.2159573162
 20
112.1861474001
 10
98.9453896953
 20
111.4306294147
 10
98.5543861377
 20
110.8021184277
 10
98.0600352148
 20
110.328083473
 10
97.4839417963
 20
110.0292423733
 10
96.8512846729
 20
109.9186559407
 10
96.1897141529
 20
110.0011572269
  0
LWPOLYLINE
  5
229
330
1F
100
AcDbEntity
  8
0
  6
Continuous
 62
     7
370
    15
100
AcDbPolyline
 90
       17
 70
   128
 43
0.0
 10
95.6593839801
 20
117.8710279872
 10
96.2220747008
 20
117.7961006291
 10
96.7831687803
 20
117.5504869743
 10
97.3149823246
 20
117.1463057987
 10
97.7912759571
 20
116.6034985105
 10
98.188549517
 20
115.9488474624
 10
98.4872027441
 20
115.2146517421
 10
98.6725000465
 20
114.4371363556
 10
98.7352981922
 20
113.6546633713
 10
98.6725000465
 20
112.9058390216
 10
98.4872027441
 20
112.2276100255
 10
98.188549517
 20
111.6534393056
 10
97.7912759571
 20
111.2116562122
 10
97.3149823246
 20
110.9240575801
 10
96.7831687803
 20
110.8048338566
 10
96.2220747008
 20
110.8598668118
 10
95.6593839801
 20
111.0864415795
  0
LINE
  5
22A
330
1F
100
AcDbEntity
  8
0
  6
Continuous
 62
     7
370
    15
100
AcDbLine
 10
96.1897141529
 20
110.0011572269
 30
0.0
 11
95.6593839801
 21
110.1432385413
 31
0.0
  0
SPLINE
  5
22B
330
1F
100
AcDbEntity
  8
0
  6
Continuous
 62
     7
370
    15
100
AcDbSpline
210
0.0
220
0.0
230
1.0
 70
     8
 71
     3
 72
    12
 73
     8
 74
     0
 42
0.00000001
 43
0.00000001
 40
0.0
 40
0.0
 40
0.0
 40
0.0
 40
0.2019505512776354
 40
0.4036570336978207
 40
0.6119524569721126
 40
0.8312253802144899
 40
0.9999999999999999
 40
0.9999999999999999
 40
0.9999999999999999
 40
0.9999999999999999
 10
94.95227774157384
 20
111.2261316060594
 30
0.0
 10
94.99401382976536
 20
111.233533636838
 30
0.0
 10
95.07743556568518
 20
111.2483287526152
 30
0.0
 10
95.23568305045895
 20
111.2334794294946
 30
0.0
 10
95.4001401000137
 20
111.1957016877794
 30
0.0
 10
95.54909526616399
 20
111.1430380191267
 30
0.0
 10
95.62595510999273
 20
111.1035961455828
 30
0.0
 10
95.65938398011971
 20
111.0864415795235
 30
0.0
  0
LWPOLYLINE
  5
22C
330
1F
100
AcDbEntity
  8
0
  6
Continuous
 62
     7
370
    15
100
AcDbPolyline
 90
       12
 70
   128
 43
0.0
 10
95.2580890182
 20
117.8140195996
 10
94.8037720038
 20
117.6172320387
 10
94.3692050684
 20
117.2486493671
 10
94.0232923825
 20
116.7382596335
 10
93.7828790207
 20
116.110917839
 10
93.6596724226
 20
115.3971739226
 10
93.6596724226
 20
114.6317852977
 10
93.7828790207
 20
113.8520245628
 10
94.0232923825
 20
113.0958639749
 10
94.3692050684
 20
112.4001265783
 10
94.8037720038
 20
111.7986933371
 10
95.3058305316
 20
111.3208523059
  0
SPLINE
  5
22D
330
1F
100
AcDbEntity
  8
0
  6
Continuous
 62
     7
370
    15
100
AcDbSpline
210
0.0
220
0.0
230
1.0
 70
     8
 71
     3
 72
    12
 73
     8
 74
     0
 42
0.00000001
 43
0.00000001
 40
0.0
 40
0.0
 40
0.0
 40
0.0
 40
0.2218619284332231
 40
0.4436137013625213
 40
0.6671607977142732
 40
0.8841168535930493
 40
1.0
 40
1.0
 40
1.0
 40
1.0
 10
95.65938398011971
 20
117.871027987164
 30
0.0
 10
95.61442943189788
 20
117.8681462815132
 30
0.0
 10
95.52454265560148
 20
117.8623843009921
 30
0.0
 10
95.35325782684464
 20
117.8308515814455
 30
0.0
 10
95.17956443859855
 20
117.7907048524869
 30
0.0
 10
95.04134755451017
 20
117.7550545765218
 30
0.0
 10
94.97528013983417
 20
117.7374630701227
 30
0.0
 10
94.95227774157384
 20
117.7313383134908
 30
0.0
  0
LWPOLYLINE
  5
22E
330
1F
100
AcDbEntity
  8
0
  6
Continuous
 62
     7
370
    15
100
AcDbPolyline
 90
       11
 70
   128
 43
0.0
 10
96.632724946
 20
117.6334356168
 10
96.3710952558
 20
117.11903255
 10
96.1828261067
 20
116.4363817433
 10
96.119003101
 20
115.6816896564
 10
96.1828261067
 20
114.8927997923
 10
96.3710952558
 20
114.1092702141
 10
96.674369325
 20
113.3703906396
 10
97.0774416986
 20
112.7132113584
 10
97.5600998345
 20
112.1706859688
 10
98.0981415635
 20
111.7700193133
 10
98.2215765119
 20
111.7029171382
  0
LWPOLYLINE
  5
22F
330
1F
100
AcDbEntity
  8
0
  6
Continuous
 62
     7
370
    15
100
AcDbPolyline
 90
       20
 70
   128
 43
0.0
 10
91.4344205663
 20
114.767633359
 10
91.3664153092
 20
115.3046866378
 10
91.1697673337
 20
115.7471026053
 10
90.8657884571
 20
116.0469393311
 10
90.4874190759
 20
116.171704725
 10
90.075660171
 20
116.1078779879
 10
89.6751320842
 20
115.8623759784
 10
89.329240801
 20
115.4618030775
 10
89.0754654065
 20
114.9495667628
 10
88.9413093535
 20
114.3811765737
 10
88.9413093535
 20
113.8182260493
 10
89.0754654065
 20
113.3217196388
 10
89.329240801
 20
112.9454617898
 10
89.6751320842
 20
112.730225084
 10
90.075660171
 20
112.6993348766
 10
90.4874190759
 20
112.8561376622
 10
90.8657884571
 20
113.1836417339
 10
91.1697673337
 20
113.6463570607
 10
91.3664153092
 20
114.1941413602
 10
91.4344205663
 20
114.767633359
  0
LWPOLYLINE
  5
230
330
1F
100
AcDbEntity
  8
0
  6
Continuous
 62
     7
370
    15
100
AcDbPolyline
 90
       19
 70
   128
 43
0.0
 10
91.2576435128
 20
114.7202728326
 10
91.1926122426
 20
114.2003365777
 10
91.0053603802
 20
113.7082666759
 10
90.7184746849
 20
113.3034143516
 10
90.3665577194
 20
113.0346107803
 10
89.9920553115
 20
112.9342774463
 10
89.640137029
 20
113.0145157759
 10
89.3532513337
 20
113.2656484035
 10
89.1659994712
 20
113.6573846184
 10
89.1009682011
 20
114.1424756813
 10
89.1659994712
 20
114.6624119363
 10
89.3532513337
 20
115.154481838
 10
89.640137029
 20
115.5593341624
 10
89.9920553115
 20
115.8281380865
 10
90.3665577194
 20
115.9284714206
 10
90.7184746849
 20
115.8482327381
 10
91.0053603802
 20
115.5971001105
 10
91.1926122426
 20
115.2053638956
 10
91.2576435128
 20
114.7202728326
  0
LWPOLYLINE
  5
231
330
1F
100
AcDbEntity
  8
0
  6
Continuous
 62
     7
370
    15
100
AcDbPolyline
 90
        3
 70
   128
 43
0.0
 10
89.825752573
 20
115.5136248361
 10
89.5483894313
 20
115.3641449687
 10
89.3397664825
 20
115.1285286446
  0
LWPOLYLINE
  5
232
330
1F
100
AcDbEntity
  8
0
  6
Continuous
 62
     7
370
    15
100
AcDbPolyline
 90
       14
 70
   128
 43
0.0
 10
89.1036795935
 20
114.2473146737
 10
89.156139249
 20
113.9687870129
 10
89.3132534806
 20
113.6905019438
 10
89.5483894313
 20
113.5394279075
 10
89.825752573
 20
113.5385653422
 10
90.1031157147
 20
113.6880452096
 10
90.3382529826
 20
113.9651106385
 10
90.4953658971
 20
114.3275806329
 10
90.5505374389
 20
114.720272965
 10
90.4953658971
 20
115.0834031654
 10
90.3382529826
 20
115.3616885874
 10
90.1031157147
 20
115.5127622708
 10
89.825752573
 20
115.5136248361
 10
89.825752573
 20
115.5136248361
  0
ARC
  5
233
330
1F
100
AcDbEntity
  8
0
  6
Continuous
 62
     7
370
    15
100
AcDbCircle
 10
87.85474727
 20
115.0540709089
 30
0.0
 40
1.458264056967643
100
AcDbArc
 50
329.2263379384
 51
1.2589935629
  0
ARC
  5
234
330
1F
100
AcDbEntity
  8
0
  6
Continuous
 62
     7
370
    15
100
AcDbCircle
 10
95.3058305839
 20
108.6138249097
 30
0.0
 40
1.569747132694499
100
AcDbArc
 50
76.983624761
 51
103.0164038309
  0
LWPOLYLINE
  5
235
330
1F
100
AcDbEntity
  8
0
  6
PHANTOM
 62
     7
370
     0
100
AcDbPolyline
 90
        9
 70
   128
 43
0.0
 10
43.3941413497
 20
82.8583885348
 10
43.4702631679
 20
82.7558637469
 10
43.6870346172
 20
82.668946694
 10
44.0114593251
 20
82.6108713152
 10
44.3941415143
 20
82.5904774388
 10
44.7768256792
 20
82.6108711388
 10
45.1012497285
 20
82.6689470468
 10
45.3180228242
 20
82.7558638351
 10
45.3941413497
 20
82.8583884466
  0
LINE
  5
236
330
1F
100
AcDbEntity
  8
0
  6
PHANTOM
 62
     7
370
     0
100
AcDbLine
 10
44.3941428314
 20
84.0491666636
 30
0.0
 11
44.3941428314
 21
96.8366153125
 31
0.0
  0
LINE
  5
237
330
1F
100
AcDbEntity
  8
0
  6
PHANTOM
 62
     7
370
     0
100
AcDbLine
 10
106.4710950748
 20
117.2654097632
 30
0.0
 11
101.5838314737
 21
115.9426811589
 31
0.0
  0
LINE
  5
238
330
1F
100
AcDbEntity
  8
0
  6
PHANTOM
 62
     7
370
     0
100
AcDbLine
 10
98.5185922681
 20
115.1130802119
 30
0.0
 11
65.1942398352
 21
106.0939083593
 31
0.0
  0
LINE
  5
239
330
1F
100
AcDbEntity
  8
0
  6
PHANTOM
 62
     7
370
     0
100
AcDbLine
 10
62.1127938492
 20
105.259920976
 30
0.0
 11
48.8145016691
 21
101.6607637421
 31
0.0
  0
LWPOLYLINE
  5
23A
330
1F
100
AcDbEntity
  8
0
  6
Continuous
 62
     8
370
     0
100
AcDbPolyline
 90
       10
 70
   128
 43
0.0
 10
151.8743753841
 20
127.929097717
 10
151.8123253449
 20
128.6960739486
 10
151.6292861916
 20
129.4578386557
 10
151.3344360591
 20
130.17619393
 10
150.9425605885
 20
130.815118161
 10
150.473309431
 20
131.3425732591
 10
149.9502130403
 20
131.7321103938
 10
149.3995019028
 20
131.9641965565
 10
148.848790436
 20
132.0271936823
 10
148.4937552623
 20
131.9729162842
  0
LWPOLYLINE
  5
23B
330
1F
100
AcDbEntity
  8
0
  6
Continuous
 62
     8
370
     0
100
AcDbPolyline
 90
        7
 70
   128
 43
0.0
 10
150.305248214
 20
125.2113711531
 10
150.473309431
 20
125.2663442813
 10
150.9425605885
 20
125.542364237
 10
151.3344360591
 20
125.9713129289
 10
151.6292861916
 20
126.5316809849
 10
151.8123253449
 20
127.1953692678
 10
151.8743753841
 20
127.929097717
  0
LWPOLYLINE
  5
23C
330
1F
100
AcDbEntity
  8
0
  6
Continuous
 62
     8
370
     0
100
AcDbPolyline
 90
        7
 70
   128
 43
0.0
 10
151.8743753841
 20
88.4279069426
 10
151.8123253449
 20
87.6941812975
 10
151.6292861916
 20
87.0304909957
 10
151.3344360591
 20
86.4701246221
 10
150.9425605885
 20
86.0411752572
 10
150.473309431
 20
85.7651532826
 10
150.305248214
 20
85.710182622
  0
LWPOLYLINE
  5
23D
330
1F
100
AcDbEntity
  8
0
  6
Continuous
 62
     8
370
     0
100
AcDbPolyline
 90
       10
 70
   128
 43
0.0
 10
148.4937552623
 20
92.4717268558
 10
148.848790436
 20
92.5260055998
 10
149.3995019028
 20
92.4630053335
 10
149.9502130403
 20
92.2309223113
 10
150.473309431
 20
91.8413827091
 10
150.9425605885
 20
91.3139291812
 10
151.3344360591
 20
90.6750042773
 10
151.6292861916
 20
89.9566506854
 10
151.8123253449
 20
89.1948839594
 10
151.8743753841
 20
88.4279069426
  0
LWPOLYLINE
  5
23E
330
1F
100
AcDbEntity
  8
0
  6
Continuous
 62
     8
370
     0
100
AcDbPolyline
 90
        5
 70
   128
 43
0.0
 10
156.8241223466
 20
122.5110838683
 10
157.3127788352
 20
122.6752481247
 10
157.6528400238
 20
122.8644306996
 10
157.8272370975
 20
123.0691408214
 10
157.849245655
 20
123.1743115502
  0
LWPOLYLINE
  5
23F
330
1F
100
AcDbEntity
  8
0
  6
Continuous
 62
     8
370
     0
100
AcDbPolyline
 90
       12
 70
   128
 43
0.0
 10
150.8492925762
 20
123.1692399428
 10
150.8712547063
 20
123.0691417036
 10
151.0456570483
 20
122.8644308761
 10
151.3857093467
 20
122.6752482129
 10
151.8743753841
 20
122.5110838683
 10
152.487131951
 20
122.3801649244
 10
153.1932721047
 20
122.2890610673
 10
153.9573720777
 20
122.2423367524
 10
154.7411236774
 20
122.2423369288
 10
155.5052210162
 20
122.2890598323
 10
156.2113605114
 20
122.380165983
 10
156.8241223466
 20
122.5110838683
  0
LWPOLYLINE
  5
240
330
1F
100
AcDbEntity
  8
0
  6
Continuous
 62
     8
370
     0
100
AcDbPolyline
 90
        5
 70
   128
 43
0.0
 10
156.8241223466
 20
96.4981037244
 10
157.3127788352
 20
96.6622679808
 10
157.6528400238
 20
96.8514505557
 10
157.8272370975
 20
97.0561606775
 10
157.8492489477
 20
97.1611498584
  0
LWPOLYLINE
  5
241
330
1F
100
AcDbEntity
  8
0
  6
Continuous
 62
     8
370
     0
100
AcDbPolyline
 90
       12
 70
   128
 43
0.0
 10
150.8492484537
 20
97.1611495938
 10
150.8712547063
 20
97.0561615596
 10
151.0456570483
 20
96.8514507321
 10
151.3857093467
 20
96.662268069
 10
151.8743753841
 20
96.4981037244
 10
152.487131951
 20
96.3671847805
 10
153.1932721047
 20
96.2760809234
 10
153.9573720777
 20
96.2293566085
 10
154.7411236774
 20
96.2293567849
 10
155.5052210162
 20
96.2760796884
 10
156.2113605114
 20
96.3671858391
 10
156.8241223466
 20
96.4981037244
  0
LINE
  5
242
330
1F
100
AcDbEntity
  8
0
  6
Continuous
 62
     8
370
     0
100
AcDbLine
 10
62.248588361
 20
109.5789469985
 30
0.0
 11
59.7737148797
 21
108.9159010409
 31
0.0
  0
LINE
  5
243
330
1F
100
AcDbEntity
  8
0
  6
Continuous
 62
     8
370
     0
100
AcDbLine
 10
98.6645876342
 20
119.3351956685
 30
0.0
 11
96.1897141529
 21
118.6721497109
 31
0.0
  0
LINE
  5
244
330
1F
100
AcDbEntity
  8
0
  6
Continuous
 62
     8
370
     0
100
AcDbLine
 10
61.7182588467
 20
109.9104702419
 30
0.0
 11
61.7182588467
 21
109.7210286353
 31
0.0
  0
LINE
  5
245
330
1F
100
AcDbEntity
  8
0
  6
Continuous
 62
     8
370
     0
100
AcDbLine
 10
94.9522764245
 20
117.7313379606
 30
0.0
 11
94.9522764245
 21
118.8142308489
 31
0.0
  0
LINE
  5
246
330
1F
100
AcDbEntity
  8
0
  6
Continuous
 62
     8
370
     0
100
AcDbLine
 10
55.6563519586
 20
105.1932148277
 30
0.0
 11
55.550285463
 21
105.1647984413
 31
0.0
  0
LINE
  5
247
330
1F
100
AcDbEntity
  8
0
  6
Continuous
 62
     8
370
     0
100
AcDbLine
 10
55.7207804136
 20
104.5303811733
 30
0.0
 11
55.614713918
 21
104.5019647869
 31
0.0
  0
LINE
  5
248
330
1F
100
AcDbEntity
  8
0
  6
Continuous
 62
     8
370
     0
100
AcDbLine
 10
70.3449609168
 20
106.1490932279
 30
0.0
 11
65.4146604443
 21
104.8282112423
 31
0.0
  0
LINE
  5
249
330
1F
100
AcDbEntity
  8
0
  6
Continuous
 62
     8
370
     0
100
AcDbLine
 10
62.3007472263
 20
103.9939594767
 30
0.0
 11
60.9244063267
 21
103.6252225385
 31
0.0
  0
LINE
  5
24A
330
1F
100
AcDbEntity
  8
0
  6
Continuous
 62
     8
370
     0
100
AcDbLine
 10
79.7848365441
 20
108.6781402367
 30
0.0
 11
72.5496546598
 21
106.7397550477
 31
0.0
  0
LINE
  5
24B
330
1F
100
AcDbEntity
  8
0
  6
Continuous
 62
     8
370
     0
100
AcDbLine
 10
92.4774034371
 20
112.0786191839
 30
0.0
 11
81.9895302872
 21
109.2688020565
 31
0.0
  0
LINE
  5
24C
330
1F
100
AcDbEntity
  8
0
  6
Continuous
 62
     8
370
     0
100
AcDbLine
 10
94.9522764245
 20
110.1432383649
 30
0.0
 11
94.9522777416
 21
111.2261316061
 31
0.0
  0
LINE
  5
24D
330
1F
100
AcDbEntity
  8
0
  6
Continuous
 62
     8
370
     0
100
AcDbLine
 10
69.9914074682
 20
106.3899539558
 30
0.0
 11
69.9914074682
 21
111.0440453815
 31
0.0
  0
LINE
  5
24E
330
1F
100
AcDbEntity
  8
0
  6
Continuous
 62
     8
370
     0
100
AcDbLine
 10
60.7523092197
 20
103.9146974257
 30
0.0
 11
62.2830550988
 21
104.3248011643
 31
0.0
  0
LINE
  5
24F
330
1F
100
AcDbEntity
  8
0
  6
Continuous
 62
     8
370
     0
100
AcDbLine
 10
65.3824283126
 20
105.1551575022
 30
0.0
 11
69.9914074682
 21
106.3899539558
 31
0.0
  0
ARC
  5
250
330
1F
100
AcDbEntity
  8
0
  6
Continuous
 62
     8
370
     0
100
AcDbCircle
 10
60.9281914639
 20
106.0634602555
 30
0.0
 40
1.008585744727661
100
AcDbArc
 50
233.0027715618
 51
295.9777265719
  0
ARC
  5
251
330
1F
100
AcDbEntity
  8
0
  6
Continuous
 62
     8
370
     0
100
AcDbCircle
 10
61.2081061752
 20
106.2448042578
 30
0.0
 40
1.009993191471933
100
AcDbArc
 50
204.2026837705
 51
252.5575200917
  0
LINE
  5
252
330
1F
100
AcDbEntity
  8
0
  6
Continuous
 62
     8
370
     0
100
AcDbLine
 10
72.0618788099
 20
111.598747426
 30
0.0
 11
71.2454515489
 21
111.2145528251
 31
0.0
  0
ARC
  5
253
330
1F
100
AcDbEntity
  8
0
  6
Continuous
 62
     8
370
     0
100
AcDbCircle
 10
71.2193481333
 20
111.4399377988
 30
0.0
 40
0.2268915482809143
100
AcDbArc
 50
211.5489211527
 51
276.6063927848
  0
LINE
  5
254
330
1F
100
AcDbEntity
  8
0
  6
Continuous
 62
     8
370
     0
100
AcDbLine
 10
71.7757817217
 20
111.3566341395
 30
0.0
 11
72.5922089828
 21
111.7408287404
 31
0.0
  0
LINE
  5
255
330
1F
100
AcDbEntity
  8
0
  6
Continuous
 62
     8
370
     0
100
AcDbLine
 10
71.7757817217
 20
111.3566341395
 30
0.0
 11
71.2454515489
 21
111.2145528251
 31
0.0
  0
ARC
  5
256
330
1F
100
AcDbEntity
  8
0
  6
Continuous
 62
     8
370
     0
100
AcDbCircle
 10
71.6703706059
 20
110.5194982668
 30
0.0
 40
1.149846014312113
100
AcDbArc
 50
140.0613552967
 51
182.6320566571
  0
LINE
  5
257
330
1F
100
AcDbEntity
  8
0
  6
Continuous
 62
     8
370
     0
100
AcDbLine
 10
70.521737641
 20
108.241977133
 30
0.0
 11
70.521737641
 21
110.466695154
 31
0.0
  0
ARC
  5
258
330
1F
100
AcDbEntity
  8
0
  6
Continuous
 62
     8
370
     0
100
AcDbCircle
 10
72.2408983506
 20
108.232647168
 30
0.0
 40
1.719186026482351
100
AcDbArc
 50
179.6890561968
 51
223.0426424834
  0
LINE
  5
259
330
1F
100
AcDbEntity
  8
0
  6
Continuous
 62
     8
370
     0
100
AcDbLine
 10
72.4488553679
 20
105.5854366525
 30
0.0
 11
70.9844382563
 21
107.0592296698
 31
0.0
  0
LINE
  5
25A
330
1F
100
AcDbEntity
  8
0
  6
Continuous
 62
     8
370
     0
100
AcDbLine
 10
70.3449609168
 20
111.138766297
 30
0.0
 11
70.3449609168
 21
106.1490932279
 31
0.0
  0
ARC
  5
25B
330
1F
100
AcDbEntity
  8
0
  6
Continuous
 62
     8
370
     0
100
AcDbCircle
 10
71.3968704599
 20
106.8664225551
 30
0.0
 40
0.4552745392072116
100
AcDbArc
 50
109.4259403973
 51
154.9444744082
  0
LINE
  5
25C
330
1F
100
AcDbEntity
  8
0
  6
Continuous
 62
     8
370
     0
100
AcDbLine
 10
71.2454515489
 20
107.2957793059
 30
0.0
 11
72.9966112869
 21
105.5334076644
 31
0.0
  0
LINE
  5
25D
330
1F
100
AcDbEntity
  8
0
  6
Continuous
 62
     8
370
     0
100
AcDbLine
 10
73.5269414598
 20
105.6754889788
 30
0.0
 11
71.7757817217
 21
107.4378606203
 31
0.0
  0
LINE
  5
25E
330
1F
100
AcDbEntity
  8
0
  6
Continuous
 62
     8
370
     0
100
AcDbLine
 10
71.7757817217
 20
107.4378606203
 30
0.0
 11
71.2454515489
 21
107.2957793059
 31
0.0
  0
ARC
  5
25F
330
1F
100
AcDbEntity
  8
0
  6
Continuous
 62
     8
370
     0
100
AcDbCircle
 10
71.6650426005
 20
110.5413350545
 30
0.0
 40
0.7932709607624837
100
AcDbArc
 50
121.9337189754
 51
185.3990179981
  0
ARC
  5
260
330
1F
100
AcDbEntity
  8
0
  6
Continuous
 62
     8
370
     0
100
AcDbCircle
 10
70.6985141876
 20
111.2313980023
 30
0.0
 40
0.7848696667170572
100
AcDbArc
 50
256.9835703081
 51
283.0164439878
  0
ARC
  5
261
330
1F
100
AcDbEntity
  8
0
  6
Continuous
 62
     8
370
     0
100
AcDbCircle
 10
71.8114294745
 20
107.3531436593
 30
0.0
 40
0.0919115105028571
100
AcDbArc
 50
51.3089527675
 51
112.8207005301
  0
ARC
  5
262
330
1F
100
AcDbEntity
  8
0
  6
Continuous
 62
     8
370
     0
100
AcDbCircle
 10
72.1953727733
 20
110.683416369
 30
0.0
 40
0.7932709607624867
100
AcDbArc
 50
121.9337189754
 51
185.3990179981
  0
LINE
  5
263
330
1F
100
AcDbEntity
  8
0
  6
Continuous
 62
     8
370
     0
100
AcDbLine
 10
71.4056210978
 20
110.6087765125
 30
0.0
 11
70.875290925
 21
110.4666951981
 31
0.0
  0
LINE
  5
264
330
1F
100
AcDbEntity
  8
0
  6
Continuous
 62
     8
370
     0
100
AcDbLine
 10
70.875290925
 20
110.4666951981
 30
0.0
 11
70.875290925
 21
108.2419771771
 31
0.0
  0
ARC
  5
265
330
1F
100
AcDbEntity
  8
0
  6
Continuous
 62
     8
370
     0
100
AcDbCircle
 10
70.6985141876
 20
109.0066799814
 30
0.0
 40
0.7848696667165105
100
AcDbArc
 50
256.9835703081
 51
283.0164439878
  0
LWPOLYLINE
  5
266
330
1F
100
AcDbEntity
  8
0
  6
Continuous
 62
     8
370
     0
100
AcDbPolyline
 90
        5
 70
   128
 43
0.0
 10
71.4788362652
 20
110.655596762
 10
71.4740409087
 20
110.6430702683
 10
71.4598145363
 20
110.6305056655
 10
71.4367118072
 20
110.6189260348
 10
71.4056210978
 20
110.6087765125
  0
LINE
  5
267
330
1F
100
AcDbEntity
  8
0
  6
Continuous
 62
     8
370
     0
100
AcDbLine
 10
71.4056210978
 20
108.3840584916
 30
0.0
 11
71.4056210978
 21
110.6087765125
 31
0.0
  0
LINE
  5
268
330
1F
100
AcDbEntity
  8
0
  6
Continuous
 62
     8
370
     0
100
AcDbLine
 10
71.4056210978
 20
108.3840584916
 30
0.0
 11
70.875290925
 21
108.2419771771
 31
0.0
  0
ARC
  5
269
330
1F
100
AcDbEntity
  8
0
  6
Continuous
 62
     8
370
     0
100
AcDbCircle
 10
72.2506192386
 20
108.2345133442
 30
0.0
 40
1.375348566380386
100
AcDbArc
 50
179.689061932
 51
223.0426546623
  0
ARC
  5
26A
330
1F
100
AcDbEntity
  8
0
  6
Continuous
 62
     8
370
     0
100
AcDbCircle
 10
72.7809494114
 20
108.3765946586
 30
0.0
 40
1.375348566380466
100
AcDbArc
 50
179.689061932
 51
223.0426546623
  0
LWPOLYLINE
  5
26B
330
1F
100
AcDbEntity
  8
0
  6
Continuous
 62
     8
370
     0
100
AcDbPolyline
 90
        5
 70
   128
 43
0.0
 10
71.478844497
 20
108.4314188856
 10
71.4740409087
 20
108.4183522474
 10
71.4598145363
 20
108.4057876445
 10
71.4367118072
 20
108.3942080138
 10
71.4056210978
 20
108.3840584916
  0
LINE
  5
26C
330
1F
100
AcDbEntity
  8
0
  6
Continuous
 62
     8
370
     0
100
AcDbLine
 10
79.4312830956
 20
108.9190009646
 30
0.0
 11
79.4312830956
 21
113.5730923903
 31
0.0
  0
LINE
  5
26D
330
1F
100
AcDbEntity
  8
0
  6
Continuous
 62
     8
370
     0
100
AcDbLine
 10
72.2863116014
 20
107.004784136
 30
0.0
 11
79.4312830956
 21
108.9190009646
 31
0.0
  0
LINE
  5
26E
330
1F
100
AcDbEntity
  8
0
  6
Continuous
 62
     8
370
     0
100
AcDbLine
 10
81.5017544373
 20
114.1277944348
 30
0.0
 11
80.6853271763
 21
113.7435998339
 31
0.0
  0
ARC
  5
26F
330
1F
100
AcDbEntity
  8
0
  6
Continuous
 62
     8
370
     0
100
AcDbCircle
 10
80.659223628
 20
113.9689845346
 30
0.0
 40
0.226891292346386
100
AcDbArc
 50
211.5488799333
 51
276.6064340042
  0
LINE
  5
270
330
1F
100
AcDbEntity
  8
0
  6
Continuous
 62
     8
370
     0
100
AcDbLine
 10
81.2156573491
 20
113.8856811483
 30
0.0
 11
82.0320846101
 21
114.2698757492
 31
0.0
  0
LINE
  5
271
330
1F
100
AcDbEntity
  8
0
  6
Continuous
 62
     8
370
     0
100
AcDbLine
 10
81.2156573491
 20
113.8856811483
 30
0.0
 11
80.6853271763
 21
113.7435998339
 31
0.0
  0
ARC
  5
272
330
1F
100
AcDbEntity
  8
0
  6
Continuous
 62
     8
370
     0
100
AcDbCircle
 10
81.1102462332
 20
113.0485452756
 30
0.0
 40
1.149846014311847
100
AcDbArc
 50
140.0613552967
 51
182.6320566571
  0
LINE
  5
273
330
1F
100
AcDbEntity
  8
0
  6
Continuous
 62
     8
370
     0
100
AcDbLine
 10
79.9616132684
 20
110.7710241418
 30
0.0
 11
79.9616132684
 21
112.9957421628
 31
0.0
  0
ARC
  5
274
330
1F
100
AcDbEntity
  8
0
  6
Continuous
 62
     8
370
     0
100
AcDbCircle
 10
81.680773978
 20
110.7616941768
 30
0.0
 40
1.71918602648249
100
AcDbArc
 50
179.6890561968
 51
223.0426424834
  0
LINE
  5
275
330
1F
100
AcDbEntity
  8
0
  6
Continuous
 62
     8
370
     0
100
AcDbLine
 10
81.8887309953
 20
108.1144836613
 30
0.0
 11
80.4243138837
 21
109.5882766786
 31
0.0
  0
LINE
  5
276
330
1F
100
AcDbEntity
  8
0
  6
Continuous
 62
     8
370
     0
100
AcDbLine
 10
79.7848365441
 20
113.6678133058
 30
0.0
 11
79.7848365441
 21
108.6781402367
 31
0.0
  0
ARC
  5
277
330
1F
100
AcDbEntity
  8
0
  6
Continuous
 62
     8
370
     0
100
AcDbCircle
 10
80.8367457723
 20
109.3954699115
 30
0.0
 40
0.4552741066527925
100
AcDbArc
 50
109.4259175598
 51
154.9444972456
  0
LINE
  5
278
330
1F
100
AcDbEntity
  8
0
  6
Continuous
 62
     8
370
     0
100
AcDbLine
 10
80.6853271763
 20
109.8248263147
 30
0.0
 11
82.4364869143
 21
108.0624546732
 31
0.0
  0
LINE
  5
279
330
1F
100
AcDbEntity
  8
0
  6
Continuous
 62
     8
370
     0
100
AcDbLine
 10
81.2156573491
 20
109.9669076291
 30
0.0
 11
80.6853271763
 21
109.8248263147
 31
0.0
  0
LINE
  5
27A
330
1F
100
AcDbEntity
  8
0
  6
Continuous
 62
     8
370
     0
100
AcDbLine
 10
82.9668170871
 20
108.2045359876
 30
0.0
 11
81.2156573491
 21
109.9669076291
 31
0.0
  0
ARC
  5
27B
330
1F
100
AcDbEntity
  8
0
  6
Continuous
 62
     8
370
     0
100
AcDbCircle
 10
81.1049182278
 20
113.0703820633
 30
0.0
 40
0.7932709607623903
100
AcDbArc
 50
121.9337189754
 51
185.3990179981
  0
ARC
  5
27C
330
1F
100
AcDbEntity
  8
0
  6
Continuous
 62
     8
370
     0
100
AcDbCircle
 10
80.138389815
 20
113.7604441785
 30
0.0
 40
0.784868855448518
100
AcDbArc
 50
256.9835566175
 51
283.0164576784
  0
ARC
  5
27D
330
1F
100
AcDbEntity
  8
0
  6
Continuous
 62
     8
370
     0
100
AcDbCircle
 10
81.2513048763
 20
109.8821909952
 30
0.0
 40
0.0919111215217361
100
AcDbArc
 50
51.308841379
 51
112.8206499992
  0
ARC
  5
27E
330
1F
100
AcDbEntity
  8
0
  6
Continuous
 62
     8
370
     0
100
AcDbCircle
 10
81.6352484007
 20
113.2124633778
 30
0.0
 40
0.7932709607624703
100
AcDbArc
 50
121.9337189754
 51
185.3990179981
  0
LINE
  5
27F
330
1F
100
AcDbEntity
  8
0
  6
Continuous
 62
     8
370
     0
100
AcDbLine
 10
80.8454967251
 20
113.1378235213
 30
0.0
 11
80.3151665523
 21
112.9957422069
 31
0.0
  0
LINE
  5
280
330
1F
100
AcDbEntity
  8
0
  6
Continuous
 62
     8
370
     0
100
AcDbLine
 10
80.3151665523
 20
112.9957422069
 30
0.0
 11
80.3151665523
 21
110.7710241859
 31
0.0
  0
ARC
  5
281
330
1F
100
AcDbEntity
  8
0
  6
Continuous
 62
     8
370
     0
100
AcDbCircle
 10
80.138389815
 20
111.5357261575
 30
0.0
 40
0.7848688554487258
100
AcDbArc
 50
256.9835566175
 51
283.0164576784
  0
LWPOLYLINE
  5
282
330
1F
100
AcDbEntity
  8
0
  6
Continuous
 62
     8
370
     0
100
AcDbPolyline
 90
        5
 70
   128
 43
0.0
 10
80.9187118925
 20
113.1846437708
 10
80.9139162068
 20
113.1721171889
 10
80.8996898344
 20
113.1595525861
 10
80.8765874345
 20
113.1479730436
 10
80.8454967251
 20
113.1378235213
  0
LINE
  5
283
330
1F
100
AcDbEntity
  8
0
  6
Continuous
 62
     8
370
     0
100
AcDbLine
 10
80.8454967251
 20
110.9131055004
 30
0.0
 11
80.8454967251
 21
113.1378235213
 31
0.0
  0
LINE
  5
284
330
1F
100
AcDbEntity
  8
0
  6
Continuous
 62
     8
370
     0
100
AcDbLine
 10
80.8454967251
 20
110.9131055004
 30
0.0
 11
80.3151665523
 21
110.7710241859
 31
0.0
  0
ARC
  5
285
330
1F
100
AcDbEntity
  8
0
  6
Continuous
 62
     8
370
     0
100
AcDbCircle
 10
81.6904948659
 20
110.763560353
 30
0.0
 40
1.375348566380302
100
AcDbArc
 50
179.689061932
 51
223.0426546623
  0
ARC
  5
286
330
1F
100
AcDbEntity
  8
0
  6
Continuous
 62
     8
370
     0
100
AcDbCircle
 10
82.2208250387
 20
110.9056416674
 30
0.0
 40
1.375348566380434
100
AcDbArc
 50
179.689061932
 51
223.0426546623
  0
LWPOLYLINE
  5
287
330
1F
100
AcDbEntity
  8
0
  6
Continuous
 62
     8
370
     0
100
AcDbPolyline
 90
        5
 70
   128
 43
0.0
 10
80.9187201243
 20
110.9604658944
 10
80.9139162068
 20
110.947399168
 10
80.8996898344
 20
110.9348345651
 10
80.8765874345
 20
110.9232550226
 10
80.8454967251
 20
110.9131055004
  0
LINE
  5
288
330
1F
100
AcDbEntity
  8
0
  6
Continuous
 62
     8
370
     0
100
AcDbLine
 10
81.7261872288
 20
109.5338311449
 30
0.0
 11
92.1238496593
 21
112.3194798236
 31
0.0
  0
LINE
  5
289
330
1F
100
AcDbEntity
  8
0
  6
Continuous
 62
     8
370
     0
100
AcDbLine
 10
92.1238496593
 20
112.3194798236
 30
0.0
 11
92.1238496593
 21
116.9735712493
 31
0.0
  0
ARC
  5
28A
330
1F
100
AcDbEntity
  8
0
  6
Continuous
 62
     8
370
     0
100
AcDbCircle
 10
90.8372023377
 20
114.2527009246
 30
0.0
 40
2.796936631670482
100
AcDbArc
 50
139.8511539304
 51
180.3176088261
  0
LWPOLYLINE
  5
28B
330
1F
100
AcDbEntity
  8
0
  6
Continuous
 62
     8
370
     0
100
AcDbPolyline
 90
        3
 70
   128
 43
0.0
 10
90.2450972521
 20
116.4702327157
 10
90.5218505816
 20
116.2290281457
 10
90.5729299278
 20
116.1635155135
  0
LWPOLYLINE
  5
28C
330
1F
100
AcDbEntity
  8
0
  6
Continuous
 62
     8
370
     0
100
AcDbPolyline
 90
        7
 70
   128
 43
0.0
 10
89.6542445341
 20
112.7344462757
 10
89.3651935445
 20
112.6466299875
 10
88.9490711237
 20
112.6645542592
 10
88.5794300914
 20
112.8563008127
 10
88.2891160134
 20
113.2048324761
 10
88.103922761
 20
113.6791801063
 10
88.0403086786
 20
114.2371966899
  0
LINE
  5
28D
330
1F
100
AcDbEntity
  8
0
  6
Continuous
 62
     8
370
     0
100
AcDbLine
 10
95.6593839801
 20
118.8142310254
 30
0.0
 11
95.6593839801
 21
117.8710279872
 31
0.0
  0
LINE
  5
28E
330
1F
100
AcDbEntity
  8
0
  6
Continuous
 62
     8
370
     0
100
AcDbLine
 10
95.6593839801
 20
111.0864415795
 30
0.0
 11
95.6593839801
 21
110.1432385413
 31
0.0
  0
ARC
  5
28F
330
1F
100
AcDbEntity
  8
0
  6
Continuous
 62
     8
370
     0
100
AcDbCircle
 10
89.681891667
 20
114.0619995216
 30
0.0
 40
1.299890993600189
100
AcDbArc
 50
172.2542084045
 51
247.7473050779
  0
LWPOLYLINE
  5
290
330
1F
100
AcDbEntity
  8
0
  6
Continuous
 62
     8
370
     0
100
AcDbPolyline
 90
        7
 70
   128
 43
0.0
 10
90.1083185456
 20
116.2879901462
 10
89.7526228518
 20
116.3054952606
 10
89.3408639469
 20
116.148692475
 10
88.9624932486
 20
115.8211880504
 10
88.658514372
 20
115.3584727236
 10
88.4618677136
 20
114.8106887769
 10
88.3938611394
 20
114.2371964253
  0
LINE
  5
291
330
1F
100
AcDbEntity
  8
0
  6
Continuous
 62
     8
370
     0
100
AcDbLine
 10
92.4774034371
 20
117.068292253
 30
0.0
 11
92.4774034371
 21
112.0786191839
 31
0.0
  0
INSERT
  5
297
102
{ACAD_REACTORS
330
299
102
}
330
1F
100
AcDbEntity
  8
0
  6
Continuous
 62
     7
370
     0
100
AcDbBlockReference
  2
SW_NOTE_1
 10
56.0572184299
 20
77.4062625921
 30
0.0
  0
LEADER
  5
299
330
1F
100
AcDbEntity
  8
0
  6
Continuous
 62
     7
370
     0
100
AcDbLeader
  3
SLDDIMSTYLE1
 73
     2
 76
     3
 10
45.3941421307
 20
83.3341730716
 30
0.0
 10
55.5572184299
 20
77.4062625921
 30
0.0
 10
56.0572184299
 20
77.4062625921
 30
0.0
340
297
  0
INSERT
  5
29F
102
{ACAD_REACTORS
330
2A9
102
}
330
1F
100
AcDbEntity
  8
0
  6
Continuous
 62
     7
370
     0
100
AcDbBlockReference
  2
SW_NOTE_2
 10
30.121946459
 20
107.4467836262
 30
0.0
  0
LEADER
  5
2A9
330
1F
100
AcDbEntity
  8
0
  6
Continuous
 62
     7
370
     0
100
AcDbLeader
  3
SLDDIMSTYLE2
 73
     2
 76
     3
 10
41.6354631818
 20
98.3135822003
 30
0.0
 10
30.621946459
 20
107.4467836262
 30
0.0
 10
30.121946459
 20
107.4467836262
 30
0.0
340
29F
  0
INSERT
  5
2AF
102
{ACAD_REACTORS
330
2B0
102
}
330
1F
100
AcDbEntity
  8
0
  6
Continuous
 62
     7
370
     0
100
AcDbBlockReference
  2
SW_NOTE_3
 10
113.2996561209
 20
130.6589758166
 30
0.0
  0
LEADER
  5
2B0
330
1F
100
AcDbEntity
  8
0
  6
Continuous
 62
     7
370
     0
100
AcDbLeader
  3
SLDDIMSTYLE2
 73
     2
 76
     3
 10
122.2514963281
 20
121.4258218251
 30
0.0
 10
113.7996561209
 20
130.6589758166
 30
0.0
 10
113.2996561209
 20
130.6589758166
 30
0.0
340
2AF
  0
INSERT
  5
2B6
102
{ACAD_REACTORS
330
2B7
102
}
330
1F
100
AcDbEntity
  8
0
  6
Continuous
 62
     7
370
     0
100
AcDbBlockReference
  2
SW_NOTE_4
 10
54.9473571254
 20
127.1519791295
 30
0.0
  0
LEADER
  5
2B7
330
1F
100
AcDbEntity
  8
0
  6
Continuous
 62
     7
370
     0
100
AcDbLeader
  3
SLDDIMSTYLE2
 73
     2
 76
     3
 10
66.3392712211
 20
112.9835598127
 30
0.0
 10
55.4473571254
 20
127.1519791295
 30
0.0
 10
54.9473571254
 20
127.1519791295
 30
0.0
340
2B6
  0
ENDSEC
  0
SECTION
  2
OBJECTS
  0
DICTIONARY
  5
C
330
0
100
AcDbDictionary
281
     1
  3
ACAD_GROUP
350
D
  3
ACAD_IMAGE_DICT
350
89
  3
ACAD_IMAGE_VARS
350
2BA
  3
ACAD_LAYOUT
350
1A
  3
ACAD_MLINESTYLE
350
17
  3
ACAD_PLOTSETTINGS
350
19
  3
ACAD_PLOTSTYLENAME
350
E
  3
ACAD_SCALELIST
350
48
  3
AcDbVariableDictionary
350
2B8
  0
IMAGEDEF_REACTOR
  5
8C
330
8B
100
AcDbRasterImageDefReactor
 90
        2
330
8B
  0
DICTIONARY
  5
D
102
{ACAD_REACTORS
330
C
102
}
330
C
100
AcDbDictionary
281
     1
  0
DICTIONARY
  5
89
102
{ACAD_REACTORS
330
C
102
}
330
C
100
AcDbDictionary
281
     1
  3
P:\Navision\dxf\dxf87BD.bmp
350
8A
  0
RASTERVARIABLES
  5
2BA
102
{ACAD_REACTORS
330
C
102
}
330
C
100
AcDbRasterVariables
 90
        0
 70
     1
 71
     1
 72
     1
  0
DICTIONARY
  5
1A
102
{ACAD_REACTORS
330
C
102
}
330
C
100
AcDbDictionary
281
     1
  3
Layout1
350
1E
  3
Layout2
350
26
  3
Model
350
22
  0
DICTIONARY
  5
17
102
{ACAD_REACTORS
330
C
102
}
330
C
100
AcDbDictionary
281
     1
  3
Standard
350
18
  0
DICTIONARY
  5
19
102
{ACAD_REACTORS
330
C
102
}
330
C
100
AcDbDictionary
281
     1
  0
ACDBDICTIONARYWDFLT
  5
E
102
{ACAD_REACTORS
330
C
102
}
330
C
100
AcDbDictionary
281
     1
  3
Normal
350
F
100
AcDbDictionaryWithDefault
340
F
  0
DICTIONARY
  5
48
102
{ACAD_REACTORS
330
C
102
}
330
C
100
AcDbDictionary
281
     1
  3
A0
350
49
  3
A1
350
4A
  3
A2
350
4B
  3
A3
350
4C
  3
A4
350
4D
  3
A5
350
4E
  3
A6
350
4F
  3
A7
350
50
  3
A8
350
51
  3
A9
350
52
  3
B0
350
53
  3
B1
350
54
  3
B2
350
55
  3
B3
350
56
  3
B4
350
57
  3
B5
350
58
  3
B6
350
59
  3
B7
350
5A
  3
B8
350
5B
  3
B9
350
5C
  3
C0
350
5D
  3
C1
350
5E
  3
C2
350
5F
  3
C3
350
60
  3
C4
350
61
  3
C5
350
62
  3
C6
350
63
  3
C7
350
64
  3
C8
350
65
  3
C9
350
66
  3
D0
350
67
  3
D1
350
68
  3
D2
350
69
  0
DICTIONARY
  5
2B8
102
{ACAD_REACTORS
330
C
102
}
330
C
100
AcDbDictionary
281
     1
  3
CANNOSCALE
350
2B9
  0
IMAGEDEF
  5
8A
102
{ACAD_REACTORS
330
89
330
8C
102
}
330
89
100
AcDbRasterImageDef
 90
        0
  1
P:\Navision\dxf\dxf87BD.bmp
 10
1034.0
 20
1045.0
 11
0.2116850127011008
 21
0.2116850127011008
280
     1
281
     3
  0
LAYOUT
  5
1E
102
{ACAD_REACTORS
330
1A
102
}
330
1A
100
AcDbPlotSettings
  1

  2
none_device
  4

  6

 40
0.0
 41
0.0
 42
0.0
 43
0.0
 44
0.0
 45
0.0
 46
0.0
 47
0.0
 48
0.0
 49
0.0
140
0.0
141
0.0
142
1.0
143
1.0
 70
   688
 72
     0
 73
     0
 74
     5
  7

 75
    16
147
1.0
148
0.0
149
0.0
100
AcDbLayout
  1
Layout1
 70
     1
 71
     1
 10
0.0
 20
0.0
 11
420.0
 21
297.0
 12
0.0
 22
0.0
 32
0.0
 14
1.0000000000E+20
 24
1.0000000000E+20
 34
1.0000000000E+20
 15
-1.0000000000E+20
 25
-1.0000000000E+20
 35
-1.0000000000E+20
146
0.0
 13
0.0
 23
0.0
 33
0.0
 16
1.0
 26
0.0
 36
0.0
 17
0.0
 27
1.0
 37
0.0
 76
     0
330
1B
  0
LAYOUT
  5
26
102
{ACAD_REACTORS
330
1A
102
}
330
1A
100
AcDbPlotSettings
  1

  2
none_device
  4

  6

 40
0.0
 41
0.0
 42
0.0
 43
0.0
 44
0.0
 45
0.0
 46
0.0
 47
0.0
 48
0.0
 49
0.0
140
0.0
141
0.0
142
1.0
143
1.0
 70
   688
 72
     0
 73
     0
 74
     5
  7

 75
    16
147
1.0
148
0.0
149
0.0
100
AcDbLayout
  1
Layout2
 70
     1
 71
     2
 10
0.0
 20
0.0
 11
0.0
 21
0.0
 12
0.0
 22
0.0
 32
0.0
 14
0.0
 24
0.0
 34
0.0
 15
0.0
 25
0.0
 35
0.0
146
0.0
 13
0.0
 23
0.0
 33
0.0
 16
1.0
 26
0.0
 36
0.0
 17
0.0
 27
1.0
 37
0.0
 76
     0
330
23
  0
LAYOUT
  5
22
102
{ACAD_REACTORS
330
1A
102
}
330
1A
100
AcDbPlotSettings
  1

  2
none_device
  4

  6

 40
0.0
 41
0.0
 42
0.0
 43
0.0
 44
0.0
 45
0.0
 46
0.0
 47
0.0
 48
0.0
 49
0.0
140
0.0
141
0.0
142
1.0
143
1.0
 70
  1712
 72
     0
 73
     0
 74
     0
  7

 75
     0
147
1.0
148
0.0
149
0.0
100
AcDbLayout
  1
Model
 70
     1
 71
     0
 10
0.0
 20
0.0
 11
210.0
 21
297.0
 12
0.0
 22
0.0
 32
0.0
 14
0.0
 24
0.0
 34
0.0
 15
210.0
 25
297.0
 35
0.0
146
0.0
 13
0.0
 23
0.0
 33
0.0
 16
1.0
 26
0.0
 36
0.0
 17
0.0
 27
1.0
 37
0.0
 76
     0
330
1F
331
29
  0
MLINESTYLE
  5
18
102
{ACAD_REACTORS
330
17
102
}
330
17
100
AcDbMlineStyle
  2
Standard
 70
     0
  3

 62
   256
 51
90.0
 52
90.0
 71
     2
 49
0.5
 62
   256
  6
BYLAYER
 49
-0.5
 62
   256
  6
BYLAYER
  0
ACDBPLACEHOLDER
  5
F
102
{ACAD_REACTORS
330
E
102
}
330
E
  0
SCALE
  5
49
102
{ACAD_REACTORS
330
48
102
}
330
48
100
AcDbScale
 70
     0
300
1:1
140
1.0
141
1.0
290
     1
  0
SCALE
  5
4A
102
{ACAD_REACTORS
330
48
102
}
330
48
100
AcDbScale
 70
     0
300
1:2
140
1.0
141
2.0
290
     0
  0
SCALE
  5
4B
102
{ACAD_REACTORS
330
48
102
}
330
48
100
AcDbScale
 70
     0
300
1:4
140
1.0
141
4.0
290
     0
  0
SCALE
  5
4C
102
{ACAD_REACTORS
330
48
102
}
330
48
100
AcDbScale
 70
     0
300
1:5
140
1.0
141
5.0
290
     0
  0
SCALE
  5
4D
102
{ACAD_REACTORS
330
48
102
}
330
48
100
AcDbScale
 70
     0
300
1:8
140
1.0
141
8.0
290
     0
  0
SCALE
  5
4E
102
{ACAD_REACTORS
330
48
102
}
330
48
100
AcDbScale
 70
     0
300
1:10
140
1.0
141
10.0
290
     0
  0
SCALE
  5
4F
102
{ACAD_REACTORS
330
48
102
}
330
48
100
AcDbScale
 70
     0
300
1:16
140
1.0
141
16.0
290
     0
  0
SCALE
  5
50
102
{ACAD_REACTORS
330
48
102
}
330
48
100
AcDbScale
 70
     0
300
1:20
140
1.0
141
20.0
290
     0
  0
SCALE
  5
51
102
{ACAD_REACTORS
330
48
102
}
330
48
100
AcDbScale
 70
     0
300
1:30
140
1.0
141
30.0
290
     0
  0
SCALE
  5
52
102
{ACAD_REACTORS
330
48
102
}
330
48
100
AcDbScale
 70
     0
300
1:40
140
1.0
141
40.0
290
     0
  0
SCALE
  5
53
102
{ACAD_REACTORS
330
48
102
}
330
48
100
AcDbScale
 70
     0
300
1:50
140
1.0
141
50.0
290
     0
  0
SCALE
  5
54
102
{ACAD_REACTORS
330
48
102
}
330
48
100
AcDbScale
 70
     0
300
1:100
140
1.0
141
100.0
290
     0
  0
SCALE
  5
55
102
{ACAD_REACTORS
330
48
102
}
330
48
100
AcDbScale
 70
     0
300
2:1
140
2.0
141
1.0
290
     0
  0
SCALE
  5
56
102
{ACAD_REACTORS
330
48
102
}
330
48
100
AcDbScale
 70
     0
300
4:1
140
4.0
141
1.0
290
     0
  0
SCALE
  5
57
102
{ACAD_REACTORS
330
48
102
}
330
48
100
AcDbScale
 70
     0
300
8:1
140
8.0
141
1.0
290
     0
  0
SCALE
  5
58
102
{ACAD_REACTORS
330
48
102
}
330
48
100
AcDbScale
 70
     0
300
10:1
140
10.0
141
1.0
290
     0
  0
SCALE
  5
59
102
{ACAD_REACTORS
330
48
102
}
330
48
100
AcDbScale
 70
     0
300
100:1
140
100.0
141
1.0
290
     0
  0
SCALE
  5
5A
102
{ACAD_REACTORS
330
48
102
}
330
48
100
AcDbScale
 70
     0
300
1/128" = 1'-0"
140
0.0078125
141
12.0
290
     0
  0
SCALE
  5
5B
102
{ACAD_REACTORS
330
48
102
}
330
48
100
AcDbScale
 70
     0
300
1/64" = 1'-0"
140
0.015625
141
12.0
290
     0
  0
SCALE
  5
5C
102
{ACAD_REACTORS
330
48
102
}
330
48
100
AcDbScale
 70
     0
300
1/32" = 1'-0"
140
0.03125
141
12.0
290
     0
  0
SCALE
  5
5D
102
{ACAD_REACTORS
330
48
102
}
330
48
100
AcDbScale
 70
     0
300
1/16" = 1'-0"
140
0.0625
141
12.0
290
     0
  0
SCALE
  5
5E
102
{ACAD_REACTORS
330
48
102
}
330
48
100
AcDbScale
 70
     0
300
3/32" = 1'-0"
140
0.09375
141
12.0
290
     0
  0
SCALE
  5
5F
102
{ACAD_REACTORS
330
48
102
}
330
48
100
AcDbScale
 70
     0
300
1/8" = 1'-0"
140
0.125
141
12.0
290
     0
  0
SCALE
  5
60
102
{ACAD_REACTORS
330
48
102
}
330
48
100
AcDbScale
 70
     0
300
3/16" = 1'-0"
140
0.1875
141
12.0
290
     0
  0
SCALE
  5
61
102
{ACAD_REACTORS
330
48
102
}
330
48
100
AcDbScale
 70
     0
300
1/4" = 1'-0"
140
0.25
141
12.0
290
     0
  0
SCALE
  5
62
102
{ACAD_REACTORS
330
48
102
}
330
48
100
AcDbScale
 70
     0
300
3/8" = 1'-0"
140
0.375
141
12.0
290
     0
  0
SCALE
  5
63
102
{ACAD_REACTORS
330
48
102
}
330
48
100
AcDbScale
 70
     0
300
1/2" = 1'-0"
140
0.5
141
12.0
290
     0
  0
SCALE
  5
64
102
{ACAD_REACTORS
330
48
102
}
330
48
100
AcDbScale
 70
     0
300
3/4" = 1'-0"
140
0.75
141
12.0
290
     0
  0
SCALE
  5
65
102
{ACAD_REACTORS
330
48
102
}
330
48
100
AcDbScale
 70
     0
300
1" = 1'-0"
140
1.0
141
12.0
290
     0
  0
SCALE
  5
66
102
{ACAD_REACTORS
330
48
102
}
330
48
100
AcDbScale
 70
     0
300
1-1/2" = 1'-0"
140
1.5
141
12.0
290
     0
  0
SCALE
  5
67
102
{ACAD_REACTORS
330
48
102
}
330
48
100
AcDbScale
 70
     0
300
3" = 1'-0"
140
3.0
141
12.0
290
     0
  0
SCALE
  5
68
102
{ACAD_REACTORS
330
48
102
}
330
48
100
AcDbScale
 70
     0
300
6" = 1'-0"
140
6.0
141
12.0
290
     0
  0
SCALE
  5
69
102
{ACAD_REACTORS
330
48
102
}
330
48
100
AcDbScale
 70
     0
300
1'-0" = 1'-0"
140
12.0
141
12.0
290
     0
  0
DICTIONARYVAR
  5
2B9
102
{ACAD_REACTORS
330
2B8
102
}
330
2B8
100
DictionaryVariables
280
     0
  1
1:1
  0
ENDSEC
  0
EOF
